  0
SECTION
  2
HEADER
  9
$ACADVER
  1
AC1015
  9
$ACADMAINTVER
 70
    20
  9
$DWGCODEPAGE
  3
ANSI_1252
  9
$INSBASE
 10
0.0
 20
0.0
 30
0.0
  9
$EXTMIN
 10
1090.605595062316
 20
626.87286916135
 30
0.0
  9
$EXTMAX
 10
1428.347927501475
 20
762.6909959072305
 30
0.0
  9
$LIMMIN
 10
0.0
 20
0.0
  9
$LIMMAX
 10
420.0
 20
297.0
  9
$ORTHOMODE
 70
     1
  9
$REGENMODE
 70
     1
  9
$FILLMODE
 70
     1
  9
$QTEXTMODE
 70
     0
  9
$MIRRTEXT
 70
     1
  9
$LTSCALE
 40
1.0
  9
$ATTMODE
 70
     1
  9
$TEXTSIZE
 40
3.0
  9
$TRACEWID
 40
1.0
  9
$TEXTSTYLE
  7
ROMANS
  9
$CLAYER
  8
SPEC
  9
$CELTYPE
  6
ByLayer
  9
$CECOLOR
 62
   256
  9
$CELTSCALE
 40
1.0
  9
$DISPSILH
 70
     0
  9
$DIMSCALE
 40
1.0
  9
$DIMASZ
 40
3.0
  9
$DIMEXO
 40
1.0
  9
$DIMDLI
 40
1.0
  9
$DIMRND
 40
0.0
  9
$DIMDLE
 40
0.0
  9
$DIMEXE
 40
1.0
  9
$DIMTP
 40
0.2
  9
$DIMTM
 40
-0.2
  9
$DIMTXT
 40
3.0
  9
$DIMCEN
 40
-0.05
  9
$DIMTSZ
 40
0.0
  9
$DIMTOL
 70
     0
  9
$DIMLIM
 70
     0
  9
$DIMTIH
 70
     0
  9
$DIMTOH
 70
     0
  9
$DIMSE1
 70
     0
  9
$DIMSE2
 70
     0
  9
$DIMTAD
 70
     1
  9
$DIMZIN
 70
     8
  9
$DIMBLK
  1

  9
$DIMASO
 70
     1
  9
$DIMSHO
 70
     1
  9
$DIMPOST
  1

  9
$DIMAPOST
  1

  9
$DIMALT
 70
     0
  9
$DIMALTD
 70
     2
  9
$DIMALTF
 40
25.4
  9
$DIMLFAC
 40
1.0
  9
$DIMTOFL
 70
     1
  9
$DIMTVP
 40
5.0
  9
$DIMTIX
 70
     0
  9
$DIMSOXD
 70
     0
  9
$DIMSAH
 70
     0
  9
$DIMBLK1
  1

  9
$DIMBLK2
  1

  9
$DIMSTYLE
  2
STANDARD
  9
$DIMCLRD
 70
     3
  9
$DIMCLRE
 70
     3
  9
$DIMCLRT
 70
     6
  9
$DIMTFAC
 40
0.8
  9
$DIMGAP
 40
1.0
  9
$DIMJUST
 70
     0
  9
$DIMSD1
 70
     0
  9
$DIMSD2
 70
     0
  9
$DIMTOLJ
 70
     1
  9
$DIMTZIN
 70
     8
  9
$DIMALTZ
 70
     0
  9
$DIMALTTZ
 70
     0
  9
$DIMUPT
 70
     0
  9
$DIMDEC
 70
     2
  9
$DIMTDEC
 70
     0
  9
$DIMALTU
 70
     2
  9
$DIMALTTD
 70
     2
  9
$DIMTXSTY
  7
STANDARD
  9
$DIMAUNIT
 70
     0
  9
$DIMADEC
 70
     0
  9
$DIMALTRND
 40
0.0
  9
$DIMAZIN
 70
     0
  9
$DIMDSEP
 70
    46
  9
$DIMATFIT
 70
     3
  9
$DIMFRAC
 70
     0
  9
$DIMLDRBLK
  1

  9
$DIMLUNIT
 70
     2
  9
$DIMLWD
 70
    -1
  9
$DIMLWE
 70
    -2
  9
$DIMTMOVE
 70
     0
  9
$LUNITS
 70
     2
  9
$LUPREC
 70
     2
  9
$SKETCHINC
 40
1.0
  9
$FILLETRAD
 40
1.5
  9
$AUNITS
 70
     0
  9
$AUPREC
 70
     0
  9
$MENU
  1
.
  9
$ELEVATION
 40
0.0
  9
$PELEVATION
 40
0.0
  9
$THICKNESS
 40
0.0
  9
$LIMCHECK
 70
     0
  9
$CHAMFERA
 40
2.5
  9
$CHAMFERB
 40
2.5
  9
$CHAMFERC
 40
20.0
  9
$CHAMFERD
 40
0.0
  9
$SKPOLY
 70
     0
  9
$TDCREATE
 40
2453787.436149942
  9
$TDUCREATE
 40
2453787.352816609
  9
$TDUPDATE
 40
2453945.496459815
  9
$TDUUPDATE
 40
2453945.413126482
  9
$TDINDWG
 40
1.3194202546
  9
$TDUSRTIMER
 40
1.3185681713
  9
$USRTIMER
 70
     1
  9
$ANGBASE
 50
0.0
  9
$ANGDIR
 70
     0
  9
$PDMODE
 70
     0
  9
$PDSIZE
 40
0.0
  9
$PLINEWID
 40
0.0
  9
$SPLFRAME
 70
     0
  9
$SPLINETYPE
 70
     6
  9
$SPLINESEGS
 70
     8
  9
$HANDSEED
  5
61BD
  9
$SURFTAB1
 70
     6
  9
$SURFTAB2
 70
     6
  9
$SURFTYPE
 70
     6
  9
$SURFU
 70
     6
  9
$SURFV
 70
     6
  9
$UCSBASE
  2

  9
$UCSNAME
  2

  9
$UCSORG
 10
0.0
 20
0.0
 30
0.0
  9
$UCSXDIR
 10
1.0
 20
0.0
 30
0.0
  9
$UCSYDIR
 10
0.0
 20
1.0
 30
0.0
  9
$UCSORTHOREF
  2

  9
$UCSORTHOVIEW
 70
     0
  9
$UCSORGTOP
 10
0.0
 20
0.0
 30
0.0
  9
$UCSORGBOTTOM
 10
0.0
 20
0.0
 30
0.0
  9
$UCSORGLEFT
 10
0.0
 20
0.0
 30
0.0
  9
$UCSORGRIGHT
 10
0.0
 20
0.0
 30
0.0
  9
$UCSORGFRONT
 10
0.0
 20
0.0
 30
0.0
  9
$UCSORGBACK
 10
0.0
 20
0.0
 30
0.0
  9
$PUCSBASE
  2

  9
$PUCSNAME
  2

  9
$PUCSORG
 10
0.0
 20
0.0
 30
0.0
  9
$PUCSXDIR
 10
1.0
 20
0.0
 30
0.0
  9
$PUCSYDIR
 10
0.0
 20
1.0
 30
0.0
  9
$PUCSORTHOREF
  2

  9
$PUCSORTHOVIEW
 70
     0
  9
$PUCSORGTOP
 10
0.0
 20
0.0
 30
0.0
  9
$PUCSORGBOTTOM
 10
0.0
 20
0.0
 30
0.0
  9
$PUCSORGLEFT
 10
0.0
 20
0.0
 30
0.0
  9
$PUCSORGRIGHT
 10
0.0
 20
0.0
 30
0.0
  9
$PUCSORGFRONT
 10
0.0
 20
0.0
 30
0.0
  9
$PUCSORGBACK
 10
0.0
 20
0.0
 30
0.0
  9
$USERI1
 70
     0
  9
$USERI2
 70
     0
  9
$USERI3
 70
     0
  9
$USERI4
 70
     0
  9
$USERI5
 70
     0
  9
$USERR1
 40
0.0
  9
$USERR2
 40
0.0
  9
$USERR3
 40
0.0
  9
$USERR4
 40
0.0
  9
$USERR5
 40
0.0
  9
$WORLDVIEW
 70
     1
  9
$SHADEDGE
 70
     3
  9
$SHADEDIF
 70
    70
  9
$TILEMODE
 70
     0
  9
$MAXACTVP
 70
    64
  9
$PINSBASE
 10
0.0
 20
0.0
 30
0.0
  9
$PLIMCHECK
 70
     0
  9
$PEXTMIN
 10
-0.0132047132058233
 20
-0.001063177497258
 30
-0.0015258207003583
  9
$PEXTMAX
 10
282.0624719825711
 20
196.0516859387771
 30
0.0000000349246037
  9
$PLIMMIN
 10
-7.481447283785939
 20
-6.979945551003311
  9
$PLIMMAX
 10
289.5080546693391
 20
203.0145460261451
  9
$UNITMODE
 70
     0
  9
$VISRETAIN
 70
     1
  9
$PLINEGEN
 70
     0
  9
$PSLTSCALE
 70
     1
  9
$TREEDEPTH
 70
  3020
  9
$CMLSTYLE
  2
Standard
  9
$CMLJUST
 70
     0
  9
$CMLSCALE
 40
20.0
  9
$PROXYGRAPHICS
 70
     1
  9
$MEASUREMENT
 70
     1
  9
$CELWEIGHT
370
    -1
  9
$ENDCAPS
280
     0
  9
$JOINSTYLE
280
     0
  9
$LWDISPLAY
290
     0
  9
$INSUNITS
 70
     4
  9
$HYPERLINKBASE
  1

  9
$STYLESHEET
  1

  9
$XEDIT
290
     1
  9
$CEPSNTYPE
380
     0
  9
$PSTYLEMODE
290
     1
  9
$FINGERPRINTGUID
  2
{65A8C6A1-B973-4B90-93E8-5CEEA7DDEAA7}
  9
$VERSIONGUID
  2
{72B25D81-5F8A-431F-B76B-7ED03CF48445}
  9
$EXTNAMES
290
     1
  9
$PSVPSCALE
 40
1.0
  9
$OLESTARTUP
290
     0
  0
ENDSEC
  0
SECTION
  2
CLASSES
  0
CLASS
  1
ACDBDICTIONARYWDFLT
  2
AcDbDictionaryWithDefault
  3
ObjectDBX Classes
 90
        0
280
     0
281
     0
  0
CLASS
  1
ACDBPLACEHOLDER
  2
AcDbPlaceHolder
  3
ObjectDBX Classes
 90
        0
280
     0
281
     0
  0
CLASS
  1
LAYOUT
  2
AcDbLayout
  3
ObjectDBX Classes
 90
        0
280
     0
281
     0
  0
CLASS
  1
ACME_DOCUMENT
  2
AcMeDbDoc
  3
AcMeServices
 90
        0
280
     0
281
     0
  0
CLASS
  1
AMGSETTINGSOBJ
  2
AmgSettingsObj
  3
"AcadM|Product Description: AutoCAD Mechanical 2000|Company: Autodesk"
 90
        0
280
     0
281
     0
  0
CLASS
  1
ACMESCOPE
  2
AcMeScope
  3
AcMeServices
 90
        0
280
     0
281
     0
  0
CLASS
  1
ACMECOMMANDHISTORY
  2
AcMeCommandHistory
  3
AcMeServices
 90
        0
280
     0
281
     0
  0
CLASS
  1
ACIMSYSVARMAN
  2
AcImSysVarManager
  3
AcMeServices
 90
        0
280
     0
281
     0
  0
CLASS
  1
ACIMREALSYSVAR
  2
AcImRealSysVar
  3
AcMeServices
 90
        0
280
     0
281
     0
  0
CLASS
  1
ACIMINTSYSVAR
  2
AcImIntSysVar
  3
AcMeServices
 90
        0
280
     0
281
     0
  0
CLASS
  1
ACMEDRAWINGMAN
  2
AcMeDrawingMan
  3
AcMeServices
 90
        0
280
     0
281
     0
  0
CLASS
  1
ACMEVIEW
  2
AcMeView
  3
AcMeServices
 90
        0
280
     0
281
     0
  0
CLASS
  1
ACDBENTITYCACHE
  2
AcMeEntityCache
  3
AcMeServices
 90
        0
280
     0
281
     0
  0
CLASS
  1
GSMANAGER
  2
AcMeGSManager
  3
AcMeServices
 90
        0
280
     0
281
     0
  0
CLASS
  1
AMDTINTERNALREACTOR
  2
AmdtInternalReactor
  3
AcMeServices
 90
        0
280
     0
281
     0
  0
CLASS
  1
ACMESTATEMGR
  2
AcMeStateMgr
  3
AcMeServices
 90
        0
280
     0
281
     0
  0
CLASS
  1
ACGREFMASTER
  2
AcGrefMaster
  3
AcAttribServices
 90
        0
280
     0
281
     0
  0
CLASS
  1
ACME_DATABASE
  2
AcMeDbDatabase
  3
AcMeServices
 90
        0
280
     0
281
     0
  0
CLASS
  1
ACRFINSADJUSTERMGR
  2
AcRfInsAdjusterMgr
  3
AcMeServices
 90
        0
280
     0
281
     0
  0
CLASS
  1
ACGREFACADMASTER
  2
AcGrefacadMaster
  3
AcGrefServices
 90
        0
280
     0
281
     0
  0
CLASS
  1
AMIMASTER
  2
AmiMaster
  3
AmiServices
 90
        0
280
     0
281
     0
  0
CLASS
  1
ACMDATADICTIONARY
  2
AcmDataDictionary
  3
"AcmSymBB|Product Description: AutoCAD Mechanical 2004 DX|Company: Autodesk"
 90
        0
280
     0
281
     0
  0
CLASS
  1
ACMDATAENTRYBLOCK
  2
AcmDataEntryBlock
  3
"AcmSymBB|Product Description: AutoCAD Mechanical 2004 DX|Company: Autodesk"
 90
        0
280
     0
281
     0
  0
CLASS
  1
ACIMSTRSYSVAR
  2
AcImStrSysVar
  3
AcMeServices
 90
        0
280
     0
281
     0
  0
CLASS
  1
ACMSTANDARDISO
  2
AcmStandardISO
  3
"Amdt_StdImp|Product Description: AutoCAD Mechanical 2004 DX|Company: Autodesk"
 90
        0
280
     0
281
     0
  0
CLASS
  1
AMGOBJPROPCFG
  2
AmgObjPropCfg
  3
"AmgLay|Product Description: AutoCAD Mechanical 2000|Company: Autodesk"
 90
        1
280
     0
281
     0
  0
CLASS
  1
AMDTEDGESTANDARDISO
  2
AmdtEdgeStdISO
  3
"Amdt_StdImp|Product Description: AutoCAD Mechanical 2004 DX|Company: Autodesk"
 90
        0
280
     0
281
     0
  0
CLASS
  1
ACMSURFSTANDARDISO
  2
AcmSurfTextStdISO
  3
"Amdt_StdImp|Product Description: AutoCAD Mechanical 2004 DX|Company: Autodesk"
 90
        0
280
     0
281
     0
  0
CLASS
  1
ACMFCFSTANDARDISO
  2
AcmFCFStdISO
  3
"Amdt_StdImp|Product Description: AutoCAD Mechanical 2004 DX|Company: Autodesk"
 90
        0
280
     0
281
     0
  0
CLASS
  1
ACMWELDSTANDARDISO
  2
AcmWeldingStdISO
  3
"Amdt_StdImp|Product Description: AutoCAD Mechanical 2004 DX|Company: Autodesk"
 90
        0
280
     0
281
     0
  0
CLASS
  1
ACMIDSTANDARDISO
  2
AcmIdStdISO
  3
"Amdt_StdImp|Product Description: AutoCAD Mechanical 2004 DX|Company: Autodesk"
 90
        0
280
     0
281
     0
  0
CLASS
  1
ACMDATUMSTANDARDISO
  2
AcmDatumStdISO
  3
"Amdt_StdImp|Product Description: AutoCAD Mechanical 2004 DX|Company: Autodesk"
 90
        0
280
     0
281
     0
  0
CLASS
  1
ACMBOMSTANDARDISO
  2
AcmBOMStdISO
  3
"Amdt_StdImp|Product Description: AutoCAD Mechanical 2004 DX|Company: Autodesk"
 90
        0
280
     0
281
     0
  0
CLASS
  1
ACMDETAILSTANDARDISO
  2
AmdtDetailSymStdISO
  3
"Amdt_StdImp|Product Description: AutoCAD Mechanical 2004 DX|Company: Autodesk"
 90
        0
280
     0
281
     0
  0
CLASS
  1
ACMSECTIONSTANDARDISO
  2
AmdtSectionSymStdISO
  3
"Amdt_StdImp|Product Description: AutoCAD Mechanical 2004 DX|Company: Autodesk"
 90
        0
280
     0
281
     0
  0
CLASS
  1
ACMCENTERLINESTANDARDISO
  2
AmdtCenterLineStdISO
  3
"Amdt_StdImp|Product Description: AutoCAD Mechanical 2004 DX|Company: Autodesk"
 90
        0
280
     0
281
     0
  0
CLASS
  1
ACMNOTESTANDARDISO
  2
AmdtNoteStdISO
  3
"Amdt_StdImp|Product Description: AutoCAD Mechanical 2004 DX|Company: Autodesk"
 90
        0
280
     0
281
     0
  0
CLASS
  1
ACAMGLAYSTD
  2
AcAmgLayStd
  3
"AcAmgLayStd|Product Description: AutoCAD Mechanical 2000|Company: Autodesk"
 90
        0
280
     0
281
     0
  0
CLASS
  1
ACAMGDIMSTD
  2
AcAmgDimStd
  3
"AcAmgDimStd|Product Description: AutoCAD Mechanical 2000|Company: Autodesk"
 90
        0
280
     0
281
     0
  0
CLASS
  1
ACAMGHOLECHARTSTDISO
  2
AcAmgHoleChartStdISO
  3
ACMSYMBB_MODULE_NAME
 90
        0
280
     0
281
     0
  0
CLASS
  1
ACAMGTITLESTD
  2
AcAmgTitleStd
  3
"TITLEAPP"
 90
        0
280
     0
281
     0
  0
CLASS
  1
LAYER_INDEX
  2
AcDbLayerIndex
  3
ObjectDBX Classes
 90
    32768
280
     0
281
     0
  0
CLASS
  1
IDBUFFER
  2
AcDbIdBuffer
  3
ObjectDBX Classes
 90
    32768
280
     0
281
     0
  0
CLASS
  1
DICTIONARYVAR
  2
AcDbDictionaryVar
  3
ObjectDBX Classes
 90
        0
280
     0
281
     0
  0
CLASS
  1
AM_DRAWING_MGR
  2
AcDmDwgMgr
  3
AcMechDwgViewMgmt
 90
        0
280
     0
281
     0
  0
CLASS
  1
AM_DWG_DOCUMENT
  2
AcDmDwgDocument
  3
AcMechDwgViewMgmt
 90
        0
280
     0
281
     0
  0
CLASS
  1
AM_DWG_SHEET
  2
AcDmSheet
  3
AcMechDwgViewMgmt
 90
        0
280
     0
281
     0
  0
CLASS
  1
AM_VIEWDIMPARMAP
  2
AcDmViewDimParMap
  3
AcMechDwgViewMgmt
 90
        0
280
     0
281
     0
  0
CLASS
  1
AM_DWGMGR_NAME
  2
AcDmDwgMgrName
  3
AcMechDwgViewMgmt
 90
        0
280
     0
281
     0
  0
CLASS
  1
AMDTMENUSTATEMGR
  2
AmdtMenuStateMgr
  3
McadcomServices
 90
        0
280
     0
281
     0
  0
CLASS
  1
AMDTMCOMMENUSTATE
  2
AmdtMcomMenuState
  3
McadcomServices
 90
        0
280
     0
281
     0
  0
CLASS
  1
MAPIAMMOUDLE
  2
MApiAmModule
  3
MApiAmServices
 90
        0
280
     0
281
     0
  0
CLASS
  1
AMDTADMENUSTATE
  2
AmdtAdMenuState
  3
DesignerServices
 90
        0
280
     0
281
     0
  0
CLASS
  1
ADAPPL
  2
AcAdAppl
  3
DesignerServices
 90
        0
280
     0
281
     0
  0
CLASS
  1
DEPMGR
  2
AcAdDepMgr
  3
DesignerServices
 90
        0
280
     0
281
     0
  0
CLASS
  1
PARAMMGR
  2
AcAdParamMgr
  3
DesignerServices
 90
        0
280
     0
281
     0
  0
CLASS
  1
PARAMSCOPE
  2
AcAdParamScope
  3
DesignerServices
 90
        0
280
     0
281
     0
  0
CLASS
  1
NAMEDAPPL
  2
AcAdNamedAppl
  3
DesignerServices
 90
        0
280
     0
281
     0
  0
CLASS
  1
AMDTDMMENUSTATE
  2
AmdtDmMenuState
  3
AcMechDwgViewMgmt
 90
        0
280
     0
281
     0
  0
CLASS
  1
AMDTAMMENUSTATE
  2
AmdtAmMenuState
  3
DesignerAssemblies
 90
        0
280
     0
281
     0
  0
CLASS
  1
ACAMPROJECT
  2
AcAmProject
  3
DesignerAssemblies
 90
        0
280
     0
281
     0
  0
CLASS
  1
ACAMGRCOMPDEF
  2
AcAmGrCompDef
  3
DesignerAssemblies
 90
        0
280
     0
281
     0
  0
CLASS
  1
ACCMCONTEXT
  2
AcCmContext
  3
DesignerAssemblies
 90
        0
280
     0
281
     0
  0
CLASS
  1
ACAMCOMPDEF
  2
AcAmCompDef
  3
DesignerAssemblies
 90
        0
280
     0
281
     0
  0
CLASS
  1
ACAMCOMPDEFMGR
  2
AcAmCompDefMgr
  3
DesignerAssemblies
 90
        0
280
     0
281
     0
  0
CLASS
  1
AMCONTEXTMGR
  2
AcAmContextMgr
  3
DesignerAssemblies
 90
        0
280
     0
281
     0
  0
CLASS
  1
ACAMCONTEXTMODELER
  2
AcAmContextModeler
  3
DesignerAssemblies
 90
        0
280
     0
281
     0
  0
CLASS
  1
ACMTHREADLINESTANDARDISO
  2
AmdtThreadLineStdISO
  3
"Amdt_StdImp|Product Description: AutoCAD Mechanical 2004 DX|Company: Autodesk"
 90
        0
280
     0
281
     0
  0
CLASS
  1
CATALOGSTATE
  2
AcAmCatalogState
  3
DesignerAssemblies
 90
        0
280
     0
281
     0
  0
CLASS
  1
ACAMGRCOMPDEFSET
  2
AcAmGrCompDefSet
  3
DesignerAssemblies
 90
        0
280
     0
281
     0
  0
CLASS
  1
AMDTBROWSERDBTAB
  2
AmdtBrowserDbTab
  3
McadcomServices
 90
        0
280
     0
281
     0
  0
CLASS
  1
CBROWSERAPPOBJECT
  2
CBrowserAppObject
  3
McadcomServices
 90
        0
280
     0
281
     0
  0
CLASS
  1
DM_PLACEHOLDER
  2
AcDmSelsetPlaceholder
  3
AcMechDwgViewMgmt
 90
        0
280
     0
281
     0
  0
CLASS
  1
TABLESTYLE
  2
AcDbTableStyle
  3
ObjectDBX Classes
 90
     2047
280
     0
281
     0
  0
CLASS
  1
VAACXREFPANELOBJECT
  2
VaAcXREFPanelObject
  3
VAAC_ADDIN
 90
    32768
280
     0
281
     0
  0
CLASS
  1
VAACIMAGEINVENTORY
  2
VaAcImageInventory
  3
VAAC_ADDIN
 90
    32768
280
     0
281
     0
  0
CLASS
  1
AMDTNOTETEMPLATEDB
  2
AmdtNoteTemplateDB
  3
AMDT_STDIMP_MODULE_NAME
 90
        0
280
     0
281
     0
  0
CLASS
  1
ACAMGFILTERDAT
  2
AcAmgFilterDat
  3
"AcadM|Product Description: AutoCAD Mechanical 2000|Company: Autodesk"
 90
        0
280
     0
281
     0
  0
CLASS
  1
ACMBOM
  2
AcmBom
  3
"AcmSymBB|Product Description: AutoCAD Mechanical 2004 DX|Company: Autodesk"
 90
    32768
280
     0
281
     0
  0
CLASS
  1
AMDTFORMULAUPDATEDISPATCHER
  2
AmdtFormulaUpdateDispatcher
  3
AcMeServices
 90
        0
280
     0
281
     0
  0
CLASS
  1
DIMASSOC
  2
AcDbDimAssoc
  3
"AcDbDimAssoc|Product Desc:     AcDim ARX App For Dimension|Company:          Autodesk, Inc.|WEB Address:      www.autodesk.com"
 90
        0
280
     0
281
     0
  0
CLASS
  1
SORTENTSTABLE
  2
AcDbSortentsTable
  3
ObjectDBX Classes
 90
        0
280
     0
281
     0
  0
CLASS
  1
ACMSTANDARDANSI
  2
AcmStandardANSI
  3
"Amdt_StdImp|Product Description: AutoCAD Mechanical 2004 DX|Company: Autodesk"
 90
        0
280
     0
281
     0
  0
CLASS
  1
ACMSURFSTANDARDANSI
  2
AcmSurfTextStdANSI
  3
"Amdt_StdImp|Product Description: AutoCAD Mechanical 2004 DX|Company: Autodesk"
 90
        0
280
     0
281
     0
  0
CLASS
  1
ACMFCFSTANDARDANSI
  2
AcmFCFStdANSI
  3
"Amdt_StdImp|Product Description: AutoCAD Mechanical 2004 DX|Company: Autodesk"
 90
        0
280
     0
281
     0
  0
CLASS
  1
ACMWELDSTANDARDANSI
  2
AcmWeldingStdANSI
  3
"Amdt_StdImp|Product Description: AutoCAD Mechanical 2004 DX|Company: Autodesk"
 90
        0
280
     0
281
     0
  0
CLASS
  1
ACMIDSTANDARDANSI
  2
AcmIdStdANSI
  3
"Amdt_StdImp|Product Description: AutoCAD Mechanical 2004 DX|Company: Autodesk"
 90
        0
280
     0
281
     0
  0
CLASS
  1
ACMDATUMSTANDARDANSI
  2
AcmDatumStdANSI
  3
"Amdt_StdImp|Product Description: AutoCAD Mechanical 2004 DX|Company: Autodesk"
 90
        0
280
     0
281
     0
  0
CLASS
  1
ACMBOMSTANDARDANSI
  2
AcmBOMStdANSI
  3
"Amdt_StdImp|Product Description: AutoCAD Mechanical 2004 DX|Company: Autodesk"
 90
        0
280
     0
281
     0
  0
CLASS
  1
ACMDETAILSTANDARDANSI
  2
AmdtDetailSymStdANSI
  3
"Amdt_StdImp|Product Description: AutoCAD Mechanical 2004 DX|Company: Autodesk"
 90
        0
280
     0
281
     0
  0
CLASS
  1
ACMSECTIONSTANDARDANSI
  2
AmdtSectionSymStdANSI
  3
"Amdt_StdImp|Product Description: AutoCAD Mechanical 2004 DX|Company: Autodesk"
 90
        0
280
     0
281
     0
  0
CLASS
  1
ACMCENTERLINESTANDARDANSI
  2
AmdtCenterLineStdANSI
  3
"Amdt_StdImp|Product Description: AutoCAD Mechanical 2004 DX|Company: Autodesk"
 90
        0
280
     0
281
     0
  0
CLASS
  1
ACMTHREADLINESTANDARDANSI
  2
AmdtThreadLineStdANSI
  3
"Amdt_StdImp|Product Description: AutoCAD Mechanical 2004 DX|Company: Autodesk"
 90
        0
280
     0
281
     0
  0
CLASS
  1
ACMNOTESTANDARDANSI
  2
AmdtNoteStdANSI
  3
"Amdt_StdImp|Product Description: AutoCAD Mechanical 2004 DX|Company: Autodesk"
 90
        0
280
     0
281
     0
  0
CLASS
  1
ACAMGHOLECHARTSTDANSI
  2
AcAmgHoleChartStdANSI
  3
ACMSYMBB_MODULE_NAME
 90
        0
280
     0
281
     0
  0
CLASS
  1
ACDBCIRCARCRES
  2
AcDbCircArcRes
  3
AcGrefServices
 90
        0
280
     0
281
     0
  0
CLASS
  1
AMDTNOTE
  2
AmdtNote
  3
"AcmSymBB|Product Description: AutoCAD Mechanical 2004 DX|Company: Autodesk"
 90
     1023
280
     0
281
     1
  0
CLASS
  1
ACAMGHOLECHARTORIGIN
  2
AcAmgHoleChartOrigin
  3
ACMSYMBB_MODULE_NAME
 90
    33663
280
     0
281
     1
  0
CLASS
  1
ACMFCFRAME
  2
AcmFCF
  3
"AcmSymBB|Product Description: AutoCAD Mechanical 2004 DX|Company: Autodesk"
 90
    33791
280
     0
281
     1
  0
CLASS
  1
ACDBLINERES
  2
AcDbLineRes
  3
AcGrefServices
 90
    32768
280
     0
281
     0
  0
CLASS
  1
ACMDATUMID
  2
AcmDatumId
  3
"AcmSymBB|Product Description: AutoCAD Mechanical 2004 DX|Company: Autodesk"
 90
    33791
280
     0
281
     1
  0
CLASS
  1
LARGE_RADIAL_DIMENSION
  2
AcDbRadialDimensionLarge
  3
ObjectDBX Classes
 90
    33793
280
     0
281
     1
  0
CLASS
  1
AMDTEDGESYM
  2
AmdtEdge
  3
"AcmSymBB|Product Description: AutoCAD Mechanical 2004 DX|Company: Autodesk"
 90
    33791
280
     0
281
     1
  0
CLASS
  1
ACRFATTGENMGR
  2
AcRfAttGeneralMgr
  3
AcAttribServices
 90
        0
280
     0
281
     0
  0
ENDSEC
  0
SECTION
  2
TABLES
  0
TABLE
  2
VPORT
  5
8
330
0
100
AcDbSymbolTable
 70
     3
  0
VPORT
  5
6184
330
8
100
AcDbSymbolTableRecord
100
AcDbViewportTableRecord
  2
*Active
 70
     0
 10
0.0
 20
0.0
 11
1.0
 21
1.0
 12
1271.068795619945
 22
717.2574208712441
 13
0.0
 23
0.0
 14
2.5
 24
2.5
 15
10.0
 25
10.0
 16
0.0
 26
0.0
 36
1.0
 17
0.0
 27
0.0
 37
0.0
 40
287.9884942007175
 41
1.577075098814229
 42
50.0
 43
0.0
 44
0.0
 50
0.0
 51
0.0
 71
     0
 72
   100
 73
     1
 74
     3
 75
     0
 76
     0
 77
     0
 78
     0
281
     0
 65
     1
110
0.0
120
0.0
130
0.0
111
1.0
121
0.0
131
0.0
112
0.0
122
1.0
132
0.0
 79
     0
146
0.0
  0
ENDTAB
  0
TABLE
  2
LTYPE
  5
5
330
0
100
AcDbSymbolTable
 70
    19
  0
LTYPE
  5
14
330
5
100
AcDbSymbolTableRecord
100
AcDbLinetypeTableRecord
  2
ByBlock
 70
     0
  3

 72
    65
 73
     0
 40
0.0
  0
LTYPE
  5
15
330
5
100
AcDbSymbolTableRecord
100
AcDbLinetypeTableRecord
  2
ByLayer
 70
     0
  3

 72
    65
 73
     0
 40
0.0
  0
LTYPE
  5
16
330
5
100
AcDbSymbolTableRecord
100
AcDbLinetypeTableRecord
  2
Continuous
 70
     0
  3
Solid line
 72
    65
 73
     0
 40
0.0
  0
LTYPE
  5
64
330
5
100
AcDbSymbolTableRecord
100
AcDbLinetypeTableRecord
  2
AM_ISO02W050
 70
     0
  3
__ __ __ __ __ __ __ __ __ __ __ __ __ __ __
 72
    65
 73
     2
 40
7.5
 49
6.0
 74
     0
 49
-1.5
 74
     0
  0
LTYPE
  5
65
330
5
100
AcDbSymbolTableRecord
100
AcDbLinetypeTableRecord
  2
AM_ISO08W050
 70
     0
  3
____ . ____ . ____ . ____ . ____ . ____ . ____
 72
    65
 73
     4
 40
18.0
 49
12.0
 74
     0
 49
-1.5
 74
     0
 49
3.0
 74
     0
 49
-1.5
 74
     0
  0
LTYPE
  5
66
330
5
100
AcDbSymbolTableRecord
100
AcDbLinetypeTableRecord
  2
AM_ISO09W050
 70
     0
  3
_____ . . _____ . . _____ . . ____ .. ____
 72
    65
 73
     6
 40
22.5
 49
12.0
 74
     0
 49
-1.5
 74
     0
 49
3.0
 74
     0
 49
-1.5
 74
     0
 49
3.0
 74
     0
 49
-1.5
 74
     0
  0
LTYPE
  5
67
330
5
100
AcDbSymbolTableRecord
100
AcDbLinetypeTableRecord
  2
Amconstr
 70
     0
  3
_______________________
 72
    65
 73
     2
 40
9999.0
 49
9999.0
 74
     0
 49
0.0
 74
     0
  0
LTYPE
  5
68
330
5
100
AcDbSymbolTableRecord
100
AcDbLinetypeTableRecord
  2
AM_ISO08W050x2
 70
     0
  3
__ . __ . __ . __ . __ . __
 72
    65
 73
     4
 40
9.0
 49
6.0
 74
     0
 49
-0.75
 74
     0
 49
1.5
 74
     0
 49
-0.75
 74
     0
  0
LTYPE
  5
69
330
5
100
AcDbSymbolTableRecord
100
AcDbLinetypeTableRecord
  2
AM_ISO02W050x2
 70
     0
  3
 _ _ _ _ _ _ _ _ _ _ _ _
 72
    65
 73
     2
 40
3.75
 49
3.0
 74
     0
 49
-0.75
 74
     0
  0
LTYPE
  5
6C
330
5
100
AcDbSymbolTableRecord
100
AcDbLinetypeTableRecord
  2
Amzigzag
 70
     0
  3
/\/-/\/-/\/-/\/-/\/-/\/
 72
    65
 73
     2
 40
11.0001
 49
0.0001
 74
     4
 75
   136
340
22C
 46
0.04
 50
0.0
 44
0.0
 45
0.0
 49
-11.0
 74
     0
  0
LTYPE
  5
7A
330
5
100
AcDbSymbolTableRecord
100
AcDbLinetypeTableRecord
  2
ACISOWELD
 70
     0
  3
_ _ _ _ _
 72
    65
 73
     2
 40
2.0
 49
2.0
 74
     0
 49
-1.0
 74
     0
  0
LTYPE
  5
7B
330
5
100
AcDbSymbolTableRecord
100
AcDbLinetypeTableRecord
  2
ACISOTGB
 70
     0
  3
__ . . __ . .
 72
    65
 73
     6
 40
9.0
 49
4.0
 74
     0
 49
-1.0
 74
     0
 49
1.0
 74
     0
 49
-1.0
 74
     0
 49
1.0
 74
     0
 49
-1.0
 74
     0
  0
LTYPE
  5
7C
330
5
100
AcDbSymbolTableRecord
100
AcDbLinetypeTableRecord
  2
ACISOTGL
 70
     0
  3
_ _ _ _ _
 72
    65
 73
     2
 40
3.0
 49
2.0
 74
     0
 49
-1.0
 74
     0
  0
LTYPE
  5
7E
330
5
100
AcDbSymbolTableRecord
100
AcDbLinetypeTableRecord
  2
CENTER
 70
     0
  3
__ . __
 72
    65
 73
     4
 40
7.0
 49
4.0
 74
     0
 49
-1.0
 74
     0
 49
1.0
 74
     0
 49
-1.0
 74
     0
  0
LTYPE
  5
D8
330
5
100
AcDbSymbolTableRecord
100
AcDbLinetypeTableRecord
  2
HIDDEN
 70
     0
  3
Hidden __ __ __ __ __ __ __ __ __ __ __ __ __ _
 72
    65
 73
     2
 40
9.524999999999998
 49
6.349999999999999
 74
     0
 49
-3.174999999999999
 74
     0
  0
LTYPE
  5
D9
330
5
100
AcDbSymbolTableRecord
100
AcDbLinetypeTableRecord
  2
PHANTOM2
 70
     0
  3
Phantom (.5x) ___ _ _ ___ _ _ ___ _ _ ___ _ _
 72
    65
 73
     6
 40
31.75
 49
15.875
 74
     0
 49
-3.174999999999999
 74
     0
 49
3.174999999999999
 74
     0
 49
-3.174999999999999
 74
     0
 49
3.174999999999999
 74
     0
 49
-3.174999999999999
 74
     0
  0
LTYPE
  5
3BD
330
5
100
AcDbSymbolTableRecord
100
AcDbLinetypeTableRecord
  2
CENTER2
 70
     0
  3
___ _ ___ _ ___ _ ___ _ ___ _ ___ _ ___ _ ___ _
 72
    65
 73
     4
 40
1.125
 49
0.75
 74
     0
 49
-0.125
 74
     0
 49
0.125
 74
     0
 49
-0.125
 74
     0
  0
LTYPE
  5
3AA9
330
5
100
AcDbSymbolTableRecord
100
AcDbLinetypeTableRecord
  2
HIDDEN2
 70
     0
  3
Hidden (.5x) _ _ _ _ _ _ _ _ _ _ _ _ _ _ _ _ _
 72
    65
 73
     2
 40
0.1875
 49
0.125
 74
     0
 49
-0.0625
 74
     0
  0
LTYPE
  5
3AAA
330
5
100
AcDbSymbolTableRecord
100
AcDbLinetypeTableRecord
  2
Amzigzag2
 70
     0
  3
/\/-/\/-/\/-/\/-/\/-/\/
 72
    65
 73
     2
 40
0.4401
 49
0.0001
 74
     4
 75
   135
340
6B
 46
0.0016
 50
0.0
 44
0.0
 45
0.0
 49
-0.4400000000000001
 74
     0
  0
LTYPE
  5
3AAB
330
5
100
AcDbSymbolTableRecord
100
AcDbLinetypeTableRecord
  2
ACANSTGB
 70
     0
  3
__ . . __ . .
 72
    65
 73
     6
 40
0.35433070866
 49
0.15748031496
 74
     0
 49
-0.03937007874
 74
     0
 49
0.03937007874
 74
     0
 49
-0.03937007874
 74
     0
 49
0.03937007874
 74
     0
 49
-0.03937007874
 74
     0
  0
LTYPE
  5
3AAC
330
5
100
AcDbSymbolTableRecord
100
AcDbLinetypeTableRecord
  2
ACANSTGL
 70
     0
  3
_ _ _ _ _
 72
    65
 73
     2
 40
0.11811023622
 49
0.07874015748
 74
     0
 49
-0.03937007874
 74
     0
  0
ENDTAB
  0
TABLE
  2
LAYER
  5
2
102
{ACAD_XDICTIONARY
360
2F5
102
}
330
0
100
AcDbSymbolTable
 70
    11
  0
LAYER
  5
10
330
2
100
AcDbSymbolTableRecord
100
AcDbLayerTableRecord
  2
0
 70
     0
 62
     7
  6
Continuous
370
    -3
390
F
  0
LAYER
  5
3BE
330
2
100
AcDbSymbolTableRecord
100
AcDbLayerTableRecord
  2
SPEC
 70
     0
 62
     1
  6
Continuous
370
    -3
390
F
  0
LAYER
  5
3BF
330
2
100
AcDbSymbolTableRecord
100
AcDbLayerTableRecord
  2
CENTER
 70
     0
 62
   252
  6
CENTER2
370
    -3
390
F
  0
LAYER
  5
3C0
330
2
100
AcDbSymbolTableRecord
100
AcDbLayerTableRecord
  2
DATA
 70
     0
 62
     6
  6
Continuous
370
    -3
390
F
  0
LAYER
  5
3C1
330
2
100
AcDbSymbolTableRecord
100
AcDbLayerTableRecord
  2
DIM
 70
     0
 62
     3
  6
Continuous
370
    -3
390
F
  0
LAYER
  5
3C2
330
2
100
AcDbSymbolTableRecord
100
AcDbLayerTableRecord
  2
Defpoints
 70
     0
 62
     7
  6
Continuous
290
     0
370
    -3
390
F
  0
LAYER
  5
3C3
330
2
100
AcDbSymbolTableRecord
100
AcDbLayerTableRecord
  2
FRAME
 70
     0
 62
     1
  6
Continuous
370
    -3
390
F
  0
LAYER
  5
3C4
330
2
100
AcDbSymbolTableRecord
100
AcDbLayerTableRecord
  2
CONNECTOR
 70
     0
 62
     2
  6
Continuous
370
    -3
390
F
  0
LAYER
  5
3C5
330
2
100
AcDbSymbolTableRecord
100
AcDbLayerTableRecord
  2
SCHRIFT
 70
     0
 62
     1
  6
Continuous
370
    -3
390
F
  0
LAYER
  5
4C86
330
2
100
AcDbSymbolTableRecord
100
AcDbLayerTableRecord
  2
AM_5
 70
     0
 62
     3
  6
Continuous
370
    25
390
F
1001
AcAecLayerStandard
1000

1000

  0
LAYER
  5
5DDA
330
2
100
AcDbSymbolTableRecord
100
AcDbLayerTableRecord
  2
AM_7
 70
     0
 62
     4
  6
AM_ISO08W050
370
    25
390
F
1001
AcAecLayerStandard
1000

1000

  0
ENDTAB
  0
TABLE
  2
STYLE
  5
3
330
0
100
AcDbSymbolTable
 70
    13
  0
STYLE
  5
11
330
3
100
AcDbSymbolTableRecord
100
AcDbTextStyleTableRecord
  2
STANDARD
 70
     0
 40
0.0
 41
1.0
 50
0.0
 71
     0
 42
2.399999999999999
  3
ARIAL.TTF
  4

1001
ACAD
1000
Arial
1071
       34
  0
STYLE
  5
6B
330
3
100
AcDbSymbolTableRecord
100
AcDbTextStyleTableRecord
  2

 70
     1
 40
0.0
 41
1.0
 50
0.0
 71
     0
 42
2.5
  3
ltypeshp.shx
  4

  0
STYLE
  5
6D
330
3
100
AcDbSymbolTableRecord
100
AcDbTextStyleTableRecord
  2
ACISOTS
 70
     0
 40
1.0
 41
1.0
 50
0.0
 71
     0
 42
2.5
  3
isocp.shx
  4
bigfont.shx
  0
STYLE
  5
79
330
3
100
AcDbSymbolTableRecord
100
AcDbTextStyleTableRecord
  2
ACISOGDT
 70
     0
 40
0.0
 41
1.0
 50
0.0
 71
     0
 42
2.5
  3
AMGDT
  4
bigfont.shx
  0
STYLE
  5
1ED
330
3
100
AcDbSymbolTableRecord
100
AcDbTextStyleTableRecord
  2
USER1
 70
     0
 40
0.0
 41
1.0
 50
0.0
 71
     0
 42
2.5
  3
TXT.SHX
  4
bigfont.shx
  0
STYLE
  5
1EE
330
3
100
AcDbSymbolTableRecord
100
AcDbTextStyleTableRecord
  2
USER2
 70
     0
 40
0.0
 41
1.0
 50
0.0
 71
     0
 42
2.5
  3
SIMPLEX.SHX
  4
bigfont.shx
  0
STYLE
  5
1EF
330
3
100
AcDbSymbolTableRecord
100
AcDbTextStyleTableRecord
  2
USER3
 70
     0
 40
0.0
 41
1.0
 50
0.0
 71
     0
 42
2.5
  3
ITALIC.SHX
  4
bigfont.shx
  0
STYLE
  5
22C
330
3
100
AcDbSymbolTableRecord
100
AcDbTextStyleTableRecord
  2

 70
     1
 40
0.0
 41
1.0
 50
0.0
 71
     0
 42
2.5
  3
genltshp.shx
  4

  0
STYLE
  5
3C6
330
3
100
AcDbSymbolTableRecord
100
AcDbTextStyleTableRecord
  2
ITALICT
 70
     0
 40
2.0
 41
1.0
 50
0.0
 71
     0
 42
2.0
  3
ITALICT.shx
  4

  0
STYLE
  5
3C7
330
3
100
AcDbSymbolTableRecord
100
AcDbTextStyleTableRecord
  2
ROMANS
 70
     0
 40
0.0
 41
0.8
 50
0.0
 71
     0
 42
3.0
  3
romans.shx
  4

  0
STYLE
  5
3AAD
330
3
100
AcDbSymbolTableRecord
100
AcDbTextStyleTableRecord
  2
ACANSTS
 70
     0
 40
1.0
 41
1.0
 50
0.0
 71
     0
 42
2.399999999999999
  3
romans.shx
  4

  0
STYLE
  5
3AAE
330
3
100
AcDbSymbolTableRecord
100
AcDbTextStyleTableRecord
  2
ACANSGDT
 70
     0
 40
0.0
 41
1.0
 50
0.0
 71
     0
 42
2.399999999999999
  3
AMGDT
  4

  0
ENDTAB
  0
TABLE
  2
VIEW
  5
6
330
0
100
AcDbSymbolTable
 70
     3
  0
ENDTAB
  0
TABLE
  2
UCS
  5
7
330
0
100
AcDbSymbolTable
 70
     0
  0
ENDTAB
  0
TABLE
  2
APPID
  5
9
330
0
100
AcDbSymbolTable
 70
    28
  0
APPID
  5
12
330
9
100
AcDbSymbolTableRecord
100
AcDbRegAppTableRecord
  2
ACAD
 70
     0
  0
APPID
  5
46
330
9
100
AcDbSymbolTableRecord
100
AcDbRegAppTableRecord
  2
MCAD_NO_VIS
 70
     0
  0
APPID
  5
47
330
9
100
AcDbSymbolTableRecord
100
AcDbRegAppTableRecord
  2
ACAD_TEMP_GRAPHIC
 70
     0
  0
APPID
  5
58
330
9
100
AcDbSymbolTableRecord
100
AcDbRegAppTableRecord
  2
ACATTRIBSERVICES
 70
     0
  0
APPID
  5
EE
330
9
100
AcDbSymbolTableRecord
100
AcDbRegAppTableRecord
  2
AD_DRAW
 70
     0
  0
APPID
  5
10C
330
9
100
AcDbSymbolTableRecord
100
AcDbRegAppTableRecord
  2
DESIGNERASSEMBLIES
 70
     0
  0
APPID
  5
111
330
9
100
AcDbSymbolTableRecord
100
AcDbRegAppTableRecord
  2
ACADM_DIM_EDIT
 70
     0
  0
APPID
  5
112
330
9
100
AcDbSymbolTableRecord
100
AcDbRegAppTableRecord
  2
AMDT_DM_ADJ
 70
     0
  0
APPID
  5
1A3
330
9
100
AcDbSymbolTableRecord
100
AcDbRegAppTableRecord
  2
ACAD_DSTYLE_DIMARC_LENGTH_SYMBOL
 70
     0
  0
APPID
  5
1A4
330
9
100
AcDbSymbolTableRecord
100
AcDbRegAppTableRecord
  2
ACAD_DSTYLE_DIMJOGGED_JOGANGLE_SYMBOL
 70
     0
  0
APPID
  5
2D9
330
9
100
AcDbSymbolTableRecord
100
AcDbRegAppTableRecord
  2
ACAD_PSEXT
 70
     0
  0
APPID
  5
9AB
330
9
100
AcDbSymbolTableRecord
100
AcDbRegAppTableRecord
  2
ACAD_EXEMPT_FROM_CAD_STANDARDS
 70
     0
  0
APPID
  5
218E
330
9
100
AcDbSymbolTableRecord
100
AcDbRegAppTableRecord
  2
ACAD_DSTYLE_DIMTEXT_FILL
 70
     0
  0
APPID
  5
218F
330
9
100
AcDbSymbolTableRecord
100
AcDbRegAppTableRecord
  2
ACAD_DSTYLE_DIMEXT_LENGTH
 70
     0
  0
APPID
  5
2190
330
9
100
AcDbSymbolTableRecord
100
AcDbRegAppTableRecord
  2
ACAD_DSTYLE_DIMEXT_ENABLED
 70
     0
  0
APPID
  5
2191
330
9
100
AcDbSymbolTableRecord
100
AcDbRegAppTableRecord
  2
ACAD_DSTYLE_DIM_LINETYPE
 70
     0
  0
APPID
  5
2192
330
9
100
AcDbSymbolTableRecord
100
AcDbRegAppTableRecord
  2
ACAD_DSTYLE_DIM_EXT1_LINETYPE
 70
     0
  0
APPID
  5
2193
330
9
100
AcDbSymbolTableRecord
100
AcDbRegAppTableRecord
  2
ACAD_DSTYLE_DIM_EXT2_LINETYPE
 70
     0
  0
APPID
  5
3955
330
9
100
AcDbSymbolTableRecord
100
AcDbRegAppTableRecord
  2
GENIUS_GENSCREG_15
 70
     0
  0
APPID
  5
3956
330
9
100
AcDbSymbolTableRecord
100
AcDbRegAppTableRecord
  2
GENIUS_GENOBJ-N-SDF_13
 70
     0
  0
APPID
  5
3957
330
9
100
AcDbSymbolTableRecord
100
AcDbRegAppTableRecord
  2
GENIUS_GENODEF_13
 70
     0
  0
APPID
  5
3969
330
9
100
AcDbSymbolTableRecord
100
AcDbRegAppTableRecord
  2
GENIUS_GENDIMSH_14
 70
     0
  0
APPID
  5
4C87
330
9
100
AcDbSymbolTableRecord
100
AcDbRegAppTableRecord
  2
AcAecLayerStandard
 70
     0
  0
APPID
  5
4D0F
330
9
100
AcDbSymbolTableRecord
100
AcDbRegAppTableRecord
  2
GENIUS_GENDTOL_13
 70
     0
  0
APPID
  5
5DE0
330
9
100
AcDbSymbolTableRecord
100
AcDbRegAppTableRecord
  2
GENIUS_GENOLIS_13
 70
     0
  0
APPID
  5
5DE1
330
9
100
AcDbSymbolTableRecord
100
AcDbRegAppTableRecord
  2
GENIUS_GENOENT_13
 70
     0
  0
APPID
  5
5DE2
330
9
100
AcDbSymbolTableRecord
100
AcDbRegAppTableRecord
  2
GENIUS_GENOBJ-N-CRS_13
 70
     0
  0
APPID
  5
5DE3
330
9
100
AcDbSymbolTableRecord
100
AcDbRegAppTableRecord
  2
GENIUS_GENOREF_13
 70
     0
  0
ENDTAB
  0
TABLE
  2
DIMSTYLE
  5
A
330
0
100
AcDbSymbolTable
 70
    16
100
AcDbDimStyleTable
 71
     5
340
3C8
340
81
340
3AB4
340
3AB3
340
3AAF
  0
DIMSTYLE
105
81
330
A
100
AcDbSymbolTableRecord
100
AcDbDimStyleTableRecord
  2
AM_ISO
 70
     0
  4
"
 41
2.5
 42
1.0
 43
10.0
 44
1.0
 47
0.1
 48
0.1
 73
     0
 74
     0
 77
     1
 78
     8
 79
     2
140
3.5
141
0.0
143
0.0393701
146
0.71
147
1.5
172
     1
176
   256
177
   256
178
     2
271
     2
272
     3
274
     4
283
     0
284
     8
340
11
371
    -1
372
    -1
1001
ACAD_DSTYLE_DIMARC_LENGTH_SYMBOL
1070
   379
1070
     1
1001
ACAD_DSTYLE_DIMJOGGED_JOGANGLE_SYMBOL
1070
   384
1040
0.7853981633974483
  0
DIMSTYLE
105
82
330
A
100
AcDbSymbolTableRecord
100
AcDbDimStyleTableRecord
  2
AM_ISO$3
 70
     0
  4
"
 41
2.5
 42
1.0
 43
10.0
 44
1.0
 47
0.1
 48
0.1
 73
     0
 77
     1
 78
     8
 79
     2
140
3.5
141
0.0
143
0.0393701
146
0.71
147
1.5
176
   256
177
   256
178
     2
271
     2
272
     3
274
     4
283
     0
284
     8
288
     1
289
     0
340
11
371
    -1
372
    -1
1001
ACAD_DSTYLE_DIMARC_LENGTH_SYMBOL
1070
   379
1070
     1
1001
ACAD_DSTYLE_DIMJOGGED_JOGANGLE_SYMBOL
1070
   384
1040
0.7853981633974483
  0
DIMSTYLE
105
83
330
A
100
AcDbSymbolTableRecord
100
AcDbDimStyleTableRecord
  2
AM_ISO$4
 70
     0
  4
"
 41
2.5
 42
1.0
 43
10.0
 44
1.0
 47
0.1
 48
0.1
 73
     0
 77
     1
 78
     8
 79
     2
140
3.5
141
0.0
143
0.0393701
146
0.71
147
1.5
176
   256
177
   256
178
     2
271
     2
272
     3
274
     4
283
     0
284
     8
288
     1
289
     0
340
11
371
    -1
372
    -1
1001
ACAD_DSTYLE_DIMARC_LENGTH_SYMBOL
1070
   379
1070
     1
1001
ACAD_DSTYLE_DIMJOGGED_JOGANGLE_SYMBOL
1070
   384
1040
0.7853981633974483
  0
DIMSTYLE
105
84
330
A
100
AcDbSymbolTableRecord
100
AcDbDimStyleTableRecord
  2
AM_ISO$6
 70
     0
  4
"
 41
2.5
 42
1.0
 43
10.0
 44
1.0
 47
0.1
 48
0.1
 73
     0
 74
     0
 78
     8
 79
     2
140
3.5
141
0.0
143
0.0393701
146
0.71
147
1.5
172
     1
176
   256
177
   256
178
     2
271
     2
272
     3
274
     4
283
     0
284
     8
340
11
371
    -1
372
    -1
1001
ACAD_DSTYLE_DIMARC_LENGTH_SYMBOL
1070
   379
1070
     1
1001
ACAD_DSTYLE_DIMJOGGED_JOGANGLE_SYMBOL
1070
   384
1040
0.7853981633974483
  0
DIMSTYLE
105
85
330
A
100
AcDbSymbolTableRecord
100
AcDbDimStyleTableRecord
  2
AM_ISO$7
 70
     0
  4
"
 41
2.5
 42
1.0
 43
10.0
 44
1.0
 47
0.1
 48
0.1
 73
     0
 74
     0
 77
     1
 78
     8
 79
     2
140
5.0
141
0.0
143
0.0393701
146
0.71
147
1.5
172
     1
176
   256
177
   256
178
     2
271
     2
272
     3
274
     4
283
     0
284
     8
340
11
371
    -1
372
    -1
1001
ACAD_DSTYLE_DIMARC_LENGTH_SYMBOL
1070
   379
1070
     1
1001
ACAD_DSTYLE_DIMJOGGED_JOGANGLE_SYMBOL
1070
   384
1040
0.7853981633974483
  0
DIMSTYLE
105
86
330
A
100
AcDbSymbolTableRecord
100
AcDbDimStyleTableRecord
  2
AM_ISO$SF
 70
     0
  4
"
 41
2.5
 42
1.0
 43
10.0
 44
1.0
 47
0.1
 48
0.1
 73
     0
 74
     0
 75
     1
 76
     1
 77
     1
 78
     8
 79
     2
140
3.5
141
0.0
143
0.0393701
146
0.71
147
1.5
172
     1
176
   256
177
   256
178
     2
271
     2
272
     3
274
     4
283
     0
284
     8
340
11
371
    -1
372
    -1
1001
ACAD_DSTYLE_DIMARC_LENGTH_SYMBOL
1070
   379
1070
     1
1001
ACAD_DSTYLE_DIMJOGGED_JOGANGLE_SYMBOL
1070
   384
1040
0.7853981633974483
  0
DIMSTYLE
105
8B
330
A
100
AcDbSymbolTableRecord
100
AcDbDimStyleTableRecord
  2
AM_ISO$SH
 70
     0
  4
"
 41
2.5
 42
1.0
 43
10.0
 44
1.0
 47
0.1
 48
0.1
 73
     0
 74
     0
 75
     1
 76
     1
 77
     1
 78
     8
 79
     2
140
3.5
141
0.0
143
0.0393701
144
2.0
146
0.71
147
1.5
172
     1
173
     1
176
   256
177
   256
178
     2
271
     2
272
     3
274
     4
283
     0
284
     8
340
11
343
87
371
    -1
372
    -1
1001
ACAD_DSTYLE_DIMARC_LENGTH_SYMBOL
1070
   379
1070
     1
1001
ACAD_DSTYLE_DIMJOGGED_JOGANGLE_SYMBOL
1070
   384
1040
0.7853981633974483
  0
DIMSTYLE
105
3C8
102
{ACAD_REACTORS
330
19C9
330
3C90
330
3BE5
330
3BED
330
3BF0
330
3BF1
330
3C0C
330
3C16
330
3C17
330
3BF3
330
3BF4
330
3BF5
330
3BF6
330
3C06
330
3C07
330
3C0D
330
3C13
330
3C15
330
19F4
330
2E07
330
2E09
330
2E0A
330
2E5C
102
}
330
A
100
AcDbSymbolTableRecord
100
AcDbDimStyleTableRecord
  2
STANDARD
 70
     0
 41
3.0
 42
1.0
 43
1.0
 44
1.0
 48
0.000000001
 73
     0
 74
     0
 77
     1
 78
     8
140
3.0
141
-0.05
145
5.0
146
0.8
147
1.0
172
     1
176
     3
177
     3
178
     6
271
     2
272
     2
284
     8
340
11
371
    -1
1001
ACAD_DSTYLE_DIMEXT_LENGTH
1070
   378
1040
1.0
1001
ACAD_DSTYLE_DIMEXT_ENABLED
1070
   383
1070
     0
1001
ACAD_DSTYLE_DIMARC_LENGTH_SYMBOL
1070
   379
1070
     0
1001
ACAD_DSTYLE_DIMJOGGED_JOGANGLE_SYMBOL
1070
   384
1040
1.570796326794896
  0
DIMSTYLE
105
3AAF
330
A
100
AcDbSymbolTableRecord
100
AcDbDimStyleTableRecord
  2
AM_ANSI
 70
     0
  4
mm
 41
0.1
 42
0.05
 43
0.5
 44
0.1
 47
0.1
 48
0.1
 78
     7
 79
     2
140
0.12
141
0.0
146
0.71
147
0.06
176
   256
177
   256
178
     2
274
     4
284
     7
340
11
371
    -1
372
    -1
1001
ACAD_DSTYLE_DIMARC_LENGTH_SYMBOL
1070
   379
1070
     1
1001
ACAD_DSTYLE_DIMJOGGED_JOGANGLE_SYMBOL
1070
   384
1040
0.7853981633974483
  0
DIMSTYLE
105
3AB0
330
A
100
AcDbSymbolTableRecord
100
AcDbDimStyleTableRecord
  2
AM_ANSI$3
 70
     0
  4
mm
 41
0.1
 42
0.05
 43
0.5
 44
0.1
 47
0.1
 48
0.1
 78
     7
 79
     2
140
0.12
141
0.0
146
0.71
147
0.06
176
   256
177
   256
178
     2
274
     4
284
     7
288
     1
289
     0
340
11
371
    -1
372
    -1
1001
ACAD_DSTYLE_DIMARC_LENGTH_SYMBOL
1070
   379
1070
     1
1001
ACAD_DSTYLE_DIMJOGGED_JOGANGLE_SYMBOL
1070
   384
1040
0.7853981633974483
  0
DIMSTYLE
105
3AB1
330
A
100
AcDbSymbolTableRecord
100
AcDbDimStyleTableRecord
  2
AM_ANSI$4
 70
     0
  4
mm
 41
0.1
 42
0.05
 43
0.5
 44
0.1
 47
0.1
 48
0.1
 78
     7
 79
     2
140
0.12
141
0.0
146
0.71
147
0.06
176
   256
177
   256
178
     2
274
     4
284
     7
288
     1
289
     0
340
11
371
    -1
372
    -1
1001
ACAD_DSTYLE_DIMARC_LENGTH_SYMBOL
1070
   379
1070
     1
1001
ACAD_DSTYLE_DIMJOGGED_JOGANGLE_SYMBOL
1070
   384
1040
0.7853981633974483
  0
DIMSTYLE
105
3AB2
330
A
100
AcDbSymbolTableRecord
100
AcDbDimStyleTableRecord
  2
AM_ANSI$7
 70
     0
  4
mm
 41
0.1
 42
0.05
 43
0.5
 44
0.1
 47
0.1
 48
0.1
 78
     7
 79
     2
140
0.24
141
0.0
146
0.71
147
0.06
176
   256
177
   256
178
     2
274
     4
284
     7
340
11
371
    -1
372
    -1
1001
ACAD_DSTYLE_DIMARC_LENGTH_SYMBOL
1070
   379
1070
     1
1001
ACAD_DSTYLE_DIMJOGGED_JOGANGLE_SYMBOL
1070
   384
1040
0.7853981633974483
  0
DIMSTYLE
105
3AB3
330
A
100
AcDbSymbolTableRecord
100
AcDbDimStyleTableRecord
  2
AM_ANSI$SF
 70
     0
  4
mm
 41
0.1
 42
0.05
 43
0.5
 44
0.1
 47
0.1
 48
0.1
 75
     1
 76
     1
 78
     7
 79
     2
140
0.12
141
0.0
146
0.71
147
0.06
176
   256
177
   256
178
     2
274
     4
284
     7
340
11
371
    -1
372
    -1
1001
ACAD_DSTYLE_DIMARC_LENGTH_SYMBOL
1070
   379
1070
     1
1001
ACAD_DSTYLE_DIMJOGGED_JOGANGLE_SYMBOL
1070
   384
1040
0.7853981633974483
  0
DIMSTYLE
105
3AB4
330
A
100
AcDbSymbolTableRecord
100
AcDbDimStyleTableRecord
  2
AM_ANSI$SH
 70
     0
  4
mm
 41
0.1
 42
0.05
 43
0.5
 44
0.1
 47
0.1
 48
0.1
 75
     1
 76
     1
 78
     7
 79
     2
140
0.12
141
0.0
146
0.71
147
0.06
173
     1
176
   256
177
   256
178
     2
274
     4
284
     7
340
11
343
87
371
    -1
372
    -1
1001
ACAD_DSTYLE_DIMARC_LENGTH_SYMBOL
1070
   379
1070
     1
1001
ACAD_DSTYLE_DIMJOGGED_JOGANGLE_SYMBOL
1070
   384
1040
0.7853981633974483
  0
DIMSTYLE
105
4C93
102
{ACAD_REACTORS
330
19C9
330
3C90
330
3BE5
330
3BED
330
3BF0
330
3BF1
330
3C0C
330
3C16
330
3C17
330
3BF3
330
3BF5
330
3BF6
330
3C07
330
4C97
330
4CEE
330
4EBE
330
5B7F
330
5E93
102
}
330
A
100
AcDbSymbolTableRecord
100
AcDbDimStyleTableRecord
  2
STANDARD$0
 70
     0
 41
3.0
 42
1.0
 43
1.0
 44
1.0
 48
0.000000001
 73
     0
 74
     0
 77
     1
 78
     8
140
3.0
141
-0.05
145
5.0
146
0.8
147
1.0
172
     1
176
     3
177
     3
178
     6
271
     2
272
     2
284
     8
340
11
371
    -1
1001
ACAD_DSTYLE_DIMEXT_LENGTH
1070
   378
1040
1.0
1001
ACAD_DSTYLE_DIMEXT_ENABLED
1070
   383
1070
     0
1001
ACAD_DSTYLE_DIMARC_LENGTH_SYMBOL
1070
   379
1070
     0
1001
ACAD_DSTYLE_DIMJOGGED_JOGANGLE_SYMBOL
1070
   384
1040
1.570796326794896
  0
ENDTAB
  0
TABLE
  2
BLOCK_RECORD
  5
1
330
0
100
AcDbSymbolTable
 70
    24
  0
BLOCK_RECORD
  5
1F
102
{ACAD_XDICTIONARY
360
8F
102
}
330
1
100
AcDbSymbolTableRecord
100
AcDbBlockTableRecord
  2
*Model_Space
340
22
  0
BLOCK_RECORD
  5
1B
102
{ACAD_XDICTIONARY
360
2D9F
102
}
330
1
100
AcDbSymbolTableRecord
100
AcDbBlockTableRecord
  2
*Paper_Space
340
1E
  0
BLOCK_RECORD
  5
87
330
1
100
AcDbSymbolTableRecord
100
AcDbBlockTableRecord
  2
GENAXEH
340
0
  0
BLOCK_RECORD
  5
2FB
330
1
100
AcDbSymbolTableRecord
100
AcDbBlockTableRecord
  2
_DatumFilled
340
0
  0
BLOCK_RECORD
  5
2FF
330
1
100
AcDbSymbolTableRecord
100
AcDbBlockTableRecord
  2
_None
340
0
  0
BLOCK_RECORD
  5
125D
102
{ACAD_XDICTIONARY
360
128A
102
}
330
1
100
AcDbSymbolTableRecord
100
AcDbBlockTableRecord
  2
A$C75C560CA
340
0
1001
ACAD
1000
DesignCenter Data
1002
{
1070
     1
1070
     4
1002
}
  0
BLOCK_RECORD
  5
1A4C
330
1
100
AcDbSymbolTableRecord
100
AcDbBlockTableRecord
  2
*D5
340
0
  0
BLOCK_RECORD
  5
2CC0
102
{ACAD_XDICTIONARY
360
2CC2
102
}
330
1
100
AcDbSymbolTableRecord
100
AcDbBlockTableRecord
  2
A$C718C4946
340
0
1001
ACAD
1000
DesignCenter Data
1002
{
1070
     1
1070
     4
1002
}
  0
BLOCK_RECORD
  5
2F89
330
1
100
AcDbSymbolTableRecord
100
AcDbBlockTableRecord
  2
_DotSmall
340
0
102
{BLKREFS
331
4DC3
331
4DD9
102
}
  0
BLOCK_RECORD
  5
3CC4
330
1
100
AcDbSymbolTableRecord
100
AcDbBlockTableRecord
  2
*D8
340
0
  0
BLOCK_RECORD
  5
3CE8
330
1
100
AcDbSymbolTableRecord
100
AcDbBlockTableRecord
  2
*D9
340
0
  0
BLOCK_RECORD
  5
3D0C
330
1
100
AcDbSymbolTableRecord
100
AcDbBlockTableRecord
  2
*D10
340
0
  0
BLOCK_RECORD
  5
3D18
330
1
100
AcDbSymbolTableRecord
100
AcDbBlockTableRecord
  2
*D11
340
0
  0
BLOCK_RECORD
  5
3D24
330
1
100
AcDbSymbolTableRecord
100
AcDbBlockTableRecord
  2
*D12
340
0
  0
BLOCK_RECORD
  5
3D42
330
1
100
AcDbSymbolTableRecord
100
AcDbBlockTableRecord
  2
*D13
340
0
  0
BLOCK_RECORD
  5
3D4F
330
1
100
AcDbSymbolTableRecord
100
AcDbBlockTableRecord
  2
*D14
340
0
  0
BLOCK_RECORD
  5
3D5B
330
1
100
AcDbSymbolTableRecord
100
AcDbBlockTableRecord
  2
*D15
340
0
  0
BLOCK_RECORD
  5
4C98
330
1
100
AcDbSymbolTableRecord
100
AcDbBlockTableRecord
  2
*D16
340
0
  0
BLOCK_RECORD
  5
4CEF
330
1
100
AcDbSymbolTableRecord
100
AcDbBlockTableRecord
  2
*D17
340
0
  0
BLOCK_RECORD
  5
4EBF
330
1
100
AcDbSymbolTableRecord
100
AcDbBlockTableRecord
  2
*D18
340
0
  0
BLOCK_RECORD
  5
5B9E
330
1
100
AcDbSymbolTableRecord
100
AcDbBlockTableRecord
  2
*D19
340
0
  0
BLOCK_RECORD
  5
5E94
330
1
100
AcDbSymbolTableRecord
100
AcDbBlockTableRecord
  2
*D20
340
0
  0
BLOCK_RECORD
  5
61AA
330
1
100
AcDbSymbolTableRecord
100
AcDbBlockTableRecord
  2
*S23
340
0
  0
ENDTAB
  0
ENDSEC
  0
SECTION
  2
BLOCKS
  0
BLOCK
  5
20
330
1F
100
AcDbEntity
  8
0
100
AcDbBlockBegin
  2
*Model_Space
 70
     0
 10
0.0
 20
0.0
 30
0.0
  3
*Model_Space
  1

  0
ENDBLK
  5
21
330
1F
100
AcDbEntity
  8
0
100
AcDbBlockEnd
  0
BLOCK
  5
1C
330
1B
100
AcDbEntity
 67
     1
  8
0
100
AcDbBlockBegin
  2
*Paper_Space
 70
     0
 10
0.0
 20
0.0
 30
0.0
  3
*Paper_Space
  1

  0
ENDBLK
  5
1D
330
1B
100
AcDbEntity
 67
     1
  8
0
100
AcDbBlockEnd
  0
BLOCK
  5
89
330
87
100
AcDbEntity
  8
0
100
AcDbBlockBegin
  2
GENAXEH
 70
     0
 10
0.0
 20
0.0
 30
0.0
  3
GENAXEH
  1

  0
LINE
  5
88
330
87
100
AcDbEntity
  8
0
100
AcDbLine
 10
-1.0
 20
0.0
 30
0.0
 11
1.0
 21
0.0
 31
0.0
  0
ENDBLK
  5
8A
330
87
100
AcDbEntity
  8
0
100
AcDbBlockEnd
  0
BLOCK
  5
2FC
330
2FB
100
AcDbEntity
  8
0
100
AcDbBlockBegin
  2
_DatumFilled
 70
     0
 10
0.0
 20
0.0
 30
0.0
  3
_DatumFilled
  1

  0
SOLID
  5
2FD
330
2FB
100
AcDbEntity
  8
0
  6
ByBlock
 62
     0
100
AcDbTrace
 10
0.0
 20
0.5773502700000001
 30
0.0
 11
-1.0
 21
0.0
 31
0.0
 12
0.0
 22
-0.5773502700000001
 32
0.0
 13
0.0
 23
-0.5773502700000001
 33
0.0
  0
ENDBLK
  5
2FE
330
2FB
100
AcDbEntity
  8
0
100
AcDbBlockEnd
  0
BLOCK
  5
300
330
2FF
100
AcDbEntity
  8
0
100
AcDbBlockBegin
  2
_None
 70
     0
 10
0.0
 20
0.0
 30
0.0
  3
_None
  1

  0
ENDBLK
  5
301
330
2FF
100
AcDbEntity
  8
0
100
AcDbBlockEnd
  0
BLOCK
  5
128B
330
125D
100
AcDbEntity
  8
0
100
AcDbBlockBegin
  2
A$C75C560CA
 70
     0
 10
0.0
 20
0.0
 30
0.0
  3
A$C75C560CA
  1

  0
TEXT
  5
125E
330
125D
100
AcDbEntity
  8
FRAME
100
AcDbText
 10
198.0618690923416
 20
18.19796331725411
 30
0.0
 40
2.6
  1
M 1:1.5
 41
0.7
  7
ROMANS
100
AcDbText
  0
MTEXT
  5
125F
330
125D
100
AcDbEntity
  8
DIM
100
AcDbMText
 10
147.8052230115329
 20
14.75214036007798
 30
0.0
 40
2.0
 41
25.0
 71
     1
 72
     5
  1
X       %%p0.5\P1PL     %%p0.2\P2PL     %%p0.1\PANGLE   %%p30'
  7
ROMANS
 73
     1
 44
1.0
1001
ACAD
1000
MTEXTBEGIN
1070
    73
1070
     1
1070
    44
1040
1.0
1070
    74
1070
     0
1000
MTEXTEND
  0
LWPOLYLINE
  5
1260
330
125D
100
AcDbEntity
  8
SPEC
100
AcDbPolyline
 90
        2
 70
     0
 43
0.0
 10
46.10857599724545
 20
22.43272629327407
 10
107.7609609669623
 20
22.43272629327407
  0
LINE
  5
1261
330
125D
100
AcDbEntity
  8
SPEC
  6
HIDDEN
100
AcDbLine
 10
95.76650416238317
 20
4.962468073120362
 30
0.0
 11
130.435771777227
 21
4.962468073120362
 31
0.0
  0
TEXT
  5
1262
330
125D
100
AcDbEntity
  8
DATA
 62
     1
100
AcDbText
 10
93.21139064254088
 20
5.812552698566491
 30
0.0
 40
4.0
  1
(ST4018M0406-B)
 41
0.7
  7
ROMANS
100
AcDbText
  0
TEXT
  5
1263
330
125D
100
AcDbEntity
  8
DATA
 62
     1
100
AcDbText
 10
231.317878293991
 20
2.415962237127928
 30
0.0
 40
4.0
  1
ST4018M0406
 41
0.7
  7
ROMANS
100
AcDbText
  0
TEXT
  5
1264
330
125D
100
AcDbEntity
  8
DATA
 62
     1
100
AcDbText
 10
93.38807665210561
 20
11.87217307676974
 30
0.0
 40
4.0
  1
ST4018M0406-A
 41
0.7
  7
ROMANS
100
AcDbText
  0
LWPOLYLINE
  5
1265
330
125D
100
AcDbEntity
  8
SPEC
100
AcDbPolyline
 90
        2
 70
     0
 43
0.0
 10
0.0
 20
22.43272629327407
 10
46.20410858955392
 20
22.43272629327407
  0
LINE
  5
1266
330
125D
100
AcDbEntity
  8
DIM
100
AcDbLine
 10
146.5280168612521
 20
16.58038901312318
 30
0.0
 11
213.8442914438065
 21
16.58038901312318
 31
0.0
  0
LINE
  5
1267
330
125D
100
AcDbEntity
  8
DIM
100
AcDbLine
 10
228.8020370376457
 20
12.55466422304016
 30
0.0
 11
228.8020370376457
 21
0.466065179059342
 31
0.0
  0
LINE
  5
1268
330
125D
100
AcDbEntity
  8
DIM
100
AcDbLine
 10
195.7433482585834
 20
22.43272629327407
 30
0.0
 11
195.7433482585834
 21
0.0
 31
0.0
  0
LINE
  5
1269
330
125D
100
AcDbEntity
  8
DIM
100
AcDbLine
 10
178.9743605596215
 20
22.40187586043203
 30
0.0
 11
178.9743605596215
 21
6.730972725647461
 31
0.0
  0
LINE
  5
126A
330
125D
100
AcDbEntity
  8
DIM
100
AcDbLine
 10
167.6954380838244
 20
0.0
 30
0.0
 11
167.6954380838244
 21
22.32683486367228
 31
0.0
  0
LINE
  5
126B
330
125D
100
AcDbEntity
  8
DIM
100
AcDbLine
 10
167.9351755979376
 20
22.43272629327407
 30
0.0
 11
167.9351755979376
 21
0.0
 31
0.0
  0
LINE
  5
126C
330
125D
100
AcDbEntity
  8
DIM
100
AcDbLine
 10
213.8442921475325
 20
22.43272629327407
 30
0.0
 11
213.8442921475325
 21
0.0
 31
0.0
  0
LINE
  5
126D
330
125D
100
AcDbEntity
  8
DIM
100
AcDbLine
 10
74.01093817688343
 20
22.44942325395482
 30
0.0
 11
74.01093817688343
 21
0.0031114061869175
 31
0.0
  0
LINE
  5
126E
330
125D
100
AcDbEntity
  8
DIM
100
AcDbLine
 10
89.1300425376794
 20
22.44942325395482
 30
0.0
 11
89.1300425376794
 21
-0.0380746962764533
 31
0.0
  0
LINE
  5
126F
330
125D
100
AcDbEntity
  8
DIM
100
AcDbLine
 10
52.48454273927814
 20
22.43272629327407
 30
0.0
 11
52.48454273927814
 21
-0.0273489207340845
 31
0.0
  0
LINE
  5
1270
330
125D
100
AcDbEntity
  8
DIM
100
AcDbLine
 10
0.0
 20
22.43272629327407
 30
0.0
 11
292.2263229886494
 21
22.43272629327407
 31
0.0
  0
LINE
  5
1271
330
125D
100
AcDbEntity
  8
DIM
100
AcDbLine
 10
89.1300425376794
 20
17.17069886361321
 30
0.0
 11
0.1625959174562013
 21
17.17069886361321
 31
0.0
  0
LINE
  5
1272
330
125D
100
AcDbEntity
  8
DIM
100
AcDbLine
 10
0.1625959174562013
 20
11.90867143395235
 30
0.0
 11
89.1300425376794
 21
11.90867143395235
 31
0.0
  0
LINE
  5
1273
330
125D
100
AcDbEntity
  8
DIM
100
AcDbLine
 10
0.3324718815085816
 20
6.646644004291488
 30
0.0
 11
89.1300425376794
 21
6.646644004291488
 31
0.0
  0
LINE
  5
1274
330
125D
100
AcDbEntity
  8
DIM
100
AcDbLine
 10
11.37444121259409
 20
22.43272629327407
 30
0.0
 11
11.37444121259409
 21
0.0
 31
0.0
  0
LINE
  5
1275
330
125D
100
AcDbEntity
  8
DIM
100
AcDbLine
 10
213.8442921475325
 20
6.719875644631542
 30
0.0
 11
167.6954380838244
 21
6.719875644631542
 31
0.0
  0
LINE
  5
1276
330
125D
100
AcDbEntity
  8
DIM
100
AcDbLine
 10
167.6954380838244
 20
11.60070934481985
 30
0.0
 11
213.8442921475325
 21
11.60070934481985
 31
0.0
  0
TEXT
  5
1277
330
125D
100
AcDbEntity
  8
DIM
100
AcDbText
 10
149.3843128235895
 20
18.01141814143534
 30
0.0
 40
2.5
  1
SCALE FREE
 41
0.7
  7
ROMANS
 72
     2
 11
165.3009794902561
 21
18.01141814143534
 31
0.0
100
AcDbText
  0
LINE
  5
1278
330
125D
100
AcDbEntity
  8
DIM
100
AcDbLine
 10
146.5280168612521
 20
22.43272629327407
 30
0.0
 11
146.5280168612521
 21
0.0
 31
0.0
  0
TEXT
  5
1279
330
125D
100
AcDbEntity
  8
DIM
100
AcDbText
 10
75.4322038344294
 20
2.370654514404577
 30
0.0
 40
3.0
  1
APVD
 41
0.7
  7
ROMANS
100
AcDbText
  0
TEXT
  5
127A
330
125D
100
AcDbEntity
  8
DIM
100
AcDbText
 10
55.94274150779165
 20
2.370654514404577
 30
0.0
 40
3.0
  1
DATE
 41
0.7
  7
ROMANS
100
AcDbText
  0
TEXT
  5
127B
330
125D
100
AcDbEntity
  8
DIM
100
AcDbText
 10
14.2016707071748
 20
2.370654514404577
 30
0.0
 40
3.0
  1
DESCRIPTION
 41
0.7
  7
ROMANS
100
AcDbText
  0
TEXT
  5
127C
330
125D
100
AcDbEntity
  8
DIM
100
AcDbText
 10
2.706016815254362
 20
2.370654514404577
 30
0.0
 40
3.0
  1
REV
 41
0.7
  7
ROMANS
 72
     2
 11
8.406016815254361
 21
2.370654514404577
 31
0.0
100
AcDbText
  0
TEXT
  5
127D
330
125D
100
AcDbEntity
  8
DIM
100
AcDbText
 10
169.8977377686171
 20
17.46653611070155
 30
0.0
 40
3.0
  1
APVD
 41
0.7
  7
ROMANS
 72
     2
 11
177.3977377686171
 21
17.46653611070155
 31
0.0
100
AcDbText
  0
TEXT
  5
127E
330
125D
100
AcDbEntity
  8
DIM
100
AcDbText
 10
169.0333720135623
 20
12.69433802244657
 30
0.0
 40
3.0
  1
CHKD
 41
0.7
  7
ROMANS
 72
     2
 11
177.2333720135623
 21
12.69433802244657
 31
0.0
100
AcDbText
  0
TEXT
  5
127F
330
125D
100
AcDbEntity
  8
DIM
100
AcDbText
 10
170.0393831475915
 20
7.524456556443624
 30
0.0
 40
3.0
  1
DRN
 41
0.7
  7
ROMANS
 72
     2
 11
176.0393831475915
 21
7.524456556443624
 31
0.0
100
AcDbText
  0
TEXT
  5
1280
330
125D
100
AcDbEntity
  8
DIM
100
AcDbText
 10
172.2752627425855
 20
2.329814948448756
 30
0.0
 40
3.0
  1
SIGNATURE
 41
0.7
  7
ROMANS
 72
     2
 11
188.7752627425855
 21
2.329814948448756
 31
0.0
100
AcDbText
  0
TEXT
  5
1281
330
125D
100
AcDbEntity
  8
DIM
100
AcDbText
 10
201.0406724436551
 20
2.224204435222077
 30
0.0
 40
3.0
  1
DATE
 41
0.7
  7
ROMANS
 72
     2
 11
208.240672443655
 21
2.224204435222077
 31
0.0
100
AcDbText
  0
TEXT
  5
1282
330
125D
100
AcDbEntity
  8
DIM
100
AcDbText
 10
218.9507052575232
 20
15.70268350642743
 30
0.0
 40
3.799999999999999
  1
STEPPING MOTOR
 41
0.8
  7
ITALICT
 72
     2
 11
263.9716576384756
 21
15.70268350642743
 31
0.0
100
AcDbText
  0
LINE
  5
1283
330
125D
100
AcDbEntity
  8
DIM
100
AcDbLine
 10
213.8442921475325
 20
12.57581317811855
 30
0.0
 11
291.9564623227739
 21
12.57581317811855
 31
0.0
  0
TEXT
  5
1284
330
125D
100
AcDbEntity
  8
DIM
100
AcDbText
 10
229.779050611357
 20
8.525813178118596
 30
0.0
 40
2.5
  1
DWG.NO
 41
0.7
  7
ROMANS
 72
     2
 11
239.529050611357
 21
8.525813178118596
 31
0.0
100
AcDbText
  0
TEXT
  5
1285
330
125D
100
AcDbEntity
  8
DATA
 62
     1
100
AcDbText
 10
92.69009844013249
 20
17.14709370037587
 30
0.0
 40
3.0
  1
NANOTEC:
 41
0.7
  7
ROMANS
100
AcDbText
  0
TEXT
  5
1286
330
125D
100
AcDbEntity
  8
FRAME
100
AcDbText
 10
196.2632570647433
 20
7.811243394680104
 30
0.0
 40
2.6
  1
14.02.06
 41
0.7
  7
ROMANS
100
AcDbText
  0
LINE
  5
1287
330
125D
100
AcDbEntity
  8
SPEC
100
AcDbLine
 10
0.0
 20
22.43272629327407
 30
0.0
 11
0.0
 21
124.0795686925671
 31
0.0
  0
TEXT
  5
1288
330
125D
100
AcDbEntity
  8
DIM
100
AcDbText
 10
1.48247182125101
 20
198.3559972407229
 30
0.0
 40
3.0
  1
DIMENSION (UNIT : mm)
 41
0.7
  7
ROMANS
100
AcDbText
  0
LWPOLYLINE
  5
1289
330
125D
100
AcDbEntity
  8
DIM
 62
     4
100
AcDbPolyline
 90
        4
 70
     1
 43
0.6
 10
0.0
 20
202.9639180777265
 10
0.0
 20
0.0
 10
291.9564623227739
 20
0.0
 10
291.9564623227739
 20
202.9639180777265
  0
ENDBLK
  5
128C
330
125D
100
AcDbEntity
  8
0
100
AcDbBlockEnd
  0
BLOCK
  5
1A56
330
1A4C
100
AcDbEntity
  8
0
100
AcDbBlockBegin
  2
*D5
 70
     1
 10
0.0
 20
0.0
 30
0.0
  3
*D5
  1

  0
LINE
  5
6176
330
1A4C
100
AcDbEntity
  8
DIM
 62
     3
370
    -2
100
AcDbLine
 10
139.9063688288351
 20
73.09868988223387
 30
0.0
 11
139.9063688288351
 21
54.91119174080847
 31
0.0
  0
LINE
  5
6177
330
1A4C
100
AcDbEntity
  8
DIM
 62
     3
370
    -2
100
AcDbLine
 10
149.0972407104071
 20
59.09299455805125
 30
0.0
 11
149.0972407104071
 21
54.91119174080847
 31
0.0
  0
LINE
  5
6178
330
1A4C
100
AcDbEntity
  8
DIM
 62
     3
100
AcDbLine
 10
142.3063688288351
 20
55.91119174080848
 30
0.0
 11
149.0972407104071
 21
55.91119174080848
 31
0.0
  0
SOLID
  5
6179
330
1A4C
100
AcDbEntity
  8
DIM
 62
     3
100
AcDbTrace
 10
142.3063688288351
 20
56.31119174080847
 30
0.0
 11
142.3063688288351
 21
55.51119174080848
 31
0.0
 12
139.9063688288351
 22
55.91119174080848
 32
0.0
 13
139.9063688288351
 23
55.91119174080848
 33
0.0
  0
MTEXT
  5
617A
330
1A4C
100
AcDbEntity
  8
DIM
 62
     6
100
AcDbMText
 10
144.4901433864878
 20
58.11119174080848
 30
0.0
 40
2.399999999999999
 41
0.0
 71
     5
 72
     1
  1
\A1;a
  7
ROMANS
 73
     1
 44
1.0
1001
ACAD
1000
MTEXTBEGIN
1070
    73
1070
     1
1070
    44
1040
1.0
1070
    74
1070
     0
1000
MTEXTEND
  0
POINT
  5
617B
330
1A4C
100
AcDbEntity
  8
Defpoints
 62
     0
100
AcDbPoint
 10
139.9063688288351
 20
74.09868988223387
 30
0.0
  0
POINT
  5
617C
330
1A4C
100
AcDbEntity
  8
Defpoints
 62
     0
100
AcDbPoint
 10
149.0972407104071
 20
60.09299455805124
 30
0.0
  0
POINT
  5
617D
330
1A4C
100
AcDbEntity
  8
Defpoints
 62
     0
100
AcDbPoint
 10
149.0972407104071
 20
55.91119174080848
 30
0.0
  0
ENDBLK
  5
1A57
330
1A4C
100
AcDbEntity
  8
0
100
AcDbBlockEnd
  0
BLOCK
  5
2CC3
330
2CC0
100
AcDbEntity
  8
0
100
AcDbBlockBegin
  2
A$C718C4946
 70
     0
 10
0.0
 20
0.0
 30
0.0
  3
A$C718C4946
  1

  0
TEXT
  5
2CC1
330
2CC0
100
AcDbEntity
  8
DATA
100
AcDbText
 10
-0.3199997827265406
 20
-0.0000001889967507
 30
0.0
 40
2.4
  1
60%%P15%
 41
0.7
  7
ROMANS
100
AcDbText
  0
ENDBLK
  5
2CC4
330
2CC0
100
AcDbEntity
  8
0
100
AcDbBlockEnd
  0
BLOCK
  5
2F8A
330
2F89
100
AcDbEntity
  8
0
100
AcDbBlockBegin
  2
_DotSmall
 70
     0
 10
0.0
 20
0.0
 30
0.0
  3
_DotSmall
  1

  0
LWPOLYLINE
  5
2F8B
330
2F89
100
AcDbEntity
  8
0
  6
ByBlock
 62
     0
100
AcDbPolyline
 90
        2
 70
     1
 43
0.5
 10
-0.0625
 20
0.0
 42
1.0
 10
0.0625
 20
0.0
 42
1.0
  0
ENDBLK
  5
2F8C
330
2F89
100
AcDbEntity
  8
0
100
AcDbBlockEnd
  0
BLOCK
  5
3CCE
330
3CC4
100
AcDbEntity
  8
0
100
AcDbBlockBegin
  2
*D8
 70
     1
 10
0.0
 20
0.0
 30
0.0
  3
*D8
  1

  0
LINE
  5
60CB
330
3CC4
100
AcDbEntity
  8
DIM
  6
ACISOTGL
 62
     3
370
    -2
100
AcDbLine
 10
1377.962605708999
 20
701.1051914549143
 30
0.0
 11
1377.962605708999
 21
736.1207628341631
 31
0.0
  0
LINE
  5
60CC
330
3CC4
100
AcDbEntity
  8
DIM
  6
ACISOTGL
 62
     3
370
    -2
100
AcDbLine
 10
1397.012605708999
 20
701.105191454915
 30
0.0
 11
1397.012605708999
 21
736.1207628341631
 31
0.0
  0
LINE
  5
60CD
330
3CC4
100
AcDbEntity
  8
DIM
  6
ACISOTGL
 62
     3
100
AcDbLine
 10
1380.962605708999
 20
735.120762834163
 30
0.0
 11
1394.012605708999
 21
735.120762834163
 31
0.0
  0
SOLID
  5
60CE
330
3CC4
100
AcDbEntity
  8
DIM
  6
ACISOTGL
 62
     3
100
AcDbTrace
 10
1380.962605708999
 20
735.620762834163
 30
0.0
 11
1380.962605708999
 21
734.620762834163
 31
0.0
 12
1377.962605708999
 22
735.120762834163
 32
0.0
 13
1377.962605708999
 23
735.120762834163
 33
0.0
  0
SOLID
  5
60CF
330
3CC4
100
AcDbEntity
  8
DIM
  6
ACISOTGL
 62
     3
100
AcDbTrace
 10
1394.012605708999
 20
735.620762834163
 30
0.0
 11
1394.012605708999
 21
734.620762834163
 31
0.0
 12
1397.012605708999
 22
735.120762834163
 32
0.0
 13
1397.012605708999
 23
735.120762834163
 33
0.0
  0
MTEXT
  5
60D0
330
3CC4
100
AcDbEntity
  8
DIM
  6
ACISOTGL
 62
     6
100
AcDbMText
 10
1387.068707330521
 20
737.6524817973281
 30
0.0
 40
3.0
 41
0.0
 71
     5
 72
     1
  1
\A1;19.05
 73
     1
 44
1.0
1001
ACAD
1000
MTEXTBEGIN
1070
    73
1070
     1
1070
    44
1040
1.0
1070
    74
1070
     0
1000
MTEXTEND
  0
POINT
  5
60D1
330
3CC4
100
AcDbEntity
  8
Defpoints
  6
ACISOTGL
 62
     0
100
AcDbPoint
 10
1377.962605708999
 20
700.1051914549143
 30
0.0
  0
POINT
  5
60D2
330
3CC4
100
AcDbEntity
  8
Defpoints
  6
ACISOTGL
 62
     0
100
AcDbPoint
 10
1397.012605708999
 20
700.105191454915
 30
0.0
  0
POINT
  5
60D3
330
3CC4
100
AcDbEntity
  8
Defpoints
  6
ACISOTGL
 62
     0
100
AcDbPoint
 10
1397.012605708999
 20
735.120762834163
 30
0.0
  0
ENDBLK
  5
3CCF
330
3CC4
100
AcDbEntity
  8
0
100
AcDbBlockEnd
  0
BLOCK
  5
3CF2
330
3CE8
100
AcDbEntity
  8
0
100
AcDbBlockBegin
  2
*D9
 70
     1
 10
0.0
 20
0.0
 30
0.0
  3
*D9
  1

  0
LINE
  5
4C05
330
3CE8
100
AcDbEntity
  8
DIM
 62
     3
370
    -2
100
AcDbLine
 10
1215.0256341178
 20
719.101540900662
 30
0.0
 11
1173.873907181456
 21
719.101540900662
 31
0.0
  0
LINE
  5
4C06
330
3CE8
100
AcDbEntity
  8
DIM
 62
     3
370
    -2
100
AcDbLine
 10
1215.0256341178
 20
681.0015409006621
 30
0.0
 11
1173.873907181456
 21
681.0015409006621
 31
0.0
  0
LINE
  5
4C07
330
3CE8
100
AcDbEntity
  8
DIM
 62
     3
100
AcDbLine
 10
1174.873907181456
 20
716.101540900662
 30
0.0
 11
1174.873907181456
 21
684.0015409006621
 31
0.0
  0
SOLID
  5
4C08
330
3CE8
100
AcDbEntity
  8
DIM
 62
     3
100
AcDbTrace
 10
1174.373907181456
 20
716.101540900662
 30
0.0
 11
1175.373907181456
 21
716.101540900662
 31
0.0
 12
1174.873907181456
 22
719.101540900662
 32
0.0
 13
1174.873907181456
 23
719.101540900662
 33
0.0
  0
SOLID
  5
4C09
330
3CE8
100
AcDbEntity
  8
DIM
 62
     3
100
AcDbTrace
 10
1174.373907181456
 20
684.0015409006621
 30
0.0
 11
1175.373907181456
 21
684.0015409006621
 31
0.0
 12
1174.873907181456
 22
681.0015409006621
 32
0.0
 13
1174.873907181456
 23
681.0015409006621
 33
0.0
  0
MTEXT
  5
4C0A
330
3CE8
100
AcDbEntity
  8
DIM
 62
     6
100
AcDbMText
 10
1172.258286444757
 20
700.1049207843391
 30
0.0
 40
3.0
 41
0.0
 71
     5
 72
     1
  1
\A1;%%c38.1{\H2.400000;±0.025}
 11
0.0000000000000001
 21
1.0
 31
0.0
 73
     1
 44
1.0
1001
ACAD
1000
MTEXTBEGIN
1070
    73
1070
     1
1070
    44
1040
1.0
1070
    74
1070
     0
1000
MTEXTEND
  0
POINT
  5
4C0B
330
3CE8
100
AcDbEntity
  8
Defpoints
 62
     0
100
AcDbPoint
 10
1216.0256341178
 20
719.101540900662
 30
0.0
  0
POINT
  5
4C0C
330
3CE8
100
AcDbEntity
  8
Defpoints
 62
     0
100
AcDbPoint
 10
1216.0256341178
 20
681.0015409006621
 30
0.0
  0
POINT
  5
4C0D
330
3CE8
100
AcDbEntity
  8
Defpoints
 62
     0
100
AcDbPoint
 10
1174.873907181456
 20
681.0015409006621
 30
0.0
  0
ENDBLK
  5
3CF3
330
3CE8
100
AcDbEntity
  8
0
100
AcDbBlockEnd
  0
BLOCK
  5
3D16
330
3D0C
100
AcDbEntity
  8
0
100
AcDbBlockBegin
  2
*D10
 70
     1
 10
0.0
 20
0.0
 30
0.0
  3
*D10
  1

  0
LINE
  5
5659
330
3D0C
100
AcDbEntity
  8
DATA
 62
     3
370
    -2
100
AcDbLine
 10
1217.625634117805
 20
729.3329403909385
 30
0.0
 11
1217.625634117805
 21
743.2011612208765
 31
0.0
  0
LINE
  5
565A
330
3D0C
100
AcDbEntity
  8
DATA
 62
     3
370
    -2
100
AcDbLine
 10
1197.025787892154
 20
704.2330735942769
 30
0.0
 11
1197.025787892154
 21
743.2011612208765
 31
0.0
  0
LINE
  5
565B
330
3D0C
100
AcDbEntity
  8
DATA
 62
     3
100
AcDbLine
 10
1214.625634117805
 20
742.2011612208765
 30
0.0
 11
1200.025787892154
 21
742.2011612208765
 31
0.0
  0
SOLID
  5
565C
330
3D0C
100
AcDbEntity
  8
DATA
 62
     3
100
AcDbTrace
 10
1214.625634117805
 20
742.7011612208765
 30
0.0
 11
1214.625634117805
 21
741.7011612208765
 31
0.0
 12
1217.625634117805
 22
742.2011612208765
 32
0.0
 13
1217.625634117805
 23
742.2011612208765
 33
0.0
  0
SOLID
  5
565D
330
3D0C
100
AcDbEntity
  8
DATA
 62
     3
100
AcDbTrace
 10
1200.025787892154
 20
742.7011612208765
 30
0.0
 11
1200.025787892154
 21
741.7011612208765
 31
0.0
 12
1197.025787892154
 22
742.2011612208765
 32
0.0
 13
1197.025787892154
 23
742.2011612208765
 33
0.0
  0
MTEXT
  5
565E
330
3D0C
100
AcDbEntity
  8
DATA
 62
     6
100
AcDbMText
 10
1207.543058168996
 20
744.7328801840416
 30
0.0
 40
3.0
 41
0.0
 71
     5
 72
     1
  1
\A1;20.6{\H2.400000;±0.5}
 73
     1
 44
1.0
1001
ACAD
1000
MTEXTBEGIN
1070
    73
1070
     1
1070
    44
1040
1.0
1070
    74
1070
     0
1000
MTEXTEND
  0
POINT
  5
565F
330
3D0C
100
AcDbEntity
  8
Defpoints
 62
     0
100
AcDbPoint
 10
1217.625634117805
 20
728.3329403909386
 30
0.0
  0
POINT
  5
5660
330
3D0C
100
AcDbEntity
  8
Defpoints
 62
     0
100
AcDbPoint
 10
1197.025787892154
 20
703.2330735942768
 30
0.0
  0
POINT
  5
5661
330
3D0C
100
AcDbEntity
  8
Defpoints
 62
     0
100
AcDbPoint
 10
1197.025787892154
 20
742.2011612208765
 30
0.0
  0
ENDBLK
  5
3D17
330
3D0C
100
AcDbEntity
  8
0
100
AcDbBlockEnd
  0
BLOCK
  5
3E06
330
3D18
100
AcDbEntity
  8
0
100
AcDbBlockBegin
  2
*D11
 70
     1
 10
0.0
 20
0.0
 30
0.0
  3
*D11
  1

  0
LINE
  5
4DD4
330
3D18
100
AcDbEntity
  8
DATA
 62
     3
370
    -2
100
AcDbLine
 10
1216.0256341178
 20
720.101540900662
 30
0.0
 11
1216.0256341178
 21
736.1634005090661
 31
0.0
  0
LINE
  5
4DD5
330
3D18
100
AcDbEntity
  8
DATA
 62
     3
370
    -2
100
AcDbLine
 10
1217.625634117805
 20
729.3329403909385
 30
0.0
 11
1217.625634117805
 21
736.1634005090661
 31
0.0
  0
LINE
  5
4DD6
330
3D18
100
AcDbEntity
  8
DATA
 62
     3
100
AcDbLine
 10
1217.625634117805
 20
735.1634005090661
 30
0.0
 11
1223.625634117805
 21
735.1634005090661
 31
0.0
  0
LINE
  5
4DD7
330
3D18
100
AcDbEntity
  8
DATA
 62
     3
100
AcDbLine
 10
1213.0256341178
 20
735.1634005090661
 30
0.0
 11
1202.848280775371
 21
735.1634005090661
 31
0.0
  0
LINE
  5
4DD8
330
3D18
100
AcDbEntity
  8
DATA
 62
     3
100
AcDbLine
 10
1217.625634117805
 20
735.1634005090661
 30
0.0
 11
1216.0256341178
 21
735.1634005090661
 31
0.0
  0
INSERT
  5
4DD9
330
3D18
100
AcDbEntity
  8
DATA
 62
     3
100
AcDbBlockReference
  2
_DotSmall
 10
1217.625634117805
 20
735.1634005090661
 30
0.0
 41
3.0
 42
3.0
 43
3.0
 50
180.0
  0
SOLID
  5
4DDA
330
3D18
100
AcDbEntity
  8
DATA
 62
     3
100
AcDbTrace
 10
1213.0256341178
 20
735.6634005090661
 30
0.0
 11
1213.0256341178
 21
734.6634005090662
 31
0.0
 12
1216.0256341178
 22
735.1634005090661
 32
0.0
 13
1216.0256341178
 23
735.1634005090661
 33
0.0
  0
MTEXT
  5
4DDB
330
3D18
100
AcDbEntity
  8
DATA
 62
     6
100
AcDbMText
 10
1206.436957446586
 20
737.6951194722312
 30
0.0
 40
3.0
 41
0.0
 71
     5
 72
     1
  1
\A1;1.6
 73
     1
 44
1.0
1001
ACAD
1000
MTEXTBEGIN
1070
    73
1070
     1
1070
    44
1040
1.0
1070
    74
1070
     0
1000
MTEXTEND
  0
POINT
  5
4DDC
330
3D18
100
AcDbEntity
  8
Defpoints
 62
     0
100
AcDbPoint
 10
1216.0256341178
 20
719.101540900662
 30
0.0
  0
POINT
  5
4DDD
330
3D18
100
AcDbEntity
  8
Defpoints
 62
     0
100
AcDbPoint
 10
1217.625634117805
 20
728.3329403909386
 30
0.0
  0
POINT
  5
4DDE
330
3D18
100
AcDbEntity
  8
Defpoints
 62
     0
100
AcDbPoint
 10
1217.625634117805
 20
735.1634005090661
 30
0.0
  0
ENDBLK
  5
3E07
330
3D18
100
AcDbEntity
  8
0
100
AcDbBlockEnd
  0
BLOCK
  5
3E08
330
3D24
100
AcDbEntity
  8
0
100
AcDbBlockBegin
  2
*D12
 70
     1
 10
0.0
 20
0.0
 30
0.0
  3
*D12
  1

  0
LINE
  5
4DBE
330
3D24
100
AcDbEntity
  8
DATA
 62
     3
370
    -2
100
AcDbLine
 10
1217.625634117805
 20
729.3329403909385
 30
0.0
 11
1217.625634117805
 21
736.1425457152456
 31
0.0
  0
LINE
  5
4DBF
330
3D24
100
AcDbEntity
  8
DATA
 62
     3
370
    -2
100
AcDbLine
 10
1222.625634112805
 20
729.3329403909385
 30
0.0
 11
1222.625634112805
 21
736.1425457152456
 31
0.0
  0
LINE
  5
4DC0
330
3D24
100
AcDbEntity
  8
DATA
 62
     3
100
AcDbLine
 10
1217.625634117805
 20
735.1425457152457
 30
0.0
 11
1214.625634117805
 21
735.1425457152457
 31
0.0
  0
LINE
  5
4DC1
330
3D24
100
AcDbEntity
  8
DATA
 62
     3
100
AcDbLine
 10
1225.625634112805
 20
735.1425457152457
 30
0.0
 11
1232.614720060963
 21
735.1425457152457
 31
0.0
  0
LINE
  5
4DC2
330
3D24
100
AcDbEntity
  8
DATA
 62
     3
100
AcDbLine
 10
1217.625634117805
 20
735.1425457152457
 30
0.0
 11
1222.625634112805
 21
735.1425457152457
 31
0.0
  0
INSERT
  5
4DC3
330
3D24
100
AcDbEntity
  8
DATA
 62
     3
100
AcDbBlockReference
  2
_DotSmall
 10
1217.625634117805
 20
735.1425457152457
 30
0.0
 41
3.0
 42
3.0
 43
3.0
  0
SOLID
  5
4DC4
330
3D24
100
AcDbEntity
  8
DATA
 62
     3
100
AcDbTrace
 10
1225.625634112805
 20
735.6425457152456
 30
0.0
 11
1225.625634112805
 21
734.6425457152456
 31
0.0
 12
1222.625634112805
 22
735.1425457152457
 32
0.0
 13
1222.625634112805
 23
735.1425457152457
 33
0.0
  0
MTEXT
  5
4DC5
330
3D24
100
AcDbEntity
  8
DATA
 62
     6
100
AcDbMText
 10
1230.620177086884
 20
737.6681255242496
 30
0.0
 40
3.0
 41
0.0
 71
     5
 72
     1
  1
\A1;5
 73
     1
 44
1.0
1001
ACAD
1000
MTEXTBEGIN
1070
    73
1070
     1
1070
    44
1040
1.0
1070
    74
1070
     0
1000
MTEXTEND
  0
POINT
  5
4DC6
330
3D24
100
AcDbEntity
  8
Defpoints
 62
     0
100
AcDbPoint
 10
1217.625634117805
 20
728.3329403909386
 30
0.0
  0
POINT
  5
4DC7
330
3D24
100
AcDbEntity
  8
Defpoints
 62
     0
100
AcDbPoint
 10
1222.625634112805
 20
728.3329403909386
 30
0.0
  0
POINT
  5
4DC8
330
3D24
100
AcDbEntity
  8
Defpoints
 62
     0
100
AcDbPoint
 10
1222.625634112805
 20
735.1425457152457
 30
0.0
  0
ENDBLK
  5
3E09
330
3D24
100
AcDbEntity
  8
0
100
AcDbBlockEnd
  0
BLOCK
  5
3D4D
330
3D42
100
AcDbEntity
  8
0
100
AcDbBlockBegin
  2
*D13
 70
     1
 10
0.0
 20
0.0
 30
0.0
  3
*D13
  1

  0
LINE
  5
5330
330
3D42
100
AcDbEntity
  8
DIM
 62
     3
370
    -2
100
AcDbLine
 10
1196.025481971506
 20
696.8830447031584
 30
0.0
 11
1186.581205205985
 21
696.8830447031584
 31
0.0
  0
LINE
  5
5331
330
3D42
100
AcDbEntity
  8
DIM
 62
     3
370
    -2
100
AcDbLine
 10
1196.025787892154
 20
703.2330735942768
 30
0.0
 11
1186.581205205985
 21
703.2330735942768
 31
0.0
  0
LINE
  5
5332
330
3D42
100
AcDbEntity
  8
DIM
 62
     3
100
AcDbLine
 10
1187.581205205985
 20
693.8830447031584
 30
0.0
 11
1187.581205205985
 21
690.8830447031585
 31
0.0
  0
LINE
  5
5333
330
3D42
100
AcDbEntity
  8
DIM
 62
     3
100
AcDbLine
 10
1187.581205205985
 20
706.2330735942769
 30
0.0
 11
1187.581205205985
 21
744.0035832178186
 31
0.0
  0
LINE
  5
5334
330
3D42
100
AcDbEntity
  8
DIM
 62
     3
100
AcDbLine
 10
1187.581205205985
 20
696.8830447031584
 30
0.0
 11
1187.581205205985
 21
703.2330735942768
 31
0.0
  0
SOLID
  5
5335
330
3D42
100
AcDbEntity
  8
DIM
 62
     3
100
AcDbTrace
 10
1187.081205205986
 20
693.8830447031584
 30
0.0
 11
1188.081205205985
 21
693.8830447031584
 31
0.0
 12
1187.581205205985
 22
696.8830447031584
 32
0.0
 13
1187.581205205985
 23
696.8830447031584
 33
0.0
  0
SOLID
  5
5336
330
3D42
100
AcDbEntity
  8
DIM
 62
     3
100
AcDbTrace
 10
1187.081205205986
 20
706.2330735942769
 30
0.0
 11
1188.081205205985
 21
706.2330735942769
 31
0.0
 12
1187.581205205985
 22
703.2330735942768
 32
0.0
 13
1187.581205205985
 23
703.2330735942768
 33
0.0
  0
MTEXT
  5
5337
330
3D42
100
AcDbEntity
  8
DIM
 62
     6
100
AcDbMText
 10
1183.669267961783
 20
732.7561070923072
 30
0.0
 40
3.0
 41
0.0
 71
     5
 72
     1
  1
\A1;%%c6.35{\H2.400000;\S 0^ -0.013;}
 11
0.0000000000000001
 21
1.0
 31
0.0
 73
     1
 44
1.0
1001
ACAD
1000
MTEXTBEGIN
1070
    73
1070
     1
1070
    44
1040
1.0
1070
    74
1070
     0
1000
MTEXTEND
  0
POINT
  5
5338
330
3D42
100
AcDbEntity
  8
Defpoints
 62
     0
100
AcDbPoint
 10
1197.025481971506
 20
696.8830447031584
 30
0.0
  0
POINT
  5
5339
330
3D42
100
AcDbEntity
  8
Defpoints
 62
     0
100
AcDbPoint
 10
1197.025787892154
 20
703.2330735942768
 30
0.0
  0
POINT
  5
533A
330
3D42
100
AcDbEntity
  8
Defpoints
 62
     0
100
AcDbPoint
 10
1187.581205205985
 20
703.2330735942768
 30
0.0
  0
ENDBLK
  5
3D4E
330
3D42
100
AcDbEntity
  8
0
100
AcDbBlockEnd
  0
BLOCK
  5
3D59
330
3D4F
100
AcDbEntity
  8
0
100
AcDbBlockBegin
  2
*D14
 70
     1
 10
0.0
 20
0.0
 30
0.0
  3
*D14
  1

  0
LINE
  5
60B7
330
3D4F
100
AcDbEntity
  8
DIM
  6
ACISOTGL
 62
     3
370
    -2
100
AcDbLine
 10
1293.625544224458
 20
729.3051914549151
 30
0.0
 11
1293.625544224458
 21
743.2652632175305
 31
0.0
  0
LINE
  5
60B8
330
3D4F
100
AcDbEntity
  8
DIM
  6
ACISOTGL
 62
     3
370
    -2
100
AcDbLine
 10
1307.125544224458
 20
704.1987919646885
 30
0.0
 11
1307.125544224458
 21
743.2652632175305
 31
0.0
  0
LINE
  5
60B9
330
3D4F
100
AcDbEntity
  8
DIM
  6
ACISOTGL
 62
     3
100
AcDbLine
 10
1296.625544224458
 20
742.2652632175304
 30
0.0
 11
1304.125544224458
 21
742.2652632175304
 31
0.0
  0
SOLID
  5
60BA
330
3D4F
100
AcDbEntity
  8
DIM
  6
ACISOTGL
 62
     3
100
AcDbTrace
 10
1296.625544224458
 20
742.7652632175304
 30
0.0
 11
1296.625544224458
 21
741.7652632175304
 31
0.0
 12
1293.625544224458
 22
742.2652632175304
 32
0.0
 13
1293.625544224458
 23
742.2652632175304
 33
0.0
  0
SOLID
  5
60BB
330
3D4F
100
AcDbEntity
  8
DIM
  6
ACISOTGL
 62
     3
100
AcDbTrace
 10
1304.125544224458
 20
742.7652632175304
 30
0.0
 11
1304.125544224458
 21
741.7652632175304
 31
0.0
 12
1307.125544224458
 22
742.2652632175304
 32
0.0
 13
1307.125544224458
 23
742.2652632175304
 33
0.0
  0
MTEXT
  5
60BC
330
3D4F
100
AcDbEntity
  8
DIM
  6
ACISOTGL
 62
     6
100
AcDbMText
 10
1299.990294979228
 20
744.7980053730557
 30
0.0
 40
3.0
 41
0.0
 71
     5
 72
     1
  1
\A1;13.5
 73
     1
 44
1.0
1001
ACAD
1000
MTEXTBEGIN
1070
    73
1070
     1
1070
    44
1040
1.0
1070
    74
1070
     0
1000
MTEXTEND
  0
POINT
  5
60BD
330
3D4F
100
AcDbEntity
  8
Defpoints
  6
ACISOTGL
 62
     0
100
AcDbPoint
 10
1293.625544224458
 20
728.305191454915
 30
0.0
  0
POINT
  5
60BE
330
3D4F
100
AcDbEntity
  8
Defpoints
  6
ACISOTGL
 62
     0
100
AcDbPoint
 10
1307.125544224458
 20
703.1987919646885
 30
0.0
  0
POINT
  5
60BF
330
3D4F
100
AcDbEntity
  8
Defpoints
  6
ACISOTGL
 62
     0
100
AcDbPoint
 10
1307.125544224458
 20
742.2652632175304
 30
0.0
  0
ENDBLK
  5
3D5A
330
3D4F
100
AcDbEntity
  8
0
100
AcDbBlockEnd
  0
BLOCK
  5
3D67
330
3D5B
100
AcDbEntity
  8
0
100
AcDbBlockBegin
  2
*D15
 70
     1
 10
0.0
 20
0.0
 30
0.0
  3
*D15
  1

  0
LINE
  5
60C0
330
3D5B
100
AcDbEntity
  8
DIM
  6
ACISOTGL
 62
     3
370
    -2
100
AcDbLine
 10
1308.125544224458
 20
696.8487919645886
 30
0.0
 11
1321.330749512116
 21
696.8487919645886
 31
0.0
  0
LINE
  5
60C1
330
3D5B
100
AcDbEntity
  8
DIM
  6
ACISOTGL
 62
     3
370
    -2
100
AcDbLine
 10
1308.125544224458
 20
703.1987919646885
 30
0.0
 11
1321.330749512116
 21
703.1987919646885
 31
0.0
  0
LINE
  5
60C2
330
3D5B
100
AcDbEntity
  8
DIM
  6
ACISOTGL
 62
     3
100
AcDbLine
 10
1320.330749512116
 20
693.8487919645885
 30
0.0
 11
1320.330749512116
 21
690.8487919645885
 31
0.0
  0
LINE
  5
60C3
330
3D5B
100
AcDbEntity
  8
DIM
  6
ACISOTGL
 62
     3
100
AcDbLine
 10
1320.330749512116
 20
706.1987919646885
 30
0.0
 11
1320.330749512116
 21
753.0752356234966
 31
0.0
  0
LINE
  5
60C4
330
3D5B
100
AcDbEntity
  8
DIM
  6
ACISOTGL
 62
     3
100
AcDbLine
 10
1320.330749512116
 20
696.8487919645886
 30
0.0
 11
1320.330749512116
 21
703.1987919646885
 31
0.0
  0
SOLID
  5
60C5
330
3D5B
100
AcDbEntity
  8
DIM
  6
ACISOTGL
 62
     3
100
AcDbTrace
 10
1319.830749512116
 20
693.8487919645885
 30
0.0
 11
1320.830749512116
 21
693.8487919645885
 31
0.0
 12
1320.330749512116
 22
696.8487919645886
 32
0.0
 13
1320.330749512116
 23
696.8487919645886
 33
0.0
  0
SOLID
  5
60C6
330
3D5B
100
AcDbEntity
  8
DIM
  6
ACISOTGL
 62
     3
100
AcDbTrace
 10
1319.830749512116
 20
706.1987919646885
 30
0.0
 11
1320.830749512116
 21
706.1987919646885
 31
0.0
 12
1320.330749512116
 22
703.1987919646885
 32
0.0
 13
1320.330749512116
 23
703.1987919646885
 33
0.0
  0
MTEXT
  5
60C7
330
3D5B
100
AcDbEntity
  8
DIM
  6
ACISOTGL
 62
     6
100
AcDbMText
 10
1316.418812267914
 20
741.8277594979853
 30
0.0
 40
3.0
 41
0.0
 71
     5
 72
     1
  1
\A1;%%c6.35{\H2.400000;\S 0^ -0.013;}
 11
0.0000000000000001
 21
1.0
 31
0.0
 73
     1
 44
1.0
1001
ACAD
1000
MTEXTBEGIN
1070
    73
1070
     1
1070
    44
1040
1.0
1070
    74
1070
     0
1000
MTEXTEND
  0
POINT
  5
60C8
330
3D5B
100
AcDbEntity
  8
Defpoints
  6
ACISOTGL
 62
     0
100
AcDbPoint
 10
1307.125544224458
 20
696.8487919645886
 30
0.0
  0
POINT
  5
60C9
330
3D5B
100
AcDbEntity
  8
Defpoints
  6
ACISOTGL
 62
     0
100
AcDbPoint
 10
1307.125544224458
 20
703.1987919646885
 30
0.0
  0
POINT
  5
60CA
330
3D5B
100
AcDbEntity
  8
Defpoints
  6
ACISOTGL
 62
     0
100
AcDbPoint
 10
1320.330749512116
 20
703.1987919646885
 30
0.0
  0
ENDBLK
  5
3D68
330
3D5B
100
AcDbEntity
  8
0
100
AcDbBlockEnd
  0
BLOCK
  5
4CA2
330
4C98
100
AcDbEntity
  8
0
100
AcDbBlockBegin
  2
*D16
 70
     1
 10
0.0
 20
0.0
 30
0.0
  3
*D16
  1

  0
LINE
  5
5609
330
4C98
100
AcDbEntity
  8
AM_5
 62
     3
370
    -2
100
AcDbLine
 10
1096.043556788749
 20
726.8049207843391
 30
0.0
 11
1096.043556788749
 21
743.2788889703967
 31
0.0
  0
LINE
  5
560A
330
4C98
100
AcDbEntity
  8
AM_5
 62
     3
370
    -2
100
AcDbLine
 10
1152.443556788749
 20
726.8049207843391
 30
0.0
 11
1152.443556788749
 21
743.2788889703967
 31
0.0
  0
LINE
  5
560B
330
4C98
100
AcDbEntity
  8
AM_5
 62
     3
100
AcDbLine
 10
1099.043556788749
 20
742.2788889703967
 30
0.0
 11
1149.443556788749
 21
742.2788889703967
 31
0.0
  0
SOLID
  5
560C
330
4C98
100
AcDbEntity
  8
AM_5
 62
     3
100
AcDbTrace
 10
1099.043556788749
 20
742.7788889703967
 30
0.0
 11
1099.043556788749
 21
741.7788889703968
 31
0.0
 12
1096.043556788749
 22
742.2788889703967
 32
0.0
 13
1096.043556788749
 23
742.2788889703967
 33
0.0
  0
SOLID
  5
560D
330
4C98
100
AcDbEntity
  8
AM_5
 62
     3
100
AcDbTrace
 10
1149.443556788749
 20
742.7788889703967
 30
0.0
 11
1149.443556788749
 21
741.7788889703968
 31
0.0
 12
1152.443556788749
 22
742.2788889703967
 32
0.0
 13
1152.443556788749
 23
742.2788889703967
 33
0.0
  0
MTEXT
  5
560E
330
4C98
100
AcDbEntity
  8
AM_5
 62
     6
100
AcDbMText
 10
1122.87073692749
 20
744.8106079335619
 30
0.0
 40
3.0
 41
0.0
 71
     5
 72
     1
  1
\A1;{\Famgdt|c0;o} 56.4
 73
     1
 44
1.0
1001
ACAD
1000
MTEXTBEGIN
1070
    73
1070
     1
1070
    44
1040
1.0
1070
    74
1070
     0
1000
MTEXTEND
  0
POINT
  5
560F
330
4C98
100
AcDbEntity
  8
Defpoints
 62
     0
100
AcDbPoint
 10
1096.043556788749
 20
725.8049207843392
 30
0.0
  0
POINT
  5
5610
330
4C98
100
AcDbEntity
  8
Defpoints
 62
     0
100
AcDbPoint
 10
1152.443556788749
 20
725.8049207843392
 30
0.0
  0
POINT
  5
5611
330
4C98
100
AcDbEntity
  8
Defpoints
 62
     0
100
AcDbPoint
 10
1152.443556788749
 20
742.2788889703967
 30
0.0
  0
ENDBLK
  5
4CA3
330
4C98
100
AcDbEntity
  8
0
100
AcDbBlockEnd
  0
BLOCK
  5
4CF9
330
4CEF
100
AcDbEntity
  8
0
100
AcDbBlockBegin
  2
*D17
 70
     1
 10
0.0
 20
0.0
 30
0.0
  3
*D17
  1

  0
LINE
  5
5DA8
330
4CEF
100
AcDbEntity
  8
AM_5
 62
     3
370
    -2
100
AcDbLine
 10
1100.673556789249
 20
727.6749207843383
 30
0.0
 11
1100.673556789249
 21
736.1863099840505
 31
0.0
  0
LINE
  5
5DA9
330
4CEF
100
AcDbEntity
  8
AM_5
 62
     3
370
    -2
100
AcDbLine
 10
1147.813556788249
 20
726.9249207843383
 30
0.0
 11
1147.813556788249
 21
736.1863099840505
 31
0.0
  0
LINE
  5
5DAA
330
4CEF
100
AcDbEntity
  8
AM_5
 62
     3
100
AcDbLine
 10
1103.673556789249
 20
735.1863099840504
 30
0.0
 11
1144.813556788249
 21
735.1863099840504
 31
0.0
  0
SOLID
  5
5DAB
330
4CEF
100
AcDbEntity
  8
AM_5
 62
     3
100
AcDbTrace
 10
1103.673556789249
 20
735.6863099840504
 30
0.0
 11
1103.673556789249
 21
734.6863099840504
 31
0.0
 12
1100.673556789249
 22
735.1863099840504
 32
0.0
 13
1100.673556789249
 23
735.1863099840504
 33
0.0
  0
SOLID
  5
5DAC
330
4CEF
100
AcDbEntity
  8
AM_5
 62
     3
100
AcDbTrace
 10
1144.813556788249
 20
735.6863099840504
 30
0.0
 11
1144.813556788249
 21
734.6863099840504
 31
0.0
 12
1147.813556788249
 22
735.1863099840504
 32
0.0
 13
1147.813556788249
 23
735.1863099840504
 33
0.0
  0
MTEXT
  5
5DAD
330
4CEF
100
AcDbEntity
  8
AM_5
 62
     6
100
AcDbMText
 10
1124.243556788749
 20
737.7129129854147
 30
0.0
 40
3.0
 41
0.0
 71
     5
 72
     1
  1
\A1;{\Famgdt|c0;o} 47.1{\H2.400000;±0.2}{}{\H0.71x;\C3
 73
     1
 44
1.0
1001
ACAD
1000
MTEXTBEGIN
1070
    73
1070
     1
1070
    44
1040
1.0
1070
    74
1070
     0
1000
MTEXTEND
  0
POINT
  5
5DAE
330
4CEF
100
AcDbEntity
  8
Defpoints
 62
     0
100
AcDbPoint
 10
1100.673556789249
 20
726.6749207843384
 30
0.0
  0
POINT
  5
5DAF
330
4CEF
100
AcDbEntity
  8
Defpoints
 62
     0
100
AcDbPoint
 10
1147.813556788249
 20
725.9249207843383
 30
0.0
  0
POINT
  5
5DB0
330
4CEF
100
AcDbEntity
  8
Defpoints
 62
     0
100
AcDbPoint
 10
1147.813556788249
 20
735.1863099840504
 30
0.0
  0
ENDBLK
  5
4CFA
330
4CEF
100
AcDbEntity
  8
0
100
AcDbBlockEnd
  0
BLOCK
  5
4EC9
330
4EBF
100
AcDbEntity
  8
0
100
AcDbBlockBegin
  2
*D18
 70
     1
 10
0.0
 20
0.0
 30
0.0
  3
*D18
  1

  0
LINE
  5
60EF
330
4EBF
100
AcDbEntity
  8
AM_5
 62
     3
370
    -2
100
AcDbLine
 10
1217.625634117805
 20
729.3329403909385
 30
0.0
 11
1217.625634117805
 21
743.2155225641217
 31
0.0
  0
LINE
  5
60F0
330
4EBF
100
AcDbEntity
  8
AM_5
 62
     3
370
    -2
100
AcDbLine
 10
1293.625544224458
 20
729.3051914549151
 30
0.0
 11
1293.625544224458
 21
743.2155225641217
 31
0.0
  0
LINE
  5
60F1
330
4EBF
100
AcDbEntity
  8
AM_5
 62
     3
100
AcDbLine
 10
1220.625634117805
 20
742.2155225641217
 30
0.0
 11
1290.625544224458
 21
742.2155225641217
 31
0.0
  0
SOLID
  5
60F2
330
4EBF
100
AcDbEntity
  8
AM_5
 62
     3
100
AcDbTrace
 10
1220.625634117805
 20
742.7155225641217
 30
0.0
 11
1220.625634117805
 21
741.7155225641217
 31
0.0
 12
1217.625634117805
 22
742.2155225641217
 32
0.0
 13
1217.625634117805
 23
742.2155225641217
 33
0.0
  0
SOLID
  5
60F3
330
4EBF
100
AcDbEntity
  8
AM_5
 62
     3
100
AcDbTrace
 10
1290.625544224458
 20
742.7155225641217
 30
0.0
 11
1290.625544224458
 21
741.7155225641217
 31
0.0
 12
1293.625544224458
 22
742.2155225641217
 32
0.0
 13
1293.625544224458
 23
742.2155225641217
 33
0.0
  0
MTEXT
  5
60F4
330
4EBF
100
AcDbEntity
  8
AM_5
 62
     6
100
AcDbMText
 10
1252.399139405373
 20
744.7472415272868
 30
0.0
 40
3.0
 41
0.0
 71
     5
 72
     1
  1
\A1;76{\H2.400000;±0.75}
 73
     1
 44
1.0
1001
ACAD
1000
MTEXTBEGIN
1070
    73
1070
     1
1070
    44
1040
1.0
1070
    74
1070
     0
1000
MTEXTEND
  0
POINT
  5
60F5
330
4EBF
100
AcDbEntity
  8
Defpoints
 62
     0
100
AcDbPoint
 10
1217.625634117805
 20
728.3329403909386
 30
0.0
  0
POINT
  5
60F6
330
4EBF
100
AcDbEntity
  8
Defpoints
 62
     0
100
AcDbPoint
 10
1293.625544224458
 20
728.305191454915
 30
0.0
  0
POINT
  5
60F7
330
4EBF
100
AcDbEntity
  8
Defpoints
 62
     0
100
AcDbPoint
 10
1293.625544224458
 20
742.2155225641217
 30
0.0
  0
ENDBLK
  5
4ECA
330
4EBF
100
AcDbEntity
  8
0
100
AcDbBlockEnd
  0
BLOCK
  5
5BA5
330
5B9E
100
AcDbEntity
  8
0
100
AcDbBlockBegin
  2
*D19
 70
     1
 10
0.0
 20
0.0
 30
0.0
  3
*D19
  1

  0
LINE
  5
5BA7
330
5B9E
100
AcDbEntity
  8
AM_5
 62
     3
100
AcDbLine
 10
127.3758105278284
 20
75.86098729582364
 30
0.0
 11
131.9011157408814
 21
75.86098729582364
 31
0.0
  0
SOLID
  5
5BA8
330
5B9E
100
AcDbEntity
  8
AM_5
 62
     3
100
AcDbTrace
 10
127.3758105278284
 20
76.36098729582363
 30
0.0
 11
127.3758105278284
 21
75.36098729582363
 31
0.0
 12
124.3758105278284
 22
75.86098729582364
 32
0.0
 13
124.3758105278284
 23
75.86098729582364
 33
0.0
  0
SOLID
  5
5BA9
330
5B9E
100
AcDbEntity
  8
AM_5
 62
     3
100
AcDbTrace
 10
131.9011157408814
 20
76.36098729582363
 30
0.0
 11
131.9011157408814
 21
75.36098729582363
 31
0.0
 12
134.9011157408813
 22
75.86098729582364
 32
0.0
 13
134.9011157408813
 23
75.86098729582364
 33
0.0
  0
POINT
  5
5BAA
330
5B9E
100
AcDbEntity
  8
Defpoints
 62
     0
100
AcDbPoint
 10
124.3758105278284
 20
75.86098729582362
 30
0.0
  0
POINT
  5
5BAB
330
5B9E
100
AcDbEntity
  8
Defpoints
 62
     0
100
AcDbPoint
 10
134.9011157408813
 20
75.86098729582364
 30
0.0
  0
POINT
  5
5BAC
330
5B9E
100
AcDbEntity
  8
Defpoints
 62
     0
100
AcDbPoint
 10
134.9011157408813
 20
75.86098729582364
 30
0.0
  0
ENDBLK
  5
5BA6
330
5B9E
100
AcDbEntity
  8
0
100
AcDbBlockEnd
  0
BLOCK
  5
5E9E
330
5E94
100
AcDbEntity
  8
0
100
AcDbBlockBegin
  2
*D20
 70
     1
 10
0.0
 20
0.0
 30
0.0
  3
*D20
  1

  0
LINE
  5
60D4
330
5E94
100
AcDbEntity
  8
AM_5
 62
     3
370
    -2
100
AcDbLine
 10
1294.625544224458
 20
671.9051914549149
 30
0.0
 11
1331.462946373685
 21
671.9051914549149
 31
0.0
  0
LINE
  5
60D5
330
5E94
100
AcDbEntity
  8
AM_5
 62
     3
370
    -2
100
AcDbLine
 10
1294.625544224458
 20
728.305191454915
 30
0.0
 11
1331.462946373685
 21
728.305191454915
 31
0.0
  0
LINE
  5
60D6
330
5E94
100
AcDbEntity
  8
AM_5
 62
     3
100
AcDbLine
 10
1330.462946373685
 20
674.9051914549149
 30
0.0
 11
1330.462946373685
 21
725.3051914549151
 31
0.0
  0
SOLID
  5
60D7
330
5E94
100
AcDbEntity
  8
AM_5
 62
     3
100
AcDbTrace
 10
1329.962946373685
 20
674.9051914549149
 30
0.0
 11
1330.962946373685
 21
674.9051914549149
 31
0.0
 12
1330.462946373685
 22
671.9051914549149
 32
0.0
 13
1330.462946373685
 23
671.9051914549149
 33
0.0
  0
SOLID
  5
60D8
330
5E94
100
AcDbEntity
  8
AM_5
 62
     3
100
AcDbTrace
 10
1329.962946373685
 20
725.3051914549151
 30
0.0
 11
1330.962946373685
 21
725.3051914549151
 31
0.0
 12
1330.462946373685
 22
728.305191454915
 32
0.0
 13
1330.462946373685
 23
728.305191454915
 33
0.0
  0
MTEXT
  5
60D9
330
5E94
100
AcDbEntity
  8
AM_5
 62
     6
100
AcDbMText
 10
1327.847325636986
 20
700.1051914549152
 30
0.0
 40
3.0
 41
0.0
 71
     5
 72
     1
  1
\A1;%%c56.4
 11
0.0000000000000001
 21
1.0
 31
0.0
 73
     1
 44
1.0
1001
ACAD
1000
MTEXTBEGIN
1070
    73
1070
     1
1070
    44
1040
1.0
1070
    74
1070
     0
1000
MTEXTEND
  0
POINT
  5
60DA
330
5E94
100
AcDbEntity
  8
Defpoints
 62
     0
100
AcDbPoint
 10
1293.625544224458
 20
671.9051914549149
 30
0.0
  0
POINT
  5
60DB
330
5E94
100
AcDbEntity
  8
Defpoints
 62
     0
100
AcDbPoint
 10
1293.625544224458
 20
728.305191454915
 30
0.0
  0
POINT
  5
60DC
330
5E94
100
AcDbEntity
  8
Defpoints
 62
     0
100
AcDbPoint
 10
1330.462946373685
 20
728.305191454915
 30
0.0
  0
ENDBLK
  5
5E9F
330
5E94
100
AcDbEntity
  8
0
100
AcDbBlockEnd
  0
BLOCK
  5
61B0
330
61AA
100
AcDbEntity
  8
0
100
AcDbBlockBegin
  2
*S23
 70
     1
 10
0.0
 20
0.0
 30
0.0
  3
*S23
  1

  0
LINE
  5
61AB
330
61AA
100
AcDbEntity
  8
AM_5
100
AcDbLine
 10
1106.0176906432
 20
662.9805532705337
 30
0.0
 11
1102.517690643201
 21
662.9805532705337
 31
0.0
  0
LINE
  5
61AC
330
61AA
100
AcDbEntity
  8
AM_5
100
AcDbLine
 10
1102.517690643201
 20
662.9805532705337
 30
0.0
 11
1090.605595062316
 21
662.9805532705337
 31
0.0
  0
LINE
  5
61AD
330
61AA
100
AcDbEntity
  8
AM_5
100
AcDbLine
 10
1090.605595062316
 20
662.9805532705337
 30
0.0
 11
1097.099696356395
 21
671.7191386047844
 31
0.0
  0
TRACE
  5
61AE
330
61AA
100
AcDbEntity
  8
AM_5
100
AcDbTrace
 10
1097.469535376652
 20
671.4442918225897
 30
0.0
 11
1096.729857336138
 21
671.9939853869792
 31
0.0
 12
1099.187364941935
 22
674.528344876483
 32
0.0
 13
1099.187364941935
 23
674.528344876483
 33
0.0
  0
MTEXT
  5
61AF
330
61AA
100
AcDbEntity
  8
AM_5
 62
     2
100
AcDbMText
 10
1106.0176906432
 20
664.7305532705337
 30
0.0
 40
3.5
 41
0.0
 71
     7
 72
     5
  1

  7
ACISOTS
 73
     1
 44
1.0
1001
ACAD
1000
MTEXTBEGIN
1070
    73
1070
     1
1070
    44
1040
1.0
1070
    74
1070
     0
1000
MTEXTEND
  0
ENDBLK
  5
61B1
330
61AA
100
AcDbEntity
  8
0
100
AcDbBlockEnd
  0
ENDSEC
  0
SECTION
  2
ENTITIES
  0
TEXT
  5
13FA
330
1F
100
AcDbEntity
  8
SPEC
100
AcDbText
 10
1198.0
 20
654.0
 30
0.0
 40
2.4
  1

 41
0.7
  7
ROMANS
100
AcDbText
  0
LINE
  5
3BC5
330
1F
100
AcDbEntity
  8
SPEC
100
AcDbLine
 10
1293.625544224458
 20
671.9051914549149
 30
0.0
 11
1293.625544224458
 21
728.305191454915
 31
0.0
  0
LINE
  5
3BC6
330
1F
100
AcDbEntity
  8
SPEC
100
AcDbLine
 10
1231.625634117805
 20
671.9329403909385
 30
0.0
 11
1231.625634117805
 21
728.3329403909386
 31
0.0
  0
LINE
  5
3BC7
330
1F
100
AcDbEntity
  8
SPEC
100
AcDbLine
 10
1216.0256341178
 20
681.0015409006621
 30
0.0
 11
1216.0256341178
 21
719.101540900662
 31
0.0
  0
LINE
  5
3BC8
330
1F
100
AcDbEntity
  8
CENTER
  6
AM_ISO08W050x2
100
AcDbLine
 10
1094.243556788749
 20
700.1049207843388
 30
0.0
 11
1154.243556788749
 21
700.1049207843391
 31
0.0
  0
LINE
  5
3BC9
330
1F
100
AcDbEntity
  8
CENTER
  6
AM_ISO08W050x2
100
AcDbLine
 10
1124.243556788749
 20
670.1049207843388
 30
0.0
 11
1124.243556788749
 21
730.1049207843389
 31
0.0
  0
LINE
  5
3BD6
330
1F
100
AcDbEntity
  8
CENTER
  6
AM_ISO08W050x2
100
AcDbLine
 10
1193.760141360326
 20
700.0506544574879
 30
0.0
 11
1309.855530934149
 21
700.0506544574879
 31
0.0
  0
LINE
  5
3BD7
330
1F
100
AcDbEntity
  8
SPEC
100
AcDbLine
 10
1149.943556788749
 20
671.9049207843389
 30
0.0
 11
1098.543556788749
 21
671.9049207843389
 31
0.0
  0
LINE
  5
3BD8
330
1F
100
AcDbEntity
  8
SPEC
100
AcDbLine
 10
1096.043556788749
 20
674.404920784339
 30
0.0
 11
1096.043556788749
 21
725.8049207843392
 31
0.0
  0
LINE
  5
3BD9
330
1F
100
AcDbEntity
  8
SPEC
100
AcDbLine
 10
1098.543556788749
 20
728.3049207843389
 30
0.0
 11
1149.943556788749
 21
728.3049207843389
 31
0.0
  0
LINE
  5
3BDA
330
1F
100
AcDbEntity
  8
SPEC
100
AcDbLine
 10
1152.443556788749
 20
725.8049207843392
 30
0.0
 11
1152.443556788749
 21
674.404920784339
 31
0.0
  0
LINE
  5
3BDB
330
1F
100
AcDbEntity
  8
SPEC
100
AcDbLine
 10
1216.0256341178
 20
681.0015409006621
 30
0.0
 11
1217.625634117805
 21
681.0015409006621
 31
0.0
  0
LINE
  5
3BDC
330
1F
100
AcDbEntity
  8
SPEC
100
AcDbLine
 10
1216.0256341178
 20
719.101540900662
 30
0.0
 11
1217.625634117822
 21
719.101540900662
 31
0.0
  0
LINE
  5
3BDE
330
1F
100
AcDbEntity
  8
SPEC
100
AcDbLine
 10
1222.625634112805
 20
728.3329403909386
 30
0.0
 11
1222.625634112805
 21
671.9329403909385
 31
0.0
  0
LINE
  5
3BDF
330
1F
100
AcDbEntity
  8
SPEC
 62
     1
100
AcDbLine
 10
1217.625634117805
 20
728.3329403909386
 30
0.0
 11
1217.625634117805
 21
671.9329403909385
 31
0.0
  0
LINE
  5
3BE0
102
{ACAD_REACTORS
330
4ECC
102
}
330
1F
100
AcDbEntity
  8
SPEC
100
AcDbLine
 10
1217.625634117805
 20
728.3329403909386
 30
0.0
 11
1231.625627914717
 21
728.3354339603955
 31
0.0
  0
LINE
  5
3BE1
330
1F
100
AcDbEntity
  8
SPEC
100
AcDbLine
 10
1217.625634117805
 20
671.9329403909385
 30
0.0
 11
1231.625634117805
 21
671.9329403909385
 31
0.0
  0
LINE
  5
3BE2
330
1F
100
AcDbEntity
  8
DIM
100
AcDbLine
 10
1385.755368196072
 20
671.0051914549146
 30
0.0
 11
1385.755368196072
 21
658.9085133333947
 31
0.0
  0
LINE
  5
3BE3
330
1F
100
AcDbEntity
  8
DIM
100
AcDbLine
 10
1384.023130683144
 20
671.0051914549146
 30
0.0
 11
1384.023130683144
 21
658.9085133333947
 31
0.0
  0
DIMENSION
  5
3BE5
330
1F
100
AcDbEntity
  8
DIM
100
AcDbDimension
  2
*D9
 10
1174.873907181456
 20
681.0015409006621
 30
0.0
 11
1174.873907181456
 21
700.1049207843391
 31
0.0
 70
   160
  1
%%c<>
 71
     5
 42
38.09999999999991
  3
STANDARD
100
AcDbAlignedDimension
 13
1216.0256341178
 23
719.101540900662
 33
0.0
 14
1216.0256341178
 24
681.0015409006621
 34
0.0
 50
90.0
100
AcDbRotatedDimension
1001
ACAD
1000
DSTYLE
1002
{
1070
   272
1070
     3
1070
    47
1040
0.025
1070
   147
1040
1.0
1070
    48
1040
0.025
1070
    72
1070
     0
1070
    71
1070
     1
1070
    40
1040
1.0
1002
}
1001
GENIUS_GENDTOL_13
1000
TolAcTol
1000

1000

1040
38.1
  0
LINE
  5
3BEB
330
1F
100
AcDbEntity
  8
SPEC
 62
     1
100
AcDbLine
 10
1216.025546509486
 20
703.2321589455392
 30
0.0
 11
1197.025787890762
 21
703.2330446885204
 31
0.0
  0
LINE
  5
3BEC
330
1F
100
AcDbEntity
  8
SPEC
 62
     1
100
AcDbLine
 10
1197.025481971506
 20
696.8830447031584
 30
0.0
 11
1197.025787890762
 21
703.2330446885204
 31
0.0
  0
DIMENSION
  5
3BED
330
1F
100
AcDbEntity
  8
DATA
 62
     3
100
AcDbDimension
  2
*D10
 10
1197.025787892154
 20
742.2011612208765
 30
0.0
 11
1207.543058168996
 21
742.2011612208765
 31
0.0
 70
   160
  1
<>
 71
     5
 42
20.59984622565048
  3
STANDARD
100
AcDbAlignedDimension
 13
1217.625634117805
 23
728.3329403909386
 33
0.0
 14
1197.025787892154
 24
703.2330735942768
 34
0.0
100
AcDbRotatedDimension
1001
ACAD
1000
DSTYLE
1002
{
1070
   284
1070
     8
1070
   146
1040
0.8
1070
    47
1040
0.5
1070
   147
1040
1.0
1070
    48
1040
0.5
1070
    72
1070
     0
1070
    71
1070
     1
1070
    78
1070
     8
1070
    40
1040
1.0
1002
}
1001
GENIUS_GENDTOL_13
1000
TolAcTol
1000

1000

1040
20.6
  0
TEXT
  5
3BEE
330
1F
100
AcDbEntity
  8
DATA
100
AcDbText
 10
1237.314511749122
 20
634.8591382930853
 30
0.0
 40
3.0
  1
L=300+10mm
100
AcDbText
  0
TEXT
  5
3BEF
330
1F
100
AcDbEntity
  8
DATA
100
AcDbText
 10
1237.314511749122
 20
639.4974383368356
 30
0.0
 40
3.0
  1
UL3266 AWG 22
100
AcDbText
  0
DIMENSION
  5
3BF0
330
1F
100
AcDbEntity
  8
DATA
 62
     3
100
AcDbDimension
  2
*D11
 10
1217.625634117805
 20
735.1634005090661
 30
0.0
 11
1206.436957446586
 21
735.1634005090661
 31
0.0
 70
   160
  1
<>
 71
     5
 42
1.600000000004911
  3
STANDARD
100
AcDbAlignedDimension
 13
1216.0256341178
 23
719.101540900662
 33
0.0
 14
1217.625634117805
 24
728.3329403909386
 34
0.0
100
AcDbRotatedDimension
1001
ACAD
1000
DSTYLE
1002
{
1070
   173
1070
     1
1070
   344
1005
2F89
1002
}
  0
DIMENSION
  5
3BF1
330
1F
100
AcDbEntity
  8
DATA
 62
     3
100
AcDbDimension
  2
*D12
 10
1222.625634112805
 20
735.1425457152457
 30
0.0
 11
1230.620177086884
 21
735.1425457152457
 31
0.0
 70
   160
  1
<>
 71
     5
 42
4.999999995000052
  3
STANDARD
100
AcDbAlignedDimension
 13
1217.625634117805
 23
728.3329403909386
 33
0.0
 14
1222.625634112805
 24
728.3329403909386
 34
0.0
100
AcDbRotatedDimension
1001
ACAD
1000
DSTYLE
1002
{
1070
   343
1005
2F89
1070
   173
1070
     1
1070
   344
1005
0
1070
    40
1040
1.0
1002
}
  0
TOLERANCE
  5
3BF3
330
1F
100
AcDbEntity
  8
DIM
100
AcDbFcf
  3
STANDARD
 10
1204.769128537724
 20
675.2237299186092
 30
0.0
  1
%%v%%v%%vA%%v%%v
1001
ACAD
1000
DSTYLE
1002
{
1070
    41
1040
2.5
1070
   140
1040
3.0
1070
   147
1040
1.5
1002
}
  0
LEADER
  5
3BF4
330
1F
100
AcDbEntity
  8
DIM
100
AcDbLeader
  3
STANDARD
 76
     2
 10
1207.64036747194
 20
696.8848538583651
 30
0.0
 10
1207.64036747194
 20
678.2237299186093
 30
0.0
1001
ACAD
1000
DSTYLE
1002
{
1070
   341
1005
2FB
1070
    40
1040
1.0
1070
    77
1070
     0
1002
}
  0
TOLERANCE
  5
3BF5
330
1F
100
AcDbEntity
  8
DIM
100
AcDbFcf
  3
STANDARD
 10
1177.873907181456
 20
648.9884473818831
 30
0.0
  1
{\Fgdt;r}%%v0.08%%v%%vA%%v%%v
 11
0.0000000000000001
 21
1.0
 31
0.0
1001
ACAD
1000
DSTYLE
1002
{
1070
    41
1040
2.5
1070
   140
1040
3.0
1070
   147
1040
1.5
1002
}
  0
TOLERANCE
  5
3BF6
330
1F
100
AcDbEntity
  8
DIM
100
AcDbFcf
  3
STANDARD
 10
1190.581205205985
 20
648.9884473818831
 30
0.0
  1
{\Fgdt;h}%%v0.05%%v%%v%%v%%v
 11
0.0000000000000001
 21
1.0
 31
0.0
1001
ACAD
1000
DSTYLE
1002
{
1070
    41
1040
2.5
1070
   140
1040
3.0
1070
   147
1040
1.5
1002
}
  0
LINE
  5
3C05
330
1F
100
AcDbEntity
  8
DIM
100
AcDbLine
 10
1217.625634117805
 20
662.3846167516586
 30
0.0
 11
1217.625634117805
 21
670.9329403909385
 31
0.0
  0
LEADER
  5
3C06
330
1F
100
AcDbEntity
  8
DIM
100
AcDbLeader
  3
STANDARD
 76
     2
 10
1217.625634117805
 20
663.8414085677448
 30
0.0
 10
1223.627635261391
 20
663.8414085677448
 30
0.0
211
-1.0
221
-0.0000000000000058
231
0.0
210
0.0
220
0.0
230
-1.0
1001
ACAD
1000
DSTYLE
1002
{
1070
    40
1040
1.0
1070
    77
1070
     0
1002
}
  0
TOLERANCE
  5
3C07
330
1F
100
AcDbEntity
  8
DIM
100
AcDbFcf
  3
STANDARD
 10
1223.627635261391
 20
664.37892803472
 30
0.0
  1
{\Fgdt;b}%%v0.1%%v%%vA%%v%%v
1001
ACAD
1000
DSTYLE
1002
{
1070
    41
1040
2.5
1070
   140
1040
3.0
1070
   147
1040
1.5
1002
}
  0
TEXT
  5
3C0A
330
1F
100
AcDbEntity
  8
DIM
100
AcDbText
 10
1092.49894422124
 20
757.0
 30
0.0
 40
4.5
  1
Front view and mounting
100
AcDbText
  0
TEXT
  5
3C0B
330
1F
100
AcDbEntity
  8
DIM
100
AcDbText
 10
1260.700747720383
 20
756.9653937580923
 30
0.0
 40
4.5
  1
Side view
100
AcDbText
  0
DIMENSION
  5
3C0C
330
1F
100
AcDbEntity
  8
DIM
100
AcDbDimension
  2
*D13
 10
1187.581205205985
 20
703.2330735942768
 30
0.0
 11
1187.581205205985
 21
732.7561070923072
 31
0.0
 70
   160
  1
%%c<>
 71
     5
 42
6.350028891118427
  3
STANDARD
100
AcDbAlignedDimension
 13
1197.025481971506
 23
696.8830447031584
 33
0.0
 14
1197.025787892154
 24
703.2330735942768
 34
0.0
 50
90.0
100
AcDbRotatedDimension
1001
ACAD
1000
DSTYLE
1002
{
1070
   146
1040
0.8
1070
   284
1070
     8
1070
   272
1070
     3
1070
    48
1040
0.013
1070
   147
1040
1.0
1070
    72
1070
     0
1070
    71
1070
     1
1070
    78
1070
     8
1070
   271
1070
     2
1070
   144
1040
1.0
1070
    40
1040
1.0
1002
}
1001
GENIUS_GENDTOL_13
1000
TolAcTol
1000

1000

1040
6.349999999999999
  0
LEADER
  5
3C0D
330
1F
100
AcDbEntity
  8
DIM
100
AcDbLeader
  3
STANDARD
 76
     3
 10
1285.405434731439
 20
646.6545631484279
 30
0.0
 10
1272.157731052978
 20
633.3399661034849
 30
0.0
 10
1236.8603020082
 20
633.3399661034849
 30
0.0
211
-1.0
221
0.0
231
0.0
210
0.0
220
0.0
230
-1.0
1001
ACAD
1000
DSTYLE
1002
{
1070
    40
1040
1.0
1070
    77
1070
     0
1002
}
  0
LINE
  5
3C0E
330
1F
100
AcDbEntity
  8
DIM
100
AcDbLine
 10
1174.873907181456
 20
681.0139349529483
 30
0.0
 11
1174.873907181456
 21
673.1112304651028
 31
0.0
  0
LINE
  5
3C0F
330
1F
100
AcDbEntity
  8
DIM
100
AcDbLine
 10
1187.581205205985
 20
695.1095515044506
 30
0.0
 11
1187.581205205985
 21
667.2678763430992
 31
0.0
  0
LINE
  5
3C10
330
1F
100
AcDbEntity
  8
SPEC
  6
ACISOTGL
100
AcDbLine
 10
1293.625544224458
 20
703.1987919646885
 30
0.0
 11
1307.125544224458
 21
703.1987919646885
 31
0.0
  0
LINE
  5
3C11
330
1F
100
AcDbEntity
  8
SPEC
  6
ACISOTGL
100
AcDbLine
 10
1293.625544224458
 20
696.8487919645886
 30
0.0
 11
1307.125544224458
 21
696.8487919645886
 31
0.0
  0
LINE
  5
3C12
330
1F
100
AcDbEntity
  8
SPEC
  6
ACISOTGL
100
AcDbLine
 10
1307.125544224458
 20
696.8487919645886
 30
0.0
 11
1307.125544224458
 21
703.1987919646885
 31
0.0
  0
LEADER
  5
3C13
330
1F
100
AcDbEntity
  8
SPEC
  6
ACISOTGL
100
AcDbLeader
  3
STANDARD
 73
     0
 40
15.90552523874488
 41
28.50613915416098
 76
     3
 10
1299.746622515177
 20
699.640471965532
 30
0.0
 10
1306.253187892677
 20
660.4753691266735
 30
0.0
 10
1310.401489870009
 20
660.4753691266735
 30
0.0
213
-0.6081603737004287
223
-2.326072191169657
233
0.0
1001
ACAD
1000
DSTYLE
1002
{
1070
    40
1040
1.0
1070
    77
1070
     0
1002
}
  0
MTEXT
  5
3C14
102
{ACAD_REACTORS
330
3C13
102
}
330
1F
100
AcDbEntity
  8
SPEC
  6
HIDDEN
 62
     6
100
AcDbMText
 10
1312.509650243709
 20
662.801441317843
 30
0.0
 40
3.0
 41
52.5
 71
     1
 72
     1
  1
(only for type \PSH5618L1608-B \PReady for encoder +\Pdriver mount)
 73
     1
 44
1.0
1001
ACAD
1000
ACAD_MTEXT_DEFINED_HEIGHT_BEGIN
1070
    46
1040
0.0
1000
ACAD_MTEXT_DEFINED_HEIGHT_END
1000
MTEXTBEGIN
1070
    73
1070
     1
1070
    44
1040
1.0
1070
    74
1070
     0
1000
MTEXTEND
  0
LEADER
  5
3C15
330
1F
100
AcDbEntity
  8
DIM
  6
ACISOTGL
100
AcDbLeader
  3
STANDARD
 76
     3
 10
1374.962605708999
 20
700.105191454915
 30
0.0
 10
1357.228736502677
 20
650.9722510639772
 30
0.0
 10
1350.375539307214
 20
650.9722510639772
 30
0.0
1001
ACAD
1000
DSTYLE
1002
{
1070
    40
1040
1.0
1070
    77
1070
     0
1002
}
  0
DIMENSION
  5
3C16
330
1F
100
AcDbEntity
  8
DIM
  6
ACISOTGL
100
AcDbDimension
  2
*D14
 10
1307.125544224458
 20
742.2652632175304
 30
0.0
 11
1299.990294979228
 21
742.2652632175304
 31
0.0
 70
   160
  1
<>
 71
     5
 42
13.5
  3
STANDARD
100
AcDbAlignedDimension
 13
1293.625544224458
 23
728.305191454915
 33
0.0
 14
1307.125544224458
 24
703.1987919646885
 34
0.0
100
AcDbRotatedDimension
1001
ACAD
1000
DSTYLE
1002
{
1070
    40
1040
1.0
1002
}
  0
DIMENSION
  5
3C17
330
1F
100
AcDbEntity
  8
DIM
  6
ACISOTGL
100
AcDbDimension
  2
*D15
 10
1320.330749512116
 20
703.1987919646885
 30
0.0
 11
1320.330749512116
 21
741.8277594979853
 31
0.0
 70
   160
  1
%%c<>
 71
     5
 42
6.350000000099953
  3
STANDARD
100
AcDbAlignedDimension
 13
1307.125544224458
 23
696.8487919645886
 33
0.0
 14
1307.125544224458
 24
703.1987919646885
 34
0.0
 50
90.0
100
AcDbRotatedDimension
1001
ACAD
1000
DSTYLE
1002
{
1070
   271
1070
     2
1070
   146
1040
0.8
1070
   284
1070
     8
1070
   272
1070
     3
1070
    48
1040
0.013
1070
   147
1040
1.0
1070
    72
1070
     0
1070
    71
1070
     1
1070
   144
1040
1.0
1070
    40
1040
1.0
1002
}
1001
GENIUS_GENDTOL_13
1000
TolAcTol
1000

1000

1040
6.349999999999999
  0
ARC
  5
3C23
102
{ACAD_REACTORS
330
4CA5
102
}
330
1F
100
AcDbEntity
  8
SPEC
100
AcDbCircle
 10
1098.543556788749
 20
725.8049207843392
 30
0.0
 40
2.5
100
AcDbArc
 50
90.0
 51
180.0
  0
ARC
  5
3C24
330
1F
100
AcDbEntity
  8
SPEC
100
AcDbCircle
 10
1098.543556788749
 20
674.404920784339
 30
0.0
 40
2.5
100
AcDbArc
 50
180.0
 51
270.0
  0
ARC
  5
3C25
330
1F
100
AcDbEntity
  8
SPEC
100
AcDbCircle
 10
1149.943556788749
 20
674.404920784339
 30
0.0
 40
2.5
100
AcDbArc
 50
270.0
 51
0.0
  0
ARC
  5
3C26
102
{ACAD_REACTORS
330
4CA5
102
}
330
1F
100
AcDbEntity
  8
SPEC
100
AcDbCircle
 10
1149.943556788749
 20
725.8049207843392
 30
0.0
 40
2.5
100
AcDbArc
 50
0.0
 51
90.0
  0
LINE
  5
3C29
102
{ACAD_REACTORS
330
4CFC
102
}
330
1F
100
AcDbEntity
  8
CENTER
  6
AM_ISO08W050x2
100
AcDbLine
 10
1100.673556789249
 20
720.6749207843383
 30
0.0
 11
1100.673556789249
 21
726.6749207843384
 31
0.0
  0
LINE
  5
3C2A
330
1F
100
AcDbEntity
  8
CENTER
  6
AM_ISO08W050x2
100
AcDbLine
 10
1096.043556788749
 20
723.6749207843383
 30
0.0
 11
1103.673556789249
 21
723.6749207843383
 31
0.0
  0
LINE
  5
3C2C
330
1F
100
AcDbEntity
  8
CENTER
  6
AM_ISO08W050x2
100
AcDbLine
 10
1103.678556788749
 20
676.5349207848392
 30
0.0
 11
1097.678556788749
 21
676.5349207848392
 31
0.0
  0
LINE
  5
3C2D
330
1F
100
AcDbEntity
  8
CENTER
  6
AM_ISO08W050x2
100
AcDbLine
 10
1100.678556788749
 20
673.5349207848392
 30
0.0
 11
1100.678556788749
 21
679.5349207848391
 31
0.0
  0
LINE
  5
3C30
330
1F
100
AcDbEntity
  8
CENTER
  6
AM_ISO08W050x2
100
AcDbLine
 10
1147.813556788249
 20
720.6749207843383
 30
0.0
 11
1147.813556788249
 21
726.6749207843384
 31
0.0
  0
LINE
  5
3C31
330
1F
100
AcDbEntity
  8
CENTER
  6
AM_ISO08W050x2
100
AcDbLine
 10
1152.443556788749
 20
723.6749207843383
 30
0.0
 11
1144.51776084911
 21
723.6749207843383
 31
0.0
  0
LINE
  5
3C33
330
1F
100
AcDbEntity
  8
CENTER
  6
AM_ISO08W050x2
100
AcDbLine
 10
1152.443556788749
 20
676.5349207843396
 30
0.0
 11
1144.813556788249
 21
676.5349207843396
 31
0.0
  0
LINE
  5
3C34
330
1F
100
AcDbEntity
  8
CENTER
  6
AM_ISO08W050x2
100
AcDbLine
 10
1147.813556788249
 20
679.5349207843396
 30
0.0
 11
1147.813556788249
 21
673.5349207843395
 31
0.0
  0
LINE
  5
3C68
330
1F
100
AcDbEntity
  8
SPEC
 62
     1
100
AcDbLine
 10
1216.025773729942
 20
696.8821570129174
 30
0.0
 11
1197.025481971506
 21
696.8830447031584
 31
0.0
  0
CIRCLE
  5
3C69
330
1F
100
AcDbEntity
  8
SPEC
100
AcDbCircle
 10
1124.243556788749
 20
700.0235212940624
 30
0.0
 40
19.05
  0
LINE
  5
3C6A
330
1F
100
AcDbEntity
  8
CENTER
  6
AM_ISO08W050x2
100
AcDbLine
 10
1411.057605708499
 20
720.6751914549145
 30
0.0
 11
1411.057605708499
 21
726.6751914549145
 31
0.0
  0
LINE
  5
3C6D
330
1F
100
AcDbEntity
  8
CENTER
  6
AM_ISO08W050x2
100
AcDbLine
 10
1363.917605709499
 20
720.6751914549145
 30
0.0
 11
1363.917605709499
 21
726.6751914549145
 31
0.0
  0
LINE
  5
3C6E
330
1F
100
AcDbEntity
  8
CENTER
  6
AM_ISO08W050x2
100
AcDbLine
 10
1387.487605708999
 20
670.1051914549148
 30
0.0
 11
1387.487605708999
 21
730.1051914549148
 31
0.0
  0
ARC
  5
3C6F
330
1F
100
AcDbEntity
  8
SPEC
100
AcDbCircle
 10
1413.187605709
 20
674.4051914549149
 30
0.0
 40
2.5
100
AcDbArc
 50
270.0
 51
0.0
  0
ARC
  5
3C70
330
1F
100
AcDbEntity
  8
SPEC
100
AcDbCircle
 10
1361.787605708999
 20
674.4051914549154
 30
0.0
 40
2.5
100
AcDbArc
 50
180.0
 51
270.0
  0
LINE
  5
3C71
330
1F
100
AcDbEntity
  8
SPEC
100
AcDbLine
 10
1413.187605709
 20
671.9051914549147
 30
0.0
 11
1361.787605708999
 21
671.9051914549147
 31
0.0
  0
LINE
  5
3C72
330
1F
100
AcDbEntity
  8
CENTER
  6
AM_ISO08W050x2
100
AcDbLine
 10
1354.487605708999
 20
700.105191454915
 30
0.0
 11
1414.487605708999
 21
700.105191454915
 31
0.0
  0
LINE
  5
3C73
330
1F
100
AcDbEntity
  8
CENTER
  6
AM_ISO08W050x2
100
AcDbLine
 10
1366.922605708999
 20
676.5351914554155
 30
0.0
 11
1360.922605708999
 21
676.5351914554155
 31
0.0
  0
LINE
  5
3C75
330
1F
100
AcDbEntity
  8
CENTER
  6
AM_ISO08W050x2
100
AcDbLine
 10
1363.922605708999
 20
673.5351914554155
 30
0.0
 11
1363.922605708999
 21
679.5351914554155
 31
0.0
  0
LINE
  5
3C76
330
1F
100
AcDbEntity
  8
CENTER
  6
AM_ISO08W050x2
100
AcDbLine
 10
1415.687605708999
 20
676.5351914549155
 30
0.0
 11
1408.057605708499
 21
676.5351914549155
 31
0.0
  0
LINE
  5
3C78
330
1F
100
AcDbEntity
  8
CENTER
  6
AM_ISO08W050x2
100
AcDbLine
 10
1411.057605708499
 20
679.5351914549155
 30
0.0
 11
1411.057605708499
 21
673.5351914549153
 31
0.0
  0
LINE
  5
3C79
330
1F
100
AcDbEntity
  8
CENTER
  6
AM_ISO08W050x2
100
AcDbLine
 10
1359.287605708999
 20
723.6751914549145
 30
0.0
 11
1366.917605709499
 21
723.6751914549145
 31
0.0
  0
ARC
  5
3C7A
330
1F
100
AcDbEntity
  8
SPEC
100
AcDbCircle
 10
1361.787605708999
 20
725.8051914549151
 30
0.0
 40
2.5
100
AcDbArc
 50
90.0
 51
180.0
  0
LINE
  5
3C7B
330
1F
100
AcDbEntity
  8
CENTER
  6
AM_ISO08W050x2
100
AcDbLine
 10
1415.687605708999
 20
723.6751914549145
 30
0.0
 11
1407.76180976936
 21
723.6751914549145
 31
0.0
  0
ARC
  5
3C7C
330
1F
100
AcDbEntity
  8
SPEC
100
AcDbCircle
 10
1413.187605709
 20
725.8051914549151
 30
0.0
 40
2.5
100
AcDbArc
 50
0.0
 51
90.0
  0
CIRCLE
  5
3C7D
330
1F
100
AcDbEntity
  8
SPEC
  6
ACISOTGL
100
AcDbCircle
 10
1387.487605708999
 20
700.105191454915
 30
0.0
 40
3.175000000050019
  0
LWPOLYLINE
  5
3C84
330
1F
100
AcDbEntity
  8
SPEC
100
AcDbPolyline
 90
        2
 70
     0
 43
0.0
 10
1361.787605708999
 20
728.305191454915
 10
1413.187605709
 20
728.305191454915
  0
LINE
  5
3C88
330
1F
100
AcDbEntity
  8
SPEC
100
AcDbLine
 10
1359.287605708999
 20
674.4051914549145
 30
0.0
 11
1359.287605708999
 21
725.8051914549151
 31
0.0
  0
LINE
  5
3C89
330
1F
100
AcDbEntity
  8
SPEC
100
AcDbLine
 10
1415.687605708999
 20
725.8051914549151
 30
0.0
 11
1415.687605708999
 21
674.4051914549136
 31
0.0
  0
CIRCLE
  5
3C8A
330
1F
100
AcDbEntity
  8
CENTER
  6
AM_ISO08W050x2
100
AcDbCircle
 10
1387.487605708999
 20
700.1051914549143
 30
0.0
 40
9.524999999999998
  0
CIRCLE
  5
3C8B
330
1F
100
AcDbEntity
  8
AM_5
  6
ACISOTGL
100
AcDbCircle
 10
1377.962605708999
 20
700.1051914549143
 30
0.0
 40
1.249999499999999
  0
CIRCLE
  5
3C8C
330
1F
100
AcDbEntity
  8
AM_5
  6
ACISOTGL
100
AcDbCircle
 10
1397.012605708999
 20
700.1051914549143
 30
0.0
 40
1.249999499999999
  0
CIRCLE
  5
3C8D
330
1F
100
AcDbEntity
  8
SPEC
  6
ACISOTGL
100
AcDbCircle
 10
1377.962605708999
 20
700.1051914549143
 30
0.0
 40
0.75
  0
CIRCLE
  5
3C8E
330
1F
100
AcDbEntity
  8
SPEC
  6
ACISOTGL
100
AcDbCircle
 10
1397.012605708999
 20
700.105191454915
 30
0.0
 40
0.75
  0
DIMENSION
  5
3C90
330
1F
100
AcDbEntity
  8
DIM
  6
ACISOTGL
100
AcDbDimension
  2
*D8
 10
1397.012605708999
 20
735.120762834163
 30
0.0
 11
1387.068707330521
 21
735.120762834163
 31
0.0
 70
   160
 71
     5
 42
19.05000000000018
  3
STANDARD
100
AcDbAlignedDimension
 13
1377.962605708999
 23
700.1051914549143
 33
0.0
 14
1397.012605708999
 24
700.105191454915
 34
0.0
100
AcDbRotatedDimension
1001
ACAD
1000
DSTYLE
1002
{
1070
    40
1040
1.0
1002
}
  0
LINE
  5
3C96
330
1F
100
AcDbEntity
  8
SPEC
100
AcDbLine
 10
1276.625544224458
 20
728.305191454915
 30
0.0
 11
1276.625544224458
 21
671.9051914549149
 31
0.0
  0
LINE
  5
3CA0
330
1F
100
AcDbEntity
  8
SPEC
100
AcDbLine
 10
1282.225544224458
 20
671.9051914549149
 30
0.0
 11
1282.225544224458
 21
671.0051914549149
 31
0.0
  0
LINE
  5
3CA1
330
1F
100
AcDbEntity
  8
SPEC
100
AcDbLine
 10
1282.225544224458
 20
671.0051914549149
 30
0.0
 11
1292.357525999217
 21
671.0051914549149
 31
0.0
  0
LINE
  5
3CA2
330
1F
100
AcDbEntity
  8
SPEC
100
AcDbLine
 10
1292.357525999217
 20
671.0051914549149
 30
0.0
 11
1292.357525999217
 21
671.9051914549149
 31
0.0
  0
LINE
  5
3CA3
330
1F
100
AcDbEntity
  8
DIM
100
AcDbLine
 10
1387.487605708999
 20
671.0051914549146
 30
0.0
 11
1387.487605708999
 21
658.9085133333947
 31
0.0
  0
LINE
  5
3CA4
330
1F
100
AcDbEntity
  8
DIM
100
AcDbLine
 10
1389.219843221927
 20
671.0051914549146
 30
0.0
 11
1389.219843221927
 21
658.9085133333947
 31
0.0
  0
LINE
  5
3CA5
330
1F
100
AcDbEntity
  8
DIM
100
AcDbLine
 10
1390.952080734854
 20
671.0051914549146
 30
0.0
 11
1390.952080734854
 21
658.9085133333947
 31
0.0
  0
LINE
  5
3CA6
330
1F
100
AcDbEntity
  8
SPEC
100
AcDbLine
 10
1382.42161482162
 20
671.0051914549146
 30
0.0
 11
1392.553596596379
 21
671.0051914549146
 31
0.0
  0
LINE
  5
3CA7
330
1F
100
AcDbEntity
  8
SPEC
100
AcDbLine
 10
1382.42161482162
 20
671.9051914549145
 30
0.0
 11
1382.42161482162
 21
671.0051914549146
 31
0.0
  0
LINE
  5
3CA8
330
1F
100
AcDbEntity
  8
SPEC
100
AcDbLine
 10
1392.553596596379
 20
671.0051914549146
 30
0.0
 11
1392.553596596379
 21
671.9051914549145
 31
0.0
  0
LINE
  5
3CA9
330
1F
100
AcDbEntity
  8
DIM
100
AcDbLine
 10
1120.779081762893
 20
670.7626965829067
 30
0.0
 11
1120.779081762893
 21
658.6660184613868
 31
0.0
  0
LINE
  5
3CAA
330
1F
100
AcDbEntity
  8
DIM
100
AcDbLine
 10
1122.511319275821
 20
670.7626965829067
 30
0.0
 11
1122.511319275821
 21
658.6660184613868
 31
0.0
  0
LINE
  5
3CAB
330
1F
100
AcDbEntity
  8
DIM
100
AcDbLine
 10
1124.243556788749
 20
670.7626965829067
 30
0.0
 11
1124.243556788749
 21
658.6660184613868
 31
0.0
  0
LINE
  5
3CAC
330
1F
100
AcDbEntity
  8
DIM
100
AcDbLine
 10
1125.975794301677
 20
670.7626965829067
 30
0.0
 11
1125.975794301677
 21
658.6660184613868
 31
0.0
  0
LINE
  5
3CAD
330
1F
100
AcDbEntity
  8
DIM
100
AcDbLine
 10
1127.708031814604
 20
670.7626965829067
 30
0.0
 11
1127.708031814604
 21
658.6660184613868
 31
0.0
  0
LINE
  5
3CAE
330
1F
100
AcDbEntity
  8
SPEC
100
AcDbLine
 10
1119.177565901369
 20
670.7626965829067
 30
0.0
 11
1129.309547676129
 21
670.7626965829067
 31
0.0
  0
LINE
  5
3CAF
330
1F
100
AcDbEntity
  8
SPEC
100
AcDbLine
 10
1119.177565901369
 20
671.6626965829066
 30
0.0
 11
1119.177565901369
 21
670.7626965829067
 31
0.0
  0
LINE
  5
3CB0
330
1F
100
AcDbEntity
  8
SPEC
100
AcDbLine
 10
1129.309547676129
 20
670.7626965829067
 30
0.0
 11
1129.309547676129
 21
671.6626965829066
 31
0.0
  0
LINE
  5
3CB1
330
1F
100
AcDbEntity
  8
DIM
100
AcDbLine
 10
1283.828161609799
 20
671.0051914549149
 30
0.0
 11
1283.828161609799
 21
626.87286916135
 31
0.0
  0
LINE
  5
3CB2
330
1F
100
AcDbEntity
  8
DIM
100
AcDbLine
 10
1285.560399122727
 20
671.0051914549149
 30
0.0
 11
1285.560399122727
 21
626.87286916135
 31
0.0
  0
LINE
  5
3CB3
330
1F
100
AcDbEntity
  8
DIM
100
AcDbLine
 10
1287.292636635655
 20
671.0051914549149
 30
0.0
 11
1287.292636635655
 21
626.87286916135
 31
0.0
  0
LINE
  5
3CB4
330
1F
100
AcDbEntity
  8
DIM
100
AcDbLine
 10
1289.024874148582
 20
671.0051914549149
 30
0.0
 11
1289.024874148582
 21
626.87286916135
 31
0.0
  0
LINE
  5
3CB5
330
1F
100
AcDbEntity
  8
DIM
100
AcDbLine
 10
1290.75711166151
 20
671.0051914549149
 30
0.0
 11
1290.75711166151
 21
626.87286916135
 31
0.0
  0
TEXT
  5
3CB7
330
1F
100
AcDbEntity
  8
DIM
100
AcDbText
 10
1375.518592931155
 20
756.9722510639764
 30
0.0
 40
4.5
  1
Rear view
100
AcDbText
  0
DIMENSION
  5
4C97
102
{ACAD_XDICTIONARY
360
4CA4
102
}
102
{ACAD_REACTORS
330
4CA5
102
}
330
1F
100
AcDbEntity
  8
AM_5
100
AcDbDimension
  2
*D16
 10
1152.443556788749
 20
742.2788889703967
 30
0.0
 11
1122.87073692749
 21
742.2788889703967
 31
0.0
 70
   160
  1
{\Famgdt;o} <>
 71
     5
 42
56.39999999999986
  3
STANDARD$0
100
AcDbAlignedDimension
 13
1096.043556788749
 23
725.8049207843392
 33
0.0
 14
1152.443556788749
 24
725.8049207843392
 34
0.0
100
AcDbRotatedDimension
  0
DIMENSION
  5
4CEE
102
{ACAD_XDICTIONARY
360
4CFB
102
}
102
{ACAD_REACTORS
330
4CFC
102
}
330
1F
100
AcDbEntity
  8
AM_5
100
AcDbDimension
  2
*D17
 10
1147.813556788249
 20
735.1863099840504
 30
0.0
 11
1124.243556788749
 21
737.7129129854147
 31
0.0
 70
    32
  1
{\Famgdt;o} <>{}{\H0.71x;\C3
 71
     5
 42
47.13999999899988
  3
STANDARD$0
100
AcDbAlignedDimension
 13
1100.673556789249
 23
726.6749207843384
 33
0.0
 14
1147.813556788249
 24
725.9249207843383
 34
0.0
100
AcDbRotatedDimension
1001
ACAD
1000
DSTYLE
1002
{
1070
   271
1070
     1
1070
   147
1040
1.0
1070
    72
1070
     0
1070
    71
1070
     1
1070
   286
1070
     0
1070
   284
1070
     8
1070
   274
1070
     2
1070
   272
1070
     2
1070
    47
1040
0.2
1070
    48
1040
0.2
1002
}
1001
GENIUS_GENDTOL_13
1000
TolSmNrm
1000

1000
{\H0.71x;$2\S$+$P^ $-$M;}
1040
47.09999999999999
  0
DIMENSION
  5
4EBE
102
{ACAD_XDICTIONARY
360
4ECB
102
}
102
{ACAD_REACTORS
330
4ECC
102
}
330
1F
100
AcDbEntity
  8
AM_5
100
AcDbDimension
  2
*D18
 10
1293.625544224458
 20
742.2155225641217
 30
0.0
 11
1252.399139405373
 21
742.2155225641217
 31
0.0
 70
   160
  1
<>
 71
     5
 42
75.99991010665303
  3
STANDARD$0
100
AcDbAlignedDimension
 13
1217.625634117805
 23
728.3329403909386
 33
0.0
 14
1293.625544224458
 24
728.305191454915
 34
0.0
 50
0.0000000000000114
100
AcDbRotatedDimension
1001
GENIUS_GENDTOL_13
1000
TolAcTol
1000

1000

1040
42.0
1001
ACAD
1000
DSTYLE
1002
{
1070
   147
1040
1.0
1070
    72
1070
     0
1070
    71
1070
     1
1070
   286
1070
     0
1070
   284
1070
     8
1070
   274
1070
     2
1070
    47
1040
0.75
1070
    48
1040
0.75
1070
   272
1070
     2
1002
}
  0
TEXT
  5
4F23
330
1F
100
AcDbEntity
  8
DATA
100
AcDbText
 10
1414.139878388242
 20
735.5123885836956
 30
0.0
 40
3.0
  1
2-M2.5 
100
AcDbText
  0
LEADER
  5
4F57
330
1F
100
AcDbEntity
  8
DIM
  6
ACISOWELD
100
AcDbLeader
  3
STANDARD
 76
     3
 10
1397.012605708999
 20
700.105191454915
 30
0.0
 10
1413.303055867485
 20
734.7107989452538
 30
0.0
 10
1427.492067606154
 20
734.7194818430612
 30
0.0
1001
ACAD
1000
DSTYLE
1002
{
1070
    40
1040
1.0
1070
    77
1070
     0
1002
}
  0
CIRCLE
  5
5C9B
330
1F
100
AcDbEntity
  8
SPEC
100
AcDbCircle
 10
1124.243556788749
 20
700.051540900662
 30
0.0
 40
3.180618046083738
  0
CIRCLE
  5
5D3B
330
1F
100
AcDbEntity
  8
SPEC
100
AcDbCircle
 10
1100.678556788749
 20
676.5349207848392
 30
0.0
 40
2.5
  0
CIRCLE
  5
5D3C
330
1F
100
AcDbEntity
  8
SPEC
100
AcDbCircle
 10
1100.673556789249
 20
723.6749207843383
 30
0.0
 40
0.0
  0
CIRCLE
  5
5D3D
330
1F
100
AcDbEntity
  8
SPEC
100
AcDbCircle
 10
1100.673556789249
 20
723.6749207843383
 30
0.0
 40
0.0
  0
CIRCLE
  5
5D3E
330
1F
100
AcDbEntity
  8
SPEC
100
AcDbCircle
 10
1100.673556789249
 20
723.6749207843383
 30
0.0
 40
2.5
  0
CIRCLE
  5
5D3F
330
1F
100
AcDbEntity
  8
SPEC
100
AcDbCircle
 10
1147.813556788249
 20
723.6749207843419
 30
0.0
 40
2.5
  0
CIRCLE
  5
5D40
330
1F
100
AcDbEntity
  8
SPEC
100
AcDbCircle
 10
1147.813556788249
 20
676.5349207843396
 30
0.0
 40
2.5
  0
INSERT
  5
5DC7
330
1F
100
AcDbEntity
  8
AM_5
100
AcDbBlockReference
  2
*S23
 10
0.0
 20
0.0
 30
0.0
  0
TEXT
  5
5DCA
330
1F
100
AcDbEntity
  8
DATA
100
AcDbText
 10
1093.861447957988
 20
663.636512060302
 30
0.0
 40
3.0
  1
4-%%C5
100
AcDbText
  0
CIRCLE
  5
5DCE
330
1F
100
AcDbEntity
  8
SPEC
100
AcDbCircle
 10
1106.793638433982
 20
717.5015409006621
 30
0.0
 40
3.2
  0
LINE
  5
5DDB
330
1F
100
AcDbEntity
  8
CENTER
  6
AM_ISO08W050x2
100
AcDbLine
 10
1100.793638433982
 20
717.5015409006621
 30
0.0
 11
1112.793638433982
 21
717.5015409006621
 31
0.0
1001
GENIUS_GENOREF_13
1005
5DDF
  0
LINE
  5
5DDE
330
1F
100
AcDbEntity
  8
CENTER
  6
AM_ISO08W050x2
100
AcDbLine
 10
1106.793638433982
 20
723.5015409006621
 30
0.0
 11
1106.793638433982
 21
711.5015409006621
 31
0.0
1001
GENIUS_GENOREF_13
1005
5DDF
  0
POINT
  5
5DDF
330
1F
100
AcDbEntity
  8
0
 60
     1
100
AcDbPoint
 10
0.0
 20
0.0
 30
0.0
1001
GENIUS_GENOLIS_13
1002
{
1000
ENT
1005
5DDE
1005
5DDD
1005
5DDC
1005
5DDB
1002
}
1001
GENIUS_GENOENT_13
1002
{
1000
MYREF
1005
5DDF
1002
}
1002
{
1000
GRP
1005
0
1002
}
1001
GENIUS_GENOBJ-N-CRS_13
1002
{
1000
OWNER
1000
GEN
1002
}
1001
GENIUS_GENODEF_13
1002
{
1000
HIER
1070
    10
1002
}
1002
{
1000
MANEDIT
1070
     1
1002
}
1002
{
1000
NOSEL
1070
     0
1002
}
1002
{
1000
BEHIND
1070
     0
1002
}
1002
{
1000
OTHER
1070
     0
1002
}
1002
{
1000
REACTOR
1002
}
  0
LINE
  5
5DF9
330
1F
100
AcDbEntity
  8
SPEC
  6
Continuous
 62
     1
100
AcDbLine
 10
1107.971106506936
 20
719.274363314193
 30
0.0
 11
1106.795046508491
 21
718.0983033156987
 31
0.0
  0
LINE
  5
5DFA
330
1F
100
AcDbEntity
  8
SPEC
  6
Continuous
 62
     1
100
AcDbLine
 10
1106.795046508491
 20
718.0983033156987
 30
0.0
 11
1105.618986509997
 21
719.2743633141433
 31
0.0
  0
LINE
  5
5DFB
330
1F
100
AcDbEntity
  8
SPEC
  6
Continuous
 62
     1
100
AcDbLine
 10
1108.559136506183
 20
718.6863333149707
 30
0.0
 11
1107.383076507739
 21
717.5102733164765
 31
0.0
  0
LINE
  5
5DFC
330
1F
100
AcDbEntity
  8
SPEC
  6
Continuous
 62
     1
100
AcDbLine
 10
1106.207016509269
 20
717.5102733164514
 30
0.0
 11
1105.030956510775
 21
718.6863333148961
 31
0.0
  0
CIRCLE
  5
5DFD
330
1F
100
AcDbEntity
  8
SPEC
100
AcDbCircle
 10
1106.793638433982
 20
717.5015409006621
 30
0.0
 40
2.480974181479313
  0
LINE
  5
5DFE
330
1F
100
AcDbEntity
  8
SPEC
  6
Continuous
 62
     1
100
AcDbLine
 10
1105.618986509997
 20
719.2743633141433
 30
0.0
 11
1105.030956510775
 21
718.6863333148961
 31
0.0
  0
LINE
  5
5DFF
330
1F
100
AcDbEntity
  8
SPEC
  6
Continuous
 62
     1
100
AcDbLine
 10
1108.559136506183
 20
718.6863333149709
 30
0.0
 11
1107.971106506936
 21
719.274363314193
 31
0.0
  0
LINE
  5
5E00
330
1F
100
AcDbEntity
  8
SPEC
  6
Continuous
 62
     1
100
AcDbLine
 10
1106.207016509269
 20
717.5102733164514
 30
0.0
 11
1105.030956510825
 21
716.3342133179571
 31
0.0
  0
LINE
  5
5E01
330
1F
100
AcDbEntity
  8
SPEC
  6
Continuous
 62
     1
100
AcDbLine
 10
1106.795046508517
 20
716.9222433172294
 30
0.0
 11
1105.618986510072
 21
715.7461833187348
 31
0.0
  0
LINE
  5
5E02
330
1F
100
AcDbEntity
  8
SPEC
  6
Continuous
 62
     1
100
AcDbLine
 10
1105.618986510072
 20
715.7461833187348
 30
0.0
 11
1105.030956510825
 21
716.3342133179571
 31
0.0
  0
LINE
  5
5E03
330
1F
100
AcDbEntity
  8
SPEC
  6
Continuous
 62
     1
100
AcDbLine
 10
1107.971106507011
 20
715.7461833187849
 30
0.0
 11
1106.795046508517
 21
716.9222433172294
 31
0.0
  0
LINE
  5
5E04
330
1F
100
AcDbEntity
  8
SPEC
  6
Continuous
 62
     1
100
AcDbLine
 10
1108.559136506233
 20
716.334213318032
 30
0.0
 11
1107.383076507739
 21
717.5102733164765
 31
0.0
  0
LINE
  5
5E05
330
1F
100
AcDbEntity
  8
SPEC
  6
Continuous
 62
     1
100
AcDbLine
 10
1108.559136506233
 20
716.334213318032
 30
0.0
 11
1107.971106507011
 21
715.7461833187849
 31
0.0
  0
CIRCLE
  5
5E06
330
1F
100
AcDbEntity
  8
SPEC
100
AcDbCircle
 10
1141.693475143516
 20
717.5015409006621
 30
0.0
 40
3.2
  0
LINE
  5
5E07
330
1F
100
AcDbEntity
  8
CENTER
  6
AM_ISO08W050x2
100
AcDbLine
 10
1147.693475143515
 20
717.5015409006621
 30
0.0
 11
1135.693475143516
 21
717.5015409006621
 31
0.0
1001
GENIUS_GENOREF_13
1005
5E16
  0
LINE
  5
5E08
330
1F
100
AcDbEntity
  8
CENTER
  6
AM_ISO08W050x2
100
AcDbLine
 10
1141.693475143516
 20
723.5015409006621
 30
0.0
 11
1141.693475143516
 21
711.5015409006621
 31
0.0
1001
GENIUS_GENOREF_13
1005
5E16
  0
LINE
  5
5E09
330
1F
100
AcDbEntity
  8
SPEC
  6
Continuous
 62
     1
100
AcDbLine
 10
1140.516007070562
 20
719.274363314193
 30
0.0
 11
1141.692067069007
 21
718.0983033156987
 31
0.0
  0
LINE
  5
5E0A
330
1F
100
AcDbEntity
  8
SPEC
  6
Continuous
 62
     1
100
AcDbLine
 10
1141.692067069007
 20
718.0983033156987
 30
0.0
 11
1142.868127067501
 21
719.2743633141433
 31
0.0
  0
LINE
  5
5E0B
330
1F
100
AcDbEntity
  8
SPEC
  6
Continuous
 62
     1
100
AcDbLine
 10
1139.927977071314
 20
718.6863333149707
 30
0.0
 11
1141.104037069759
 21
717.5102733164765
 31
0.0
  0
LINE
  5
5E0C
330
1F
100
AcDbEntity
  8
SPEC
  6
Continuous
 62
     1
100
AcDbLine
 10
1142.280097068229
 20
717.5102733164514
 30
0.0
 11
1143.456157066723
 21
718.6863333148961
 31
0.0
  0
CIRCLE
  5
5E0D
330
1F
100
AcDbEntity
  8
SPEC
100
AcDbCircle
 10
1141.693475143516
 20
717.5015409006621
 30
0.0
 40
2.480974181479313
  0
LINE
  5
5E0E
330
1F
100
AcDbEntity
  8
SPEC
  6
Continuous
 62
     1
100
AcDbLine
 10
1142.868127067501
 20
719.2743633141433
 30
0.0
 11
1143.456157066723
 21
718.6863333148961
 31
0.0
  0
LINE
  5
5E0F
330
1F
100
AcDbEntity
  8
SPEC
  6
Continuous
 62
     1
100
AcDbLine
 10
1139.927977071314
 20
718.6863333149709
 30
0.0
 11
1140.516007070562
 21
719.274363314193
 31
0.0
  0
LINE
  5
5E10
330
1F
100
AcDbEntity
  8
SPEC
  6
Continuous
 62
     1
100
AcDbLine
 10
1142.280097068229
 20
717.5102733164514
 30
0.0
 11
1143.456157066673
 21
716.3342133179571
 31
0.0
  0
LINE
  5
5E11
330
1F
100
AcDbEntity
  8
SPEC
  6
Continuous
 62
     1
100
AcDbLine
 10
1141.692067068982
 20
716.9222433172294
 30
0.0
 11
1142.868127067426
 21
715.7461833187348
 31
0.0
  0
LINE
  5
5E12
330
1F
100
AcDbEntity
  8
SPEC
  6
Continuous
 62
     1
100
AcDbLine
 10
1142.868127067426
 20
715.7461833187348
 30
0.0
 11
1143.456157066673
 21
716.3342133179571
 31
0.0
  0
LINE
  5
5E13
330
1F
100
AcDbEntity
  8
SPEC
  6
Continuous
 62
     1
100
AcDbLine
 10
1140.516007070487
 20
715.7461833187849
 30
0.0
 11
1141.692067068982
 21
716.9222433172294
 31
0.0
  0
LINE
  5
5E14
330
1F
100
AcDbEntity
  8
SPEC
  6
Continuous
 62
     1
100
AcDbLine
 10
1139.927977071265
 20
716.334213318032
 30
0.0
 11
1141.104037069759
 21
717.5102733164765
 31
0.0
  0
LINE
  5
5E15
330
1F
100
AcDbEntity
  8
SPEC
  6
Continuous
 62
     1
100
AcDbLine
 10
1139.927977071265
 20
716.334213318032
 30
0.0
 11
1140.516007070487
 21
715.7461833187849
 31
0.0
  0
POINT
  5
5E16
330
1F
100
AcDbEntity
  8
0
 60
     1
100
AcDbPoint
 10
2248.487113577498
 20
0.0
 30
0.0
 50
180.0
1001
GENIUS_GENOLIS_13
1002
{
1000
ENT
1005
5E08
1005
5DDD
1005
5DDC
1005
5E07
1002
}
1001
GENIUS_GENOENT_13
1002
{
1000
MYREF
1005
5E16
1002
}
1002
{
1000
GRP
1005
0
1002
}
1001
GENIUS_GENOBJ-N-CRS_13
1002
{
1000
OWNER
1000
GEN
1002
}
1001
GENIUS_GENODEF_13
1002
{
1000
HIER
1070
    10
1002
}
1002
{
1000
MANEDIT
1070
     1
1002
}
1002
{
1000
NOSEL
1070
     0
1002
}
1002
{
1000
BEHIND
1070
     0
1002
}
1002
{
1000
OTHER
1070
     0
1002
}
1002
{
1000
REACTOR
1002
}
  0
CIRCLE
  5
5E17
330
1F
100
AcDbEntity
  8
SPEC
100
AcDbCircle
 10
1106.793638433982
 20
682.7083006680155
 30
0.0
 40
3.2
  0
LINE
  5
5E18
330
1F
100
AcDbEntity
  8
CENTER
  6
AM_ISO08W050x2
100
AcDbLine
 10
1100.793638433982
 20
682.7083006680155
 30
0.0
 11
1112.793638433982
 21
682.7083006680156
 31
0.0
1001
GENIUS_GENOREF_13
1005
5E38
  0
LINE
  5
5E19
330
1F
100
AcDbEntity
  8
CENTER
  6
AM_ISO08W050x2
100
AcDbLine
 10
1106.793638433983
 20
676.7083006680155
 30
0.0
 11
1106.793638433982
 21
688.7083006680155
 31
0.0
1001
GENIUS_GENOREF_13
1005
5E38
  0
LINE
  5
5E1A
330
1F
100
AcDbEntity
  8
SPEC
  6
Continuous
 62
     1
100
AcDbLine
 10
1107.971106506936
 20
680.9354782544846
 30
0.0
 11
1106.795046508491
 21
682.1115382529788
 31
0.0
  0
LINE
  5
5E1B
330
1F
100
AcDbEntity
  8
SPEC
  6
Continuous
 62
     1
100
AcDbLine
 10
1106.795046508491
 20
682.1115382529788
 30
0.0
 11
1105.618986509997
 21
680.9354782545343
 31
0.0
  0
LINE
  5
5E1C
330
1F
100
AcDbEntity
  8
SPEC
  6
Continuous
 62
     1
100
AcDbLine
 10
1108.559136506183
 20
681.523508253707
 30
0.0
 11
1107.383076507739
 21
682.6995682522013
 31
0.0
  0
LINE
  5
5E1D
330
1F
100
AcDbEntity
  8
SPEC
  6
Continuous
 62
     1
100
AcDbLine
 10
1106.207016509269
 20
682.6995682522261
 30
0.0
 11
1105.030956510775
 21
681.5235082537815
 31
0.0
  0
CIRCLE
  5
5E1E
330
1F
100
AcDbEntity
  8
SPEC
100
AcDbCircle
 10
1106.793638433982
 20
682.7083006680155
 30
0.0
 40
2.480974181479313
  0
LINE
  5
5E1F
330
1F
100
AcDbEntity
  8
SPEC
  6
Continuous
 62
     1
100
AcDbLine
 10
1105.618986509997
 20
680.9354782545343
 30
0.0
 11
1105.030956510775
 21
681.5235082537815
 31
0.0
  0
LINE
  5
5E20
330
1F
100
AcDbEntity
  8
SPEC
  6
Continuous
 62
     1
100
AcDbLine
 10
1108.559136506183
 20
681.5235082537068
 30
0.0
 11
1107.971106506936
 21
680.9354782544846
 31
0.0
  0
LINE
  5
5E21
330
1F
100
AcDbEntity
  8
SPEC
  6
Continuous
 62
     1
100
AcDbLine
 10
1106.207016509269
 20
682.6995682522261
 30
0.0
 11
1105.030956510825
 21
683.8756282507205
 31
0.0
  0
LINE
  5
5E22
330
1F
100
AcDbEntity
  8
SPEC
  6
Continuous
 62
     1
100
AcDbLine
 10
1106.795046508517
 20
683.2875982514483
 30
0.0
 11
1105.618986510072
 21
684.4636582499427
 31
0.0
  0
LINE
  5
5E23
330
1F
100
AcDbEntity
  8
SPEC
  6
Continuous
 62
     1
100
AcDbLine
 10
1105.618986510072
 20
684.4636582499427
 30
0.0
 11
1105.030956510825
 21
683.8756282507205
 31
0.0
  0
LINE
  5
5E24
330
1F
100
AcDbEntity
  8
SPEC
  6
Continuous
 62
     1
100
AcDbLine
 10
1107.971106507011
 20
684.4636582498928
 30
0.0
 11
1106.795046508517
 21
683.2875982514483
 31
0.0
  0
LINE
  5
5E25
330
1F
100
AcDbEntity
  8
SPEC
  6
Continuous
 62
     1
100
AcDbLine
 10
1108.559136506233
 20
683.8756282506458
 30
0.0
 11
1107.383076507739
 21
682.6995682522013
 31
0.0
  0
LINE
  5
5E26
330
1F
100
AcDbEntity
  8
SPEC
  6
Continuous
 62
     1
100
AcDbLine
 10
1108.559136506233
 20
683.8756282506458
 30
0.0
 11
1107.971106507011
 21
684.4636582498928
 31
0.0
  0
CIRCLE
  5
5E27
330
1F
100
AcDbEntity
  8
SPEC
100
AcDbCircle
 10
1141.693475143516
 20
682.7083006680159
 30
0.0
 40
3.2
  0
LINE
  5
5E28
330
1F
100
AcDbEntity
  8
CENTER
  6
AM_ISO08W050x2
100
AcDbLine
 10
1147.693475143515
 20
682.7083006680159
 30
0.0
 11
1135.693475143516
 21
682.7083006680159
 31
0.0
1001
GENIUS_GENOREF_13
1005
5E37
  0
LINE
  5
5E29
330
1F
100
AcDbEntity
  8
CENTER
  6
AM_ISO08W050x2
100
AcDbLine
 10
1141.693475143516
 20
676.7083006680159
 30
0.0
 11
1141.693475143516
 21
688.7083006680159
 31
0.0
1001
GENIUS_GENOREF_13
1005
5E37
  0
LINE
  5
5E2A
330
1F
100
AcDbEntity
  8
SPEC
  6
Continuous
 62
     1
100
AcDbLine
 10
1140.516007070562
 20
680.9354782544849
 30
0.0
 11
1141.692067069007
 21
682.1115382529792
 31
0.0
  0
LINE
  5
5E2B
330
1F
100
AcDbEntity
  8
SPEC
  6
Continuous
 62
     1
100
AcDbLine
 10
1141.692067069007
 20
682.1115382529792
 30
0.0
 11
1142.868127067501
 21
680.9354782545347
 31
0.0
  0
LINE
  5
5E2C
330
1F
100
AcDbEntity
  8
SPEC
  6
Continuous
 62
     1
100
AcDbLine
 10
1139.927977071314
 20
681.5235082537072
 30
0.0
 11
1141.104037069759
 21
682.6995682522015
 31
0.0
  0
LINE
  5
5E2D
330
1F
100
AcDbEntity
  8
SPEC
  6
Continuous
 62
     1
100
AcDbLine
 10
1142.280097068229
 20
682.6995682522265
 30
0.0
 11
1143.456157066723
 21
681.5235082537818
 31
0.0
  0
CIRCLE
  5
5E2E
330
1F
100
AcDbEntity
  8
SPEC
100
AcDbCircle
 10
1141.693475143516
 20
682.7083006680159
 30
0.0
 40
2.480974181479313
  0
LINE
  5
5E2F
330
1F
100
AcDbEntity
  8
SPEC
  6
Continuous
 62
     1
100
AcDbLine
 10
1142.868127067501
 20
680.9354782545347
 30
0.0
 11
1143.456157066723
 21
681.5235082537818
 31
0.0
  0
LINE
  5
5E30
330
1F
100
AcDbEntity
  8
SPEC
  6
Continuous
 62
     1
100
AcDbLine
 10
1139.927977071314
 20
681.523508253707
 30
0.0
 11
1140.516007070562
 21
680.9354782544849
 31
0.0
  0
LINE
  5
5E31
330
1F
100
AcDbEntity
  8
SPEC
  6
Continuous
 62
     1
100
AcDbLine
 10
1142.280097068229
 20
682.6995682522265
 30
0.0
 11
1143.456157066673
 21
683.8756282507208
 31
0.0
  0
LINE
  5
5E32
330
1F
100
AcDbEntity
  8
SPEC
  6
Continuous
 62
     1
100
AcDbLine
 10
1141.692067068982
 20
683.2875982514487
 30
0.0
 11
1142.868127067426
 21
684.4636582499431
 31
0.0
  0
LINE
  5
5E33
330
1F
100
AcDbEntity
  8
SPEC
  6
Continuous
 62
     1
100
AcDbLine
 10
1142.868127067426
 20
684.4636582499431
 30
0.0
 11
1143.456157066673
 21
683.8756282507208
 31
0.0
  0
LINE
  5
5E34
330
1F
100
AcDbEntity
  8
SPEC
  6
Continuous
 62
     1
100
AcDbLine
 10
1140.516007070487
 20
684.4636582498931
 30
0.0
 11
1141.692067068982
 21
683.2875982514487
 31
0.0
  0
LINE
  5
5E35
330
1F
100
AcDbEntity
  8
SPEC
  6
Continuous
 62
     1
100
AcDbLine
 10
1139.927977071265
 20
683.875628250646
 30
0.0
 11
1141.104037069759
 21
682.6995682522015
 31
0.0
  0
LINE
  5
5E36
330
1F
100
AcDbEntity
  8
SPEC
  6
Continuous
 62
     1
100
AcDbLine
 10
1139.927977071265
 20
683.875628250646
 30
0.0
 11
1140.516007070487
 21
684.4636582498931
 31
0.0
  0
POINT
  5
5E37
330
1F
100
AcDbEntity
  8
0
 60
     1
100
AcDbPoint
 10
2248.487113577493
 20
1400.209841568687
 30
0.0
 50
180.0
1001
GENIUS_GENOLIS_13
1002
{
1000
ENT
1005
5E29
1005
5DDD
1005
5DDC
1005
5E28
1002
}
1001
GENIUS_GENOENT_13
1002
{
1000
MYREF
1005
5E37
1002
}
1002
{
1000
GRP
1005
0
1002
}
1001
GENIUS_GENOBJ-N-CRS_13
1002
{
1000
OWNER
1000
GEN
1002
}
1001
GENIUS_GENODEF_13
1002
{
1000
HIER
1070
    10
1002
}
1002
{
1000
MANEDIT
1070
     1
1002
}
1002
{
1000
NOSEL
1070
     0
1002
}
1002
{
1000
BEHIND
1070
     0
1002
}
1002
{
1000
OTHER
1070
     0
1002
}
1002
{
1000
REACTOR
1002
}
  0
POINT
  5
5E38
330
1F
100
AcDbEntity
  8
0
 60
     1
100
AcDbPoint
 10
-0.0000000000056843
 20
1400.209841568669
 30
0.0
1001
GENIUS_GENOLIS_13
1002
{
1000
ENT
1005
5E19
1005
5DDD
1005
5DDC
1005
5E18
1002
}
1001
GENIUS_GENOENT_13
1002
{
1000
MYREF
1005
5E38
1002
}
1002
{
1000
GRP
1005
0
1002
}
1001
GENIUS_GENOBJ-N-CRS_13
1002
{
1000
OWNER
1000
GEN
1002
}
1001
GENIUS_GENODEF_13
1002
{
1000
HIER
1070
    10
1002
}
1002
{
1000
MANEDIT
1070
     1
1002
}
1002
{
1000
NOSEL
1070
     0
1002
}
1002
{
1000
BEHIND
1070
     0
1002
}
1002
{
1000
OTHER
1070
     0
1002
}
1002
{
1000
REACTOR
1002
}
  0
LINE
  5
5E7E
330
1F
100
AcDbEntity
  8
SPEC
100
AcDbLine
 10
1276.625544224458
 20
728.305191454915
 30
0.0
 11
1293.625544224458
 21
728.305191454915
 31
0.0
  0
LINE
  5
5E7F
330
1F
100
AcDbEntity
  8
SPEC
100
AcDbLine
 10
1276.625544224458
 20
671.9051914549149
 30
0.0
 11
1293.625544224458
 21
671.9051914549149
 31
0.0
  0
LINE
  5
5E81
330
1F
100
AcDbEntity
  8
SPEC
100
AcDbLine
 10
1231.625634117805
 20
726.680654457488
 30
0.0
 11
1276.625544224458
 21
726.6806544574882
 31
0.0
  0
LINE
  5
5E82
330
1F
100
AcDbEntity
  8
SPEC
100
AcDbLine
 10
1231.625634117805
 20
673.420654457488
 30
0.0
 11
1276.625544224458
 21
673.420654457488
 31
0.0
  0
CIRCLE
  5
5E83
330
1F
100
AcDbEntity
  8
SPEC
100
AcDbCircle
 10
1387.487605708999
 20
700.105191454915
 30
0.0
 40
28.20000000000005
  0
DIMENSION
  5
5E93
330
1F
100
AcDbEntity
  8
AM_5
100
AcDbDimension
  2
*D20
 10
1330.462946373685
 20
728.305191454915
 30
0.0
 11
1327.847325636986
 21
700.1051914549152
 31
0.0
 70
    32
  1
%%c<>
 71
     5
 42
56.40000000000009
  3
STANDARD$0
100
AcDbAlignedDimension
 13
1293.625544224458
 23
671.9051914549149
 33
0.0
 14
1293.625544224458
 24
728.305191454915
 34
0.0
 50
90.0
100
AcDbRotatedDimension
1001
ACAD
1000
DSTYLE
1002
{
1070
    47
1040
0.2
1070
    48
1040
-0.2
1070
   272
1070
     0
1002
}
  0
CIRCLE
  5
5ED6
330
1F
100
AcDbEntity
  8
SPEC
100
AcDbCircle
 10
1363.917605709499
 20
723.6751914549145
 30
0.0
 40
2.5
  0
CIRCLE
  5
5ED7
330
1F
100
AcDbEntity
  8
SPEC
100
AcDbCircle
 10
1411.057605708499
 20
723.6751914549145
 30
0.0
 40
2.5
  0
CIRCLE
  5
5ED8
330
1F
100
AcDbEntity
  8
SPEC
100
AcDbCircle
 10
1411.057605708499
 20
676.5351914549155
 30
0.0
 40
2.5
  0
CIRCLE
  5
5ED9
330
1F
100
AcDbEntity
  8
SPEC
100
AcDbCircle
 10
1363.922605708999
 20
676.5351914554155
 30
0.0
 40
2.5
  0
VIEWPORT
  5
2D8
102
{ACAD_XDICTIONARY
360
61B9
102
}
330
1B
100
AcDbEntity
 67
     1
  8
0
100
AcDbViewport
 10
133.8621241977943
 20
129.1512006887821
 30
0.0
 40
407.0550614233601
 41
258.1075953386219
 68
     1
 69
     1
 12
133.8621241977943
 22
129.1512006887821
 13
0.0
 23
0.0
 14
10.0
 24
10.0
 15
10.0
 25
10.0
 16
0.0
 26
0.0
 36
1.0
 17
0.0
 27
0.0
 37
0.0
 42
50.0
 43
0.0
 44
0.0
 45
258.1075953386219
 50
0.0
 51
0.0
 72
   100
 90
    32800
  1

281
     0
 71
     1
 74
     0
110
0.0
120
0.0
130
0.0
111
1.0
121
0.0
131
0.0
112
0.0
122
1.0
132
0.0
 79
     0
146
0.0
  0
MTEXT
  5
1290
330
1B
100
AcDbEntity
 67
     1
  8
DATA
100
AcDbMText
 10
142.6845396305116
 20
14.24154306217638
 30
0.0
 40
1.930697999999999
 41
24.133725
 71
     1
 72
     5
  1
X       %%p0.5\P1PL     %%p0.2\P2PL     %%p0.1\PANGLE   %%p30'
  7
ROMANS
 73
     1
 44
1.0
1001
ACAD
1000
MTEXTBEGIN
1070
    73
1070
     1
1070
    44
1040
1.0
1070
    74
1070
     0
1000
MTEXTEND
  0
LWPOLYLINE
  5
1291
330
1B
100
AcDbEntity
 67
     1
  8
SPEC
100
AcDbPolyline
 90
        2
 70
     0
 43
0.0
 10
44.51178313191621
 20
21.65598901220129
 10
104.0278513100474
 20
21.65598901220129
  0
TEXT
  5
1294
330
1B
100
AcDbEntity
 67
     1
  8
DATA
100
AcDbText
 10
223.3033978947773
 20
2.332825847364669
 30
0.0
 40
3.861395999999999
  1
SH5618L1608
 41
0.7
  7
ROMANS
100
AcDbText
  0
LWPOLYLINE
  5
1296
330
1B
100
AcDbEntity
 67
     1
  8
SPEC
100
AcDbPolyline
 90
        2
 70
     0
 43
0.0
 10
0.0009154015513104
 20
21.65598901220129
 10
44.6040054243686
 20
21.65598901220129
  0
LINE
  5
1297
330
1B
100
AcDbEntity
 67
     1
  8
DATA
100
AcDbLine
 10
141.4515899505442
 20
16.0064410711449
 30
0.0
 11
206.4352883025385
 21
16.0064410711449
 31
0.0
  0
LINE
  5
1299
330
1B
100
AcDbEntity
 67
     1
  8
DATA
100
AcDbLine
 10
188.9615608996265
 20
21.65598901220129
 30
0.0
 11
188.9615608996265
 21
0.0005791177154606
 31
0.0
  0
LINE
  5
129A
330
1B
100
AcDbEntity
 67
     1
  8
DATA
100
AcDbLine
 10
172.7736353934214
 20
21.62620757770765
 30
0.0
 11
172.7736353934214
 21
6.498316907446511
 31
0.0
  0
LINE
  5
129B
330
1B
100
AcDbEntity
 67
     1
  8
DATA
100
AcDbLine
 10
161.8855388603332
 20
0.0005791177154606
 30
0.0
 11
161.8855388603055
 21
21.65598905610526
 31
0.0
  0
LINE
  5
129C
330
1B
100
AcDbEntity
 67
     1
  8
DATA
100
AcDbLine
 10
162.1169692298447
 20
21.65598901220129
 30
0.0
 11
162.1169692298447
 21
0.0005791177154606
 31
0.0
  0
LINE
  5
129D
330
1B
100
AcDbEntity
 67
     1
  8
DATA
100
AcDbLine
 10
206.4352889818797
 20
21.65598901220129
 30
0.0
 11
206.4352889818797
 21
0.0005791177154606
 31
0.0
  0
LINE
  5
129E
330
1B
100
AcDbEntity
 67
     1
  8
DATA
100
AcDbLine
 10
71.44730055967194
 20
21.65598903157794
 30
0.0
 11
71.44730055966755
 21
0.0005791177154606
 31
0.0
  0
LINE
  5
129F
330
1B
100
AcDbEntity
 67
     1
  8
DATA
100
AcDbLine
 10
86.04251283525755
 20
21.65598903553624
 30
0.0
 11
86.0425128352576
 21
0.0005791177154606
 31
0.0
  0
LINE
  5
12A0
330
1B
100
AcDbEntity
 67
     1
  8
DATA
100
AcDbLine
 10
50.66681625037072
 20
21.65598901220129
 30
0.0
 11
50.66681625037072
 21
0.0005791177154606
 31
0.0
  0
LINE
  5
12A2
330
1B
100
AcDbEntity
 67
     1
  8
DATA
100
AcDbLine
 10
86.0425128352576
 20
16.5762960950056
 30
0.0
 11
0.0009154015513104
 21
16.5762960950056
 31
0.0
  0
LINE
  5
12A3
330
1B
100
AcDbEntity
 67
     1
  8
DATA
100
AcDbLine
 10
0.0009154015513104
 20
11.4966031778099
 30
0.0
 11
86.0425128352576
 21
11.49660317780992
 31
0.0
  0
LINE
  5
12A4
330
1B
100
AcDbEntity
 67
     1
  8
DATA
100
AcDbLine
 10
0.0009154015513104
 20
6.41691026061423
 30
0.0
 11
86.0425128352576
 21
6.416910260614244
 31
0.0
  0
LINE
  5
12A5
330
1B
100
AcDbEntity
 67
     1
  8
DATA
100
AcDbLine
 10
10.9812208516878
 20
21.65598901220129
 30
0.0
 11
10.9812208516878
 21
0.0005791177154606
 31
0.0
  0
LINE
  5
12A6
330
1B
100
AcDbEntity
 67
     1
  8
DATA
100
AcDbLine
 10
206.4352889818797
 20
6.487604351384876
 30
0.0
 11
161.8855388603332
 21
6.487604351384876
 31
0.0
  0
LINE
  5
12A7
330
1B
100
AcDbEntity
 67
     1
  8
DATA
100
AcDbLine
 10
161.8855388603332
 20
11.19931228302795
 30
0.0
 11
206.4352889818797
 21
11.19931228302795
 31
0.0
  0
TEXT
  5
12A8
330
1B
100
AcDbEntity
 67
     1
  8
DATA
100
AcDbText
 10
144.2089124014906
 20
17.38788360913192
 30
0.0
 40
2.413372499999999
  1
SCALE FREE
 41
0.7
  7
ROMANS
 72
     2
 11
159.5740506514906
 21
17.38788360913192
 31
0.0
100
AcDbText
  0
LINE
  5
12A9
330
1B
100
AcDbEntity
 67
     1
  8
DATA
100
AcDbLine
 10
141.4515899505442
 20
21.65598901220129
 30
0.0
 11
141.4515899505442
 21
0.0005791177154606
 31
0.0
  0
TEXT
  5
12AA
330
1B
100
AcDbEntity
 67
     1
  8
DATA
100
AcDbText
 10
72.81931794091391
 20
2.289088082541405
 30
0.0
 40
2.896047
  1
APVD
 41
0.7
  7
ROMANS
100
AcDbText
  0
TEXT
  5
12AB
330
1B
100
AcDbEntity
 67
     1
  8
DATA
100
AcDbText
 10
54.00518497335647
 20
2.289088082541405
 30
0.0
 40
2.896047
  1
DATE
 41
0.7
  7
ROMANS
100
AcDbText
  0
TEXT
  5
12AC
330
1B
100
AcDbEntity
 67
     1
  8
DATA
100
AcDbText
 10
13.71048401705179
 20
2.289088082541405
 30
0.0
 40
2.896047
  1
DESCRIPTION
 41
0.7
  7
ROMANS
100
AcDbText
  0
TEXT
  5
12AD
330
1B
100
AcDbEntity
 67
     1
  8
DATA
100
AcDbText
 10
2.61316602814029
 20
2.289088082541405
 30
0.0
 40
2.896047
  1
REV
 41
0.7
  7
ROMANS
 72
     2
 11
8.11565532814029
 21
2.289088082541405
 31
0.0
100
AcDbText
  0
TEXT
  5
12AE
330
1B
100
AcDbEntity
 67
     1
  8
DATA
100
AcDbText
 10
164.0115266587481
 20
16.86188228564509
 30
0.0
 40
2.896047
  1
APVD
 41
0.7
  7
ROMANS
 72
     2
 11
171.2516441587481
 21
16.86188228564509
 31
0.0
100
AcDbText
  0
TEXT
  5
12AF
330
1B
100
AcDbEntity
 67
     1
  8
DATA
100
AcDbText
 10
163.1771120414716
 20
12.25504563334623
 30
0.0
 40
2.896047
  1
CHKD
 41
0.7
  7
ROMANS
 72
     2
 11
171.0929738414716
 21
12.25504563334623
 31
0.0
100
AcDbText
  0
TEXT
  5
12B0
330
1B
100
AcDbEntity
 67
     1
  8
DATA
100
AcDbText
 10
164.1482638836956
 20
7.264305730021757
 30
0.0
 40
2.896047
  1
DRN
 41
0.7
  7
ROMANS
 72
     2
 11
169.9403578836956
 21
7.264305730021757
 31
0.0
100
AcDbText
  0
TEXT
  5
12B1
330
1B
100
AcDbEntity
 67
     1
  8
DATA
100
AcDbText
 10
166.3066680148434
 20
2.249663648385519
 30
0.0
 40
2.896047
  1
SIGNATURE
 41
0.7
  7
ROMANS
 72
     2
 11
182.2349265148434
 21
2.249663648385519
 31
0.0
100
AcDbText
  0
TEXT
  5
12B2
330
1B
100
AcDbEntity
 67
     1
  8
DATA
100
AcDbText
 10
194.0753275043612
 20
2.147712645052658
 30
0.0
 40
2.896047
  1
DATE
 41
0.7
  7
ROMANS
 72
     2
 11
201.0258403043613
 21
2.147712645052658
 31
0.0
100
AcDbText
  0
TEXT
  5
12B3
330
1B
100
AcDbEntity
 67
     1
  8
DATA
100
AcDbText
 10
211.3647597711961
 20
15.15914893796167
 30
0.0
 40
3.668326199999999
  1
STEPPING MOTOR
 41
0.8
  7
ITALICT
 72
     2
 11
254.825691131196
 21
15.15914893796167
 31
0.0
100
AcDbText
  0
LINE
  5
12B4
330
1B
100
AcDbEntity
 67
     1
  8
DATA
100
AcDbLine
 10
206.4352889818797
 20
12.14062779339902
 30
0.0
 11
282.0457513033824
 21
12.14062786989238
 31
0.0
  0
TEXT
  5
12B5
330
1B
100
AcDbEntity
 67
     1
  8
DATA
100
AcDbText
 10
208.2206521091139
 20
8.230964343399071
 30
0.0
 40
2.413372499999999
  1
DWG.NO
 41
0.7
  7
ROMANS
 72
     2
 11
217.6328048591138
 21
8.230964343399071
 31
0.0
100
AcDbText
  0
TEXT
  5
12B6
330
1B
100
AcDbEntity
 67
     1
  8
DATA
100
AcDbText
 10
89.47920924063479
 20
16.55350887427961
 30
0.0
 40
2.896047
  1
NANOTEC:
 41
0.7
  7
ROMANS
100
AcDbText
  0
TEXT
  5
12B7
330
1B
100
AcDbEntity
 67
     1
  8
DATA
100
AcDbText
 10
189.4634543457442
 20
7.541155117526503
 30
0.0
 40
2.509907399999999
  1
13.07.06
 41
0.7
  7
ROMANS
100
AcDbText
  0
LINE
  5
12B8
330
1B
100
AcDbEntity
 67
     1
  8
SPEC
100
AcDbLine
 10
0.0009154015513104
 20
21.65598901220129
 30
0.0
 11
0.0009154015513104
 21
119.7806666755164
 31
0.0
  0
LWPOLYLINE
  5
12BA
330
1B
100
AcDbEntity
 67
     1
  8
SPEC
100
AcDbPolyline
 90
        4
 70
     1
 43
0.0
 10
0.0009154015513104
 20
196.0405791177016
 10
0.0009154015513104
 20
0.0005791177154606
 10
282.0457558342515
 20
0.0005791177154606
 10
282.0456819224133
 20
196.0405791177016
  0
LWPOLYLINE
  5
1708
330
1B
100
AcDbEntity
 67
     1
  8
SPEC
100
AcDbPolyline
 90
        2
 70
     0
 43
0.0
 10
46.10949139879676
 20
21.6559890122013
 10
107.7618763685136
 20
21.6559890122013
  0
LINE
  5
19BB
330
1B
100
AcDbEntity
 67
     1
  8
SPEC
100
AcDbLine
 10
180.0009154015513
 20
21.6559890122013
 30
0.0
 11
180.0009154015513
 21
111.6559890122013
 31
0.0
  0
TEXT
  5
19BD
330
1B
100
AcDbEntity
 67
     1
  8
DATA
100
AcDbText
 10
1.828349188375568
 20
73.0
 30
0.0
 40
2.4
  1
DETENT TORQUE (Nm) [lb-in]
 41
0.7
  7
ROMANS
100
AcDbText
  0
TEXT
  5
19BF
330
1B
100
AcDbEntity
 67
     1
  8
SPEC
100
AcDbText
 10
153.8283491883755
 20
48.0
 30
0.0
 40
2.4
  1

 41
0.7
  7
ROMANS
100
AcDbText
  0
TEXT
  5
19C0
330
1B
100
AcDbEntity
 67
     1
  8
DATA
  6
HIDDEN
100
AcDbText
 10
121.8283491883755
 20
105.2917072386782
 30
0.0
 40
3.0
  1
PERMISSIBLE RADIAL+AXIAL FORCE
 41
0.7
  7
ROMANS
100
AcDbText
  0
TEXT
  5
19C1
330
1B
100
AcDbEntity
 67
     1
  8
DATA
100
AcDbText
 10
1.828349188375568
 20
43.0
 30
0.0
 40
2.4
  1
AMBIENT TEMPERATURE -10°~ 50°C [14°F ~ 122°F]
 41
0.7
  7
ROMANS
100
AcDbText
  0
TEXT
  5
19C2
330
1B
100
AcDbEntity
 67
     1
  8
DATA
100
AcDbText
 10
120.8283491883755
 20
48.0
 30
0.0
 40
2.4
  1
AXIAL-FORCE Fa (N)
 41
0.7
  7
ROMANS
100
AcDbText
  0
TEXT
  5
19C4
330
1B
100
AcDbEntity
 67
     1
  8
DATA
100
AcDbText
 10
1.828349188375568
 20
28.0
 30
0.0
 40
2.4
  1
DIELECTRIC STRENGTH 500VAC FOR 1 MIN. (BETWEEN THE MOTOR COILS AND THE MOTOR CASE)
 41
0.65
  7
ROMANS
100
AcDbText
  0
TEXT
  5
19C5
330
1B
100
AcDbEntity
 67
     1
  8
DATA
100
AcDbText
 10
1.828349188375568
 20
33.0
 30
0.0
 40
2.4
  1
INSULATION CLASS B 130° [266°F]
 41
0.7
  7
ROMANS
100
AcDbText
  0
TEXT
  5
19C6
330
1B
100
AcDbEntity
 67
     1
  8
DATA
100
AcDbText
 10
1.828349188375568
 20
38.0
 30
0.0
 40
2.4
  1
INSULATION RESISTANCE 100 MOhm (UNDER NORMAL TEMPERATURE AND HUMIDITY)
 41
0.7
  7
ROMANS
100
AcDbText
  0
TEXT
  5
19C7
330
1B
100
AcDbEntity
 67
     1
  8
DATA
100
AcDbText
 10
1.828349188375568
 20
48.0
 30
0.0
 40
2.4
  1
TEMPERATURE RISE: MAX.80°C (MOTOR STANDSTILL; FOR 2 PHASE ENERGIZED)
 41
0.7
  7
ROMANS
100
AcDbText
  0
MTEXT
  5
19C8
330
1B
100
AcDbEntity
 67
     1
  8
DATA
100
AcDbMText
 10
141.290926933951
 20
85.84775216573845
 30
0.0
 40
2.399999999999999
 41
6.509999999999999
 71
     1
 72
     5
  1
F{\H0.8333x;r}
  7
ROMANS
 73
     1
 44
1.0
1001
ACAD
1000
MTEXTBEGIN
1070
    73
1070
     1
1070
    44
1040
1.0
1070
    74
1070
     0
1000
MTEXTEND
  0
DIMENSION
  5
19C9
330
1B
100
AcDbEntity
 67
     1
  8
DIM
100
AcDbDimension
  2
*D5
 10
149.0972407104071
 20
55.91119174080848
 30
0.0
 11
144.4901433864878
 21
55.91119174080848
 31
0.0
 70
   160
  1
a
 71
     5
 42
9.190871881572007
  3
STANDARD
100
AcDbAlignedDimension
 13
139.9063688288351
 23
74.09868988223387
 33
0.0
 14
149.0972407104071
 24
60.09299455805124
 34
0.0
100
AcDbRotatedDimension
1001
ACAD
1000
DSTYLE
1002
{
1070
   344
1005
2FF
1070
   173
1070
     1
1070
   343
1005
0
1070
    41
1040
2.399999999999999
1070
   340
1005
3C7
1070
   140
1040
2.399999999999999
1070
    40
1040
1.0
1002
}
  0
LINE
  5
19D1
330
1B
100
AcDbEntity
 67
     1
  8
CENTER
  6
AM_ISO08W050x2
100
AcDbLine
 10
136.6677412239615
 20
75.98428938777749
 30
0.0
 11
179.0047821176252
 21
75.98428938777749
 31
0.0
  0
TEXT
  5
19D2
330
1B
100
AcDbEntity
 67
     1
  8
DATA
100
AcDbText
 10
174.0
 20
43.0
 30
0.0
 40
2.4
  1
20
 41
0.7
  7
ROMANS
100
AcDbText
  0
TEXT
  5
19D5
330
1B
100
AcDbEntity
 67
     1
  8
DATA
100
AcDbText
 10
167.0
 20
43.0
 30
0.0
 40
2.4
  1
15
 41
0.7
  7
ROMANS
100
AcDbText
  0
TEXT
  5
19D6
330
1B
100
AcDbEntity
 67
     1
  8
DATA
100
AcDbText
 10
159.0
 20
43.0
 30
0.0
 40
2.4
  1
10
 41
0.7
  7
ROMANS
100
AcDbText
  0
TEXT
  5
19D8
330
1B
100
AcDbEntity
 67
     1
  8
DATA
100
AcDbText
 10
152.0
 20
43.0
 30
0.0
 40
2.4
  1
5
 41
0.7
  7
ROMANS
100
AcDbText
  0
TEXT
  5
19DC
330
1B
100
AcDbEntity
 67
     1
  8
DATA
100
AcDbText
 10
120.8283491883755
 20
38.0
 30
0.0
 40
2.4
  1
RADIAL-FORCE Fr (N)
 41
0.7
  7
ROMANS
100
AcDbText
  0
TEXT
  5
19DD
330
1B
100
AcDbEntity
 67
     1
  8
DATA
100
AcDbText
 10
120.8283491883755
 20
43.0
 30
0.0
 40
2.4
  1
DISTANCE a  (mm)
 41
0.7
  7
ROMANS
100
AcDbText
  0
TEXT
  5
19DE
330
1B
100
AcDbEntity
 67
     1
  8
DATA
100
AcDbText
 10
78.82834918837557
 20
63.0
 30
0.0
 40
2.4
  1
%%P5%
 41
0.7
  7
ROMANS
100
AcDbText
  0
TEXT
  5
19DF
330
1B
100
AcDbEntity
 67
     1
  8
DATA
100
AcDbText
 10
78.82834918837557
 20
68.0
 30
0.0
 40
2.4
  1
1.8
 41
0.7
  7
ROMANS
100
AcDbText
  0
TEXT
  5
19E0
330
1B
100
AcDbEntity
 67
     1
  8
DATA
100
AcDbText
 10
80.0
 20
88.0
 30
0.0
 40
2.4
  1
6.4%%P15%%%
 41
0.7
  7
ROMANS
100
AcDbText
  0
TEXT
  5
19E1
330
1B
100
AcDbEntity
 67
     1
  8
DATA
100
AcDbText
 10
80.0
 20
93.0
 30
0.0
 40
2.4
  1
1.13
 41
0.7
  7
ROMANS
100
AcDbText
  0
TEXT
  5
19E2
330
1B
100
AcDbEntity
 67
     1
  8
DATA
100
AcDbText
 10
50.82834918837557
 20
102.617252115867
 30
0.0
 40
2.399999999999999
  1
BIPOLAR-1 WINDING
 41
0.7
  7
ROMANS
100
AcDbText
  0
TEXT
  5
19E3
330
1B
100
AcDbEntity
 67
     1
  8
DATA
100
AcDbText
 10
53.82834918837557
 20
107.617252115867
 30
0.0
 40
2.399999999999999
  1
UNIPOLAR OR
 41
0.7
  7
ROMANS
100
AcDbText
  0
TEXT
  5
19E4
330
1B
100
AcDbEntity
 67
     1
  8
DATA
100
AcDbText
 10
31.82834918837557
 20
107.617252115867
 30
0.0
 40
2.4
  1
CONNECTION
 41
0.7
  7
ROMANS
100
AcDbText
  0
TEXT
  5
19E5
330
1B
100
AcDbEntity
 67
     1
  8
DATA
100
AcDbText
 10
53.82834918837557
 20
83.0
 30
0.0
 40
2.4
  1
6.3%%P20%%%
 41
0.7
  7
ROMANS
100
AcDbText
  0
TEXT
  5
19E6
330
1B
100
AcDbEntity
 67
     1
  8
DATA
100
AcDbText
 10
53.82834918837557
 20
88.0
 30
0.0
 40
2.4
  1
3.2%%P15%%%
 41
0.7
  7
ROMANS
100
AcDbText
  0
TEXT
  5
19E7
330
1B
100
AcDbEntity
 67
     1
  8
DATA
100
AcDbText
 10
53.82834918837557
 20
93.0
 30
0.0
 40
2.4
  1
1.6
 41
0.7
  7
ROMANS
100
AcDbText
  0
TEXT
  5
19E8
330
1B
100
AcDbEntity
 67
     1
  8
DATA
100
AcDbText
 10
53.82834918837557
 20
98.0
 30
0.0
 40
2.4
  1
5.1
 41
0.7
  7
ROMANS
100
AcDbText
  0
TEXT
  5
19E9
330
1B
100
AcDbEntity
 67
     1
  8
DATA
100
AcDbText
 10
1.828349188375568
 20
98.0
 30
0.0
 40
2.4
  1
VOLTAGE (VDC)
 41
0.7
  7
ROMANS
100
AcDbText
  0
TEXT
  5
19EA
330
1B
100
AcDbEntity
 67
     1
  8
DATA
100
AcDbText
 10
1.828349188375568
 20
93.0
 30
0.0
 40
2.4
  1
AMPS/PHASE
 41
0.7
  7
ROMANS
100
AcDbText
  0
TEXT
  5
19EB
330
1B
100
AcDbEntity
 67
     1
  8
DATA
100
AcDbText
 10
1.828349188375568
 20
103.617252115867
 30
0.0
 40
2.4
  1
SPECIFICATION
 41
0.7
  7
ROMANS
100
AcDbText
  0
TEXT
  5
19EC
330
1B
100
AcDbEntity
 67
     1
  8
DATA
100
AcDbText
 10
1.828349188375568
 20
88.0
 30
0.0
 40
2.4
  1
RESISTANCE/PHASE  (Ohms)@25%%DC
 41
0.7
  7
ROMANS
100
AcDbText
  0
TEXT
  5
19ED
330
1B
100
AcDbEntity
 67
     1
  8
DATA
100
AcDbText
 10
1.828349188375568
 20
83.0
 30
0.0
 40
2.4
  1
INDUCTANCE/PHASE (mH) @1KHz
 41
0.7
  7
ROMANS
100
AcDbText
  0
TEXT
  5
19EE
330
1B
100
AcDbEntity
 67
     1
  8
DATA
100
AcDbText
 10
53.82834918837557
 20
78.0
 30
0.0
 40
2.4
  1
1.05 [9.292]
 41
0.7
  7
ROMANS
100
AcDbText
  0
TEXT
  5
19EF
330
1B
100
AcDbEntity
 67
     1
  8
DATA
100
AcDbText
 10
1.828349188375568
 20
78.0
 30
0.0
 40
2.4
  1
HOLDING TORQUE (Nm) [lb-in]
 41
0.7
  7
ROMANS
100
AcDbText
  0
TEXT
  5
19F0
330
1B
100
AcDbEntity
 67
     1
  8
DATA
100
AcDbText
 10
1.828349188375568
 20
53.0
 30
0.0
 40
2.4
  1
WEIGHT (Kg) [lb]
 41
0.7
  7
ROMANS
100
AcDbText
  0
TEXT
  5
19F1
330
1B
100
AcDbEntity
 67
     1
  8
DATA
100
AcDbText
 10
1.828349188375568
 20
68.0
 30
0.0
 40
2.4
  1
STEP ANGLE (°)
 41
0.7
  7
ROMANS
100
AcDbText
  0
TEXT
  5
19F2
330
1B
100
AcDbEntity
 67
     1
  8
DATA
100
AcDbText
 10
1.828349188375568
 20
63.0
 30
0.0
 40
2.4
  1
STEP ACCURACY (NON-ACCUM)
 41
0.7
  7
ROMANS
100
AcDbText
  0
LEADER
  5
19F4
330
1B
100
AcDbEntity
 67
     1
  8
DIM
100
AcDbLeader
  3
STANDARD
 76
     2
 10
140.0606073289473
 20
78.69222240356484
 30
0.0
 10
140.0606073289473
 20
86.51626982104639
 30
0.0
1001
ACAD
1000
DSTYLE
1002
{
1070
    41
1040
2.399999999999999
1070
   341
1005
0
1070
    40
1040
1.0
1070
    77
1070
     0
1002
}
  0
TEXT
  5
19F6
330
1B
100
AcDbEntity
 67
     1
  8
DATA
100
AcDbText
 10
83.82834918837557
 20
102.617252115867
 30
0.0
 40
2.399999999999999
  1
SERIAL
 41
0.7
  7
ROMANS
100
AcDbText
  0
TEXT
  5
19F7
330
1B
100
AcDbEntity
 67
     1
  8
DATA
100
AcDbText
 10
92.0
 20
107.617252115867
 30
0.0
 40
2.399999999999999
  1
BIPOLAR
 41
0.7
  7
ROMANS
100
AcDbText
  0
LINE
  5
19F9
330
1B
100
AcDbEntity
 67
     1
  8
SPEC
100
AcDbLine
 10
0.0009154015513104
 20
111.6559890122013
 30
0.0
 11
281.8407943483788
 21
111.6559890122013
 31
0.0
  0
LINE
  5
19FA
330
1B
100
AcDbEntity
 67
     1
  8
SPEC
100
AcDbLine
 10
282.0457477520906
 20
21.65598908869334
 30
0.0
 11
0.0009154015513104
 21
21.6559890122013
 31
0.0
  0
LINE
  5
19FB
330
1B
100
AcDbEntity
 67
     1
  8
SPEC
100
AcDbLine
 10
0.0009154015513104
 20
111.6559890122013
 30
0.0
 11
110.0009154015513
 21
111.6559890122013
 31
0.0
  0
LINE
  5
19FD
330
1B
100
AcDbEntity
 67
     1
  8
SPEC
100
AcDbLine
 10
0.0009154015513104
 20
26.65598901220131
 30
0.0
 11
180.0009154015513
 21
26.65598901220131
 31
0.0
  0
LINE
  5
19FF
330
1B
100
AcDbEntity
 67
     1
  8
SPEC
100
AcDbLine
 10
0.0009154015513104
 20
31.65598901220131
 30
0.0
 11
180.0009154015513
 21
31.65598901220131
 31
0.0
  0
LINE
  5
1A00
330
1B
100
AcDbEntity
 67
     1
  8
SPEC
100
AcDbLine
 10
0.0009154015513104
 20
36.65598901220142
 30
0.0
 11
180.0009154015513
 21
36.65598901220142
 31
0.0
  0
LINE
  5
1A01
330
1B
100
AcDbEntity
 67
     1
  8
SPEC
100
AcDbLine
 10
0.0009154015513104
 20
46.65598901220142
 30
0.0
 11
180.0009154015513
 21
46.65598901220142
 31
0.0
  0
LINE
  5
1A02
330
1B
100
AcDbEntity
 67
     1
  8
SPEC
100
AcDbLine
 10
0.0009154015513104
 20
41.65598901220142
 30
0.0
 11
180.0009154015513
 21
41.65598901220142
 31
0.0
  0
LINE
  5
1A03
330
1B
100
AcDbEntity
 67
     1
  8
SPEC
100
AcDbLine
 10
0.0009154015513104
 20
66.65598901220142
 30
0.0
 11
120.0009154015513
 21
66.6559890122013
 31
0.0
  0
LINE
  5
1A04
330
1B
100
AcDbEntity
 67
     1
  8
SPEC
100
AcDbLine
 10
0.0009154015513104
 20
61.65598901220142
 30
0.0
 11
120.0009154015513
 21
61.65598901220142
 31
0.0
  0
LINE
  5
1A05
330
1B
100
AcDbEntity
 67
     1
  8
SPEC
100
AcDbLine
 10
0.0009154015513104
 20
56.6559890122013
 30
0.0
 11
120.0009154015513
 21
56.6559890122013
 31
0.0
  0
LINE
  5
1A06
330
1B
100
AcDbEntity
 67
     1
  8
SPEC
100
AcDbLine
 10
0.0009154015513104
 20
51.6559890122013
 30
0.0
 11
180.0009154015513
 21
51.6559890122013
 31
0.0
  0
LINE
  5
1A07
330
1B
100
AcDbEntity
 67
     1
  8
SPEC
100
AcDbLine
 10
0.0009154015513104
 20
101.6559890122014
 30
0.0
 11
120.0009154015513
 21
101.6559890122014
 31
0.0
  0
LINE
  5
1A08
330
1B
100
AcDbEntity
 67
     1
  8
SPEC
100
AcDbLine
 10
0.0009154015513104
 20
96.6559890122013
 30
0.0
 11
120.0009154015513
 21
96.6559890122013
 31
0.0
  0
LINE
  5
1A09
330
1B
100
AcDbEntity
 67
     1
  8
SPEC
100
AcDbLine
 10
0.0009154015513104
 20
86.6559890122013
 30
0.0
 11
120.0009154015513
 21
86.6559890122013
 31
0.0
  0
LINE
  5
1A0A
330
1B
100
AcDbEntity
 67
     1
  8
SPEC
100
AcDbLine
 10
0.0009154015513104
 20
91.6559890122013
 30
0.0
 11
120.0009154015513
 21
91.6559890122013
 31
0.0
  0
LINE
  5
1A0B
330
1B
100
AcDbEntity
 67
     1
  8
SPEC
100
AcDbLine
 10
0.0009154015513104
 20
71.6559890122013
 30
0.0
 11
120.0009154015513
 21
71.6559890122013
 31
0.0
  0
LINE
  5
1A0C
330
1B
100
AcDbEntity
 67
     1
  8
SPEC
100
AcDbLine
 10
0.0009154015513104
 20
76.65598901220142
 30
0.0
 11
120.0009154015513
 21
76.65598901220142
 31
0.0
  0
LINE
  5
1A0D
330
1B
100
AcDbEntity
 67
     1
  8
SPEC
100
AcDbLine
 10
0.0009154015513104
 20
81.65598901220141
 30
0.0
 11
120.0009154015513
 21
81.65598901220141
 31
0.0
  0
MTEXT
  5
1A0E
330
1B
100
AcDbEntity
 67
     1
  8
DATA
100
AcDbMText
 10
2.328349188375568
 20
61.11725211586701
 30
0.0
 40
2.399999999999999
 41
110.0
 71
     1
 72
     5
  1
{\W0.7;ROTOR INERTIA (Kg-m²) [lb-in²]}
  7
ROMANS
 73
     1
 44
1.0
1001
ACAD
1000
ACAD_MTEXT_DEFINED_HEIGHT_BEGIN
1070
    46
1040
0.0
1000
ACAD_MTEXT_DEFINED_HEIGHT_END
1000
MTEXTBEGIN
1070
    73
1070
     1
1070
    44
1040
1.0
1070
    74
1070
     0
1000
MTEXTEND
  0
LINE
  5
1A0F
330
1B
100
AcDbEntity
 67
     1
  8
SPEC
100
AcDbLine
 10
0.0009154015513104
 20
91.6559890122013
 30
0.0
 11
50.00091540155131
 21
91.6559890122013
 31
0.0
  0
LINE
  5
1A10
330
1B
100
AcDbEntity
 67
     1
  8
SPEC
100
AcDbLine
 10
50.00091540155131
 20
111.6559890122013
 30
0.0
 11
50.00091540155131
 21
51.6559890122013
 31
0.0
  0
LINE
  5
1A11
330
1B
100
AcDbEntity
 67
     1
  8
SPEC
100
AcDbLine
 10
50.00091540155131
 20
101.6559890122014
 30
0.0
 11
0.0009154015513104
 21
111.6559890122013
 31
0.0
  0
LINE
  5
1A13
330
1B
100
AcDbEntity
 67
     1
  8
SPEC
100
AcDbLine
 10
50.00091540155131
 20
111.6559890122013
 30
0.0
 11
80.0009154015513
 21
111.6559890122013
 31
0.0
  0
LINE
  5
1A14
330
1B
100
AcDbEntity
 67
     1
  8
SPEC
100
AcDbLine
 10
78.00091540155131
 20
111.6559890122013
 30
0.0
 11
78.00091540155131
 21
76.65598901220142
 31
0.0
  0
LINE
  5
1A15
330
1B
100
AcDbEntity
 67
     1
  8
SPEC
100
AcDbLine
 10
110.0009154015513
 20
111.6559890122013
 30
0.0
 11
170.0009154015513
 21
111.6559890122013
 31
0.0
  0
TEXT
  5
1A16
330
1B
100
AcDbEntity
 67
     1
  8
DATA
100
AcDbText
 10
121.8283491883755
 20
28.0
 30
0.0
 40
2.4
  1
SHAFT PLAY (mm)
 41
0.7
  7
ROMANS
100
AcDbText
  0
LINE
  5
1A17
330
1B
100
AcDbEntity
 67
     1
  8
SPEC
100
AcDbLine
 10
110.0009154015513
 20
31.65598901220131
 30
0.0
 11
140.0009154015513
 21
31.65598901220131
 31
0.0
  0
TEXT
  5
1A18
330
1B
100
AcDbEntity
 67
     1
  8
DATA
100
AcDbText
 10
153.8283491883755
 20
32.61725211586702
 30
0.0
 40
2.5
  1
AXIAL
 41
0.7
  7
ROMANS
100
AcDbText
  0
TEXT
  5
1A19
330
1B
100
AcDbEntity
 67
     1
  8
DATA
100
AcDbText
 10
167.8283491883755
 20
32.61725211586702
 30
0.0
 40
2.5
  1
RADIAL
 41
0.7
  7
ROMANS
100
AcDbText
  0
TEXT
  5
1A1A
330
1B
100
AcDbEntity
 67
     1
  8
DATA
100
AcDbText
 10
152.8283491883756
 20
27.61725211586702
 30
0.0
 40
2.5
  1
0.075
 41
0.7
  7
ROMANS
100
AcDbText
  0
TEXT
  5
1A1B
330
1B
100
AcDbEntity
 67
     1
  8
DATA
100
AcDbText
 10
167.8283491883755
 20
27.61725211586702
 30
0.0
 40
2.5
  1
0.025
 41
0.7
  7
ROMANS
100
AcDbText
  0
TEXT
  5
1A1C
330
1B
100
AcDbEntity
 67
     1
  8
DATA
100
AcDbText
 10
153.8283491883755
 20
22.61725211586702
 30
0.0
 40
2.5
  1
10
 41
0.7
  7
ROMANS
100
AcDbText
  0
TEXT
  5
1A1D
330
1B
100
AcDbEntity
 67
     1
  8
DATA
100
AcDbText
 10
167.8283491883755
 20
22.61725211586702
 30
0.0
 40
2.5
  1
5.0
 41
0.7
  7
ROMANS
100
AcDbText
  0
LINE
  5
1A1E
330
1B
100
AcDbEntity
 67
     1
  8
SPEC
100
AcDbLine
 10
120.0009154015513
 20
36.65598901220142
 30
0.0
 11
150.0009154015513
 21
31.65598901220131
 31
0.0
  0
LINE
  5
1A1F
330
1B
100
AcDbEntity
 67
     1
  8
SPEC
100
AcDbLine
 10
140.0009154015513
 20
46.65598901220142
 30
0.0
 11
146.0009154015513
 21
46.65598901220142
 31
0.0
  0
LINE
  5
1A21
330
1B
100
AcDbEntity
 67
     1
  8
SPEC
100
AcDbLine
 10
157.5009154015513
 20
46.65598901220142
 30
0.0
 11
157.5009154015513
 21
36.65598901220142
 31
0.0
  0
LINE
  5
1A22
330
1B
100
AcDbEntity
 67
     1
  8
SPEC
100
AcDbLine
 10
165.0009154015513
 20
46.65598901220142
 30
0.0
 11
165.0009154015513
 21
36.65598901220142
 31
0.0
  0
LINE
  5
1A23
330
1B
100
AcDbEntity
 67
     1
  8
SPEC
100
AcDbLine
 10
172.4450687382885
 20
46.65598901220142
 30
0.0
 11
172.4450687382885
 21
36.65598901220142
 31
0.0
  0
LINE
  5
1A6A
330
1B
100
AcDbEntity
 67
     1
  8
SPEC
100
AcDbLine
 10
120.0009154015513
 20
111.6559890122013
 30
0.0
 11
120.0009154015513
 21
21.6559890122013
 31
0.0
  0
VIEWPORT
  5
1E55
102
{ACAD_XDICTIONARY
360
61BB
102
}
330
1B
100
AcDbEntity
 67
     1
  8
SPEC
100
AcDbViewport
 10
141.0232986619823
 20
153.8482840649515
 30
0.0
 40
282.044766520862
 41
84.38459010550037
 68
     2
 69
     2
 12
1261.742038545663
 22
697.8567915662402
 13
0.0
 23
0.0
 14
2.5
 24
2.5
 15
10.0
 25
10.0
 16
0.0
 26
0.0
 36
1.0
 17
0.0
 27
0.0
 37
0.0
 42
50.0
 43
0.0
 44
0.0
 45
169.7619813140706
 50
0.0
 51
0.0
 72
   100
 90
    32864
  1

281
     0
 71
     1
 74
     0
110
0.0
120
0.0
130
0.0
111
1.0
121
0.0
131
0.0
112
0.0
122
1.0
132
0.0
 79
     0
146
0.0
1001
GENIUS_GENOBJ-N-SDF_13
1002
{
1000
OWNER
1000
GEN
1002
}
1001
GENIUS_GENODEF_13
1002
{
1000
HIER
1070
     0
1002
}
1002
{
1000
MANEDIT
1070
     0
1002
}
1002
{
1000
NOSEL
1070
     0
1002
}
1002
{
1000
BEHIND
1070
     0
1002
}
1002
{
1000
OTHER
1070
     0
1002
}
1002
{
1000
REACTOR
1002
}
1001
GENIUS_GENSCREG_15
1000
PF
1040
0.0
1000
DF
1040
0.0
1000
MIN
1011
0.0009154015513104
1021
111.6559890122013
1031
0.0
1000
MAX
1011
282.0456819224133
1021
196.0405791177016
1031
0.0
1000
FLAGS
1070
     2
  0
TEXT
  5
2CB6
330
1B
100
AcDbEntity
 67
     1
  8
DATA
100
AcDbText
 10
80.66614027718811
 20
59.84907950615331
 30
0.0
 40
1.399999999999999
  1
-5
 41
0.7
  7
ROMANS
100
AcDbText
  0
TEXT
  5
2CB7
330
1B
100
AcDbEntity
 67
     1
  8
DATA
100
AcDbText
 10
73.82834918837557
 20
53.0
 30
0.0
 40
2.4
  1
0.85 [1.874]
 41
0.7
  7
ROMANS
100
AcDbText
  0
TEXT
  5
2CBF
330
1B
100
AcDbEntity
 67
     1
  8
DATA
100
AcDbText
 10
80.0
 20
83.0
 30
0.0
 40
2.4
  1
25.2%%P20%%%
 41
0.7
  7
ROMANS
100
AcDbText
  0
TEXT
  5
2CCB
330
1B
100
AcDbEntity
 67
     1
  8
DATA
100
AcDbText
 10
80.0
 20
78.0
 30
0.0
 40
2.4
  1
1.48 [13.1]
 41
0.7
  7
ROMANS
100
AcDbText
  0
LWPOLYLINE
  5
2CEB
330
1B
100
AcDbEntity
 67
     1
  8
SPEC
100
AcDbPolyline
 90
        4
 70
     1
 43
0.0
 10
149.0972407104071
 20
91.87558421750372
 10
169.2275531197891
 20
91.87558421750374
 10
169.2275531197891
 20
60.09299455805124
 10
149.0972407104071
 20
60.09299455805124
  0
LWPOLYLINE
  5
2D6D
330
1B
100
AcDbEntity
 67
     1
  8
SPEC
100
AcDbPolyline
 90
        4
 70
     1
 43
0.0
 10
149.0972407104071
 20
87.09730240531003
 10
147.6137908953366
 20
87.09730240531003
 10
147.6137908953366
 20
64.87127637024494
 10
149.0972407104071
 20
64.87127637024494
  0
LINE
  5
2D70
330
1B
100
AcDbEntity
 67
     1
  8
SPEC
100
AcDbLine
 10
178.9451046743791
 20
74.09868988223387
 30
0.0
 11
169.2275531197891
 21
74.09868988223387
 31
0.0
  0
LINE
  5
2D71
330
1B
100
AcDbEntity
 67
     1
  8
SPEC
100
AcDbLine
 10
178.9451046743791
 20
77.86988889332109
 30
0.0
 11
169.2275531197891
 21
77.86988889332109
 31
0.0
  0
LINE
  5
2D72
330
1B
100
AcDbEntity
 67
     1
  8
SPEC
100
AcDbLine
 10
178.9451046743791
 20
74.09868988223387
 30
0.0
 11
178.9451046743791
 21
77.86988889332109
 31
0.0
  0
LWPOLYLINE
  5
2D94
330
1B
100
AcDbEntity
 67
     1
  8
SPEC
100
AcDbPolyline
 90
        4
 70
     1
 43
0.0
 10
167.9302096399492
 20
81.38735029589254
 10
164.6305199228664
 20
81.38735029589254
 10
164.6305199228664
 20
70.58122847966247
 10
167.9302096399492
 20
70.58122847966247
  0
CIRCLE
  5
2D95
330
1B
100
AcDbEntity
 67
     1
  8
SPEC
100
AcDbCircle
 10
166.2803647814078
 20
79.73750543735114
 30
0.0
 40
1.649844858541398
  0
CIRCLE
  5
2D96
330
1B
100
AcDbEntity
 67
     1
  8
SPEC
100
AcDbCircle
 10
166.2803647814078
 20
72.23107333820388
 30
0.0
 40
1.649844858541398
  0
LINE
  5
2D97
330
1B
100
AcDbEntity
 67
     1
  8
SPEC
100
AcDbLine
 10
167.9302096399492
 20
81.38735029589254
 30
0.0
 11
168.5734045934214
 21
80.74081741993238
 31
0.0
  0
LINE
  5
2D98
330
1B
100
AcDbEntity
 67
     1
  8
SPEC
100
AcDbLine
 10
168.6531348075577
 20
77.651473709366
 30
0.0
 11
168.5053768956558
 21
77.48676576983574
 31
0.0
  0
LINE
  5
2D99
330
1B
100
AcDbEntity
 67
     1
  8
SPEC
100
AcDbLine
 10
168.5053768956559
 20
74.48181300571924
 30
0.0
 11
168.6531348075576
 21
74.31710506618914
 31
0.0
  0
LINE
  5
2D9A
330
1B
100
AcDbEntity
 67
     1
  8
SPEC
100
AcDbLine
 10
168.5734045934215
 20
71.2277613556228
 30
0.0
 11
167.9302096399492
 21
70.58122847966247
 31
0.0
  0
ARC
  5
2D9E
330
1B
100
AcDbEntity
 67
     1
  8
SPEC
100
AcDbCircle
 10
166.9783020632643
 20
79.15395009142419
 30
0.0
 40
2.25
100
AcDbArc
 50
318.1050245216237
 51
44.85171410623403
  0
ARC
  5
2DA1
330
1B
100
AcDbEntity
 67
     1
  8
SPEC
100
AcDbCircle
 10
166.9783020632643
 20
72.81462868413088
 30
0.0
 40
2.25
100
AcDbArc
 50
315.1482858937687
 51
41.8949754783788
  0
ARC
  5
2DA2
330
1B
100
AcDbEntity
 67
     1
  8
SPEC
100
AcDbCircle
 10
170.1802096399492
 20
75.98428938777752
 30
0.0
 40
2.25
100
AcDbArc
 50
138.1050245216231
 51
221.8949754783794
  0
LWPOLYLINE
  5
2DA3
330
1B
100
AcDbEntity
 67
     1
  8
SPEC
100
AcDbPolyline
 90
        4
 70
     1
 43
0.0
 10
149.0972407104071
 20
81.38735029589254
 10
152.3969304274899
 20
81.38735029589254
 10
152.3969304274899
 20
70.58122847966247
 10
149.0972407104071
 20
70.58122847966247
  0
CIRCLE
  5
2DA4
330
1B
100
AcDbEntity
 67
     1
  8
SPEC
100
AcDbCircle
 10
150.7470855689485
 20
79.73750543735114
 30
0.0
 40
1.649844858541398
  0
CIRCLE
  5
2DA5
330
1B
100
AcDbEntity
 67
     1
  8
SPEC
100
AcDbCircle
 10
150.7470855689485
 20
72.23107333820388
 30
0.0
 40
1.649844858541398
  0
TEXT
  5
2DC8
330
1B
100
AcDbEntity
 67
     1
  8
DATA
100
AcDbText
 10
1.828349188375568
 20
23.0
 30
0.0
 40
2.4
  1
AMBIENT HUMIDITY MAX. 85% (NO CONDENSATION)
 41
0.7
  7
ROMANS
100
AcDbText
  0
TEXT
  5
2DCB
330
1B
100
AcDbEntity
 67
     1
  8
DATA
100
AcDbText
 10
68.95092837047787
 20
58.0
 30
0.0
 40
2.4
  1
 2.30x10  [0.079]
 41
0.7
  7
ROMANS
100
AcDbText
  0
LINE
  5
2DD6
330
1B
100
AcDbEntity
 67
     1
  8
SPEC
100
AcDbLine
 10
146.0009154015513
 20
46.65598901220142
 30
0.0
 11
151.0009154015513
 21
46.65598901220142
 31
0.0
  0
LINE
  5
2DD7
330
1B
100
AcDbEntity
 67
     1
  8
SPEC
100
AcDbLine
 10
150.0009154015513
 20
51.6559890122013
 30
0.0
 11
150.0009154015513
 21
21.6559890122013
 31
0.0
  0
LINE
  5
2DD8
330
1B
100
AcDbEntity
 67
     1
  8
SPEC
100
AcDbLine
 10
140.0009154015513
 20
36.65598901220131
 30
0.0
 11
155.0009154015513
 21
36.65598901220136
 31
0.0
  0
LINE
  5
2DD9
330
1B
100
AcDbEntity
 67
     1
  8
SPEC
100
AcDbLine
 10
165.0009154015513
 20
36.65598901220136
 30
0.0
 11
165.0009154015513
 21
21.6559890122013
 31
0.0
  0
TEXT
  5
2DE0
330
1B
100
AcDbEntity
 67
     1
  8
DATA
100
AcDbText
 10
121.8283491883755
 20
23.0
 30
0.0
 40
2.4
  1
AT LOAD MAX: (N)
 41
0.7
  7
ROMANS
100
AcDbText
  0
LINE
  5
2DE5
330
1B
100
AcDbEntity
 67
     1
  8
SPEC
100
AcDbLine
 10
137.8962393407465
 20
74.09868988223387
 30
0.0
 11
147.6137908953366
 21
74.09868988223387
 31
0.0
  0
LINE
  5
2DE6
330
1B
100
AcDbEntity
 67
     1
  8
SPEC
100
AcDbLine
 10
137.8962393407465
 20
77.86988889332109
 30
0.0
 11
147.6137908953366
 21
77.86988889332109
 31
0.0
  0
LINE
  5
2DE7
330
1B
100
AcDbEntity
 67
     1
  8
SPEC
100
AcDbLine
 10
137.8962393407465
 20
74.09868988223387
 30
0.0
 11
137.8962393407465
 21
77.86988889332109
 31
0.0
  0
MTEXT
  5
2E04
330
1B
100
AcDbEntity
 67
     1
  8
SPEC
 62
     6
100
AcDbMText
 10
155.5187721793249
 20
89.62880385942026
 30
0.0
 40
2.0
 41
0.0
 71
     1
 72
     1
  1
BEARING
  7
ROMANS
 73
     1
 44
1.0
1001
ACAD
1000
ACAD_MTEXT_DEFINED_HEIGHT_BEGIN
1070
    46
1040
0.0
1000
ACAD_MTEXT_DEFINED_HEIGHT_END
1000
MTEXTBEGIN
1070
    73
1070
     1
1070
    44
1040
1.0
1070
    74
1070
     0
1000
MTEXTEND
  0
LEADER
  5
2E07
330
1B
100
AcDbEntity
 67
     1
  8
SPEC
100
AcDbLeader
  3
STANDARD
 76
     2
 10
166.2803647814078
 20
79.73750543735114
 30
0.0
 10
160.8271563148611
 20
87.12304269521258
 30
0.0
1001
ACAD
1000
DSTYLE
1002
{
1070
   147
1040
1.0
1070
    77
1070
     0
1002
}
  0
LEADER
  5
2E09
330
1B
100
AcDbEntity
 67
     1
  8
SPEC
100
AcDbLeader
  3
STANDARD
 76
     2
 10
150.7470855689485
 20
79.73750543735114
 30
0.0
 10
156.7956208247884
 20
86.83653569069861
 30
0.0
1001
ACAD
1000
DSTYLE
1002
{
1070
   147
1040
1.0
1070
    77
1070
     0
1002
}
  0
LEADER
  5
2E0A
330
1B
100
AcDbEntity
 67
     1
  8
SPEC
100
AcDbLeader
  3
STANDARD
 73
     0
 75
     1
 40
5.333333333333333
 41
9.066666666666666
 76
     3
 10
168.5734045934214
 20
80.74081741993238
 30
0.0
 10
177.085357489354
 20
94.46023307290511
 30
0.0
 10
174.085357489354
 20
94.46023307290511
 30
0.0
340
2E0B
213
1.161548087573919
223
-4.427990251304436
233
0.0
1001
ACAD
1000
DSTYLE
1002
{
1070
   147
1040
1.0
1070
    77
1070
     0
1002
}
  0
MTEXT
  5
2E0B
102
{ACAD_REACTORS
330
2E0A
102
}
330
1B
100
AcDbEntity
 67
     1
  8
SPEC
 62
     6
100
AcDbMText
 10
171.9238094017801
 20
98.88822332420955
 30
0.0
 40
2.0
 41
0.0
 71
     3
 72
     1
  1
SPRING\PWASHER
  7
ROMANS
 73
     1
 44
1.0
1001
ACAD
1000
ACAD_MTEXT_DEFINED_HEIGHT_BEGIN
1070
    46
1040
0.0
1000
ACAD_MTEXT_DEFINED_HEIGHT_END
1000
MTEXTBEGIN
1070
    73
1070
     1
1070
    44
1040
1.0
1070
    74
1070
     0
1000
MTEXTEND
  0
MTEXT
  5
2E48
330
1B
100
AcDbEntity
 67
     1
  8
SPEC
 62
     6
100
AcDbMText
 10
121.8786983663672
 20
99.27994356100203
 30
0.0
 40
2.0
 41
0.0
 71
     1
 72
     1
  1
ROTOR SPRING-\PMOUNTED IN\PAXIAL DIRECTION
  7
ROMANS
 73
     1
 44
1.0
1001
ACAD
1000
ACAD_MTEXT_DEFINED_HEIGHT_BEGIN
1070
    46
1040
0.0
1000
ACAD_MTEXT_DEFINED_HEIGHT_END
1000
MTEXTBEGIN
1070
    73
1070
     1
1070
    44
1040
1.0
1070
    74
1070
     0
1000
MTEXTEND
  0
LEADER
  5
2E5C
330
1B
100
AcDbEntity
 67
     1
  8
DIM
100
AcDbLeader
  3
STANDARD
 76
     2
 10
141.5179864032658
 20
89.06775256840445
 30
0.0
 10
122.2566843209139
 20
89.06775256840445
 30
0.0
1001
ACAD
1000
DSTYLE
1002
{
1070
   147
1040
1.0
1070
    77
1070
     0
1002
}
  0
LINE
  5
390D
330
1B
100
AcDbEntity
 67
     1
  8
SPEC
100
AcDbLine
 10
99.00091540155131
 20
106.6559890122015
 30
0.0
 11
99.00091540155132
 21
76.65598901220142
 31
0.0
  0
TEXT
  5
3919
330
1B
100
AcDbEntity
 67
     1
  8
DATA
100
AcDbText
 10
101.0
 20
88.00000000000002
 30
0.0
 40
2.4
  1
1.6%%P15%%%
 41
0.7
  7
ROMANS
100
AcDbText
  0
TEXT
  5
391A
330
1B
100
AcDbEntity
 67
     1
  8
DATA
100
AcDbText
 10
101.0
 20
93.00000000000002
 30
0.0
 40
2.4
  1
2.26
 41
0.7
  7
ROMANS
100
AcDbText
  0
TEXT
  5
391C
330
1B
100
AcDbEntity
 67
     1
  8
DATA
100
AcDbText
 10
104.8283491883756
 20
102.617252115867
 30
0.0
 40
2.399999999999999
  1
PARALLEL
 41
0.7
  7
ROMANS
100
AcDbText
  0
TEXT
  5
391D
330
1B
100
AcDbEntity
 67
     1
  8
DATA
100
AcDbText
 10
101.0
 20
83.00000000000002
 30
0.0
 40
2.399999999999999
  1
6.3%%P20%%%
 41
0.7
  7
ROMANS
100
AcDbText
  0
LINE
  5
391F
330
1B
100
AcDbEntity
 67
     1
  8
SPEC
100
AcDbLine
 10
78.00091540155131
 20
106.6559890122015
 30
0.0
 11
120.0009154015513
 21
106.6559890122015
 31
0.0
  0
TEXT
  5
3926
330
1B
100
AcDbEntity
 67
     1
  8
DATA
100
AcDbText
 10
101.0
 20
78.0
 30
0.0
 40
2.4
  1
1.48 [13.1]
 41
0.7
  7
ROMANS
100
AcDbText
  0
MTEXT
  5
39AA
330
1B
100
AcDbEntity
 67
     1
  8
DATA
100
AcDbMText
 10
68.82834918837557
 20
76.11725211586701
 30
0.0
 40
2.399999999999999
 41
50.69688999264281
 71
     1
 72
     5
  1
{\W0.7;0.0315 [0.279]}
  7
ROMANS
 73
     1
 44
1.0
1001
ACAD
1000
ACAD_MTEXT_DEFINED_HEIGHT_BEGIN
1070
    46
1040
0.0
1000
ACAD_MTEXT_DEFINED_HEIGHT_END
1000
MTEXTBEGIN
1070
    73
1070
     1
1070
    44
1040
1.0
1070
    74
1070
     0
1000
MTEXTEND
  0
TEXT
  5
4F82
330
1B
100
AcDbEntity
 67
     1
  8
DATA
100
AcDbText
 10
94.6233414402401
 20
4.692527613197721
 30
0.0
 40
3.861395999999999
  1
SH5618L1608
 41
0.7
  7
ROMANS
100
AcDbText
  0
TEXT
  5
576D
330
1B
100
AcDbEntity
 67
     1
  8
DATA
100
AcDbText
 10
245.3333333372
 20
41.0
 30
0.0
 40
1.9999999992
  1
(A\) BLK
 41
0.7
  7
ROMANS
 72
     2
 11
255.0
 21
41.0
 31
0.0
100
AcDbText
  0
TEXT
  5
576E
330
1B
100
AcDbEntity
 67
     1
  8
DATA
100
AcDbText
 10
245.40000000384
 20
49.0
 30
0.0
 40
1.9999999992
  1
RED/WHT
 41
0.7
  7
ROMANS
 72
     2
 11
255.0
 21
49.0
 31
0.0
100
AcDbText
  0
TEXT
  5
576F
330
1B
100
AcDbEntity
 67
     1
  8
DATA
100
AcDbText
 10
245.53333333712
 20
46.0
 30
0.0
 40
1.9999999992
  1
BLK/WHT
 41
0.7
  7
ROMANS
 72
     2
 11
255.0
 21
46.0
 31
0.0
100
AcDbText
  0
TEXT
  5
5770
330
1B
100
AcDbEntity
 67
     1
  8
DATA
100
AcDbText
 10
246.66666667
 20
54.0
 30
0.0
 40
1.9999999992
  1
(A) RED
 41
0.7
  7
ROMANS
 72
     2
 11
255.0
 21
54.0
 31
0.0
100
AcDbText
  0
ARC
  5
5771
330
1B
100
AcDbEntity
 67
     1
  8
DATA
100
AcDbCircle
 10
261.4632368499487
 20
45.44719906956605
 30
0.0
 40
0.568285714058395
100
AcDbArc
 50
90.0
 51
270.0
  0
CIRCLE
  5
5772
330
1B
100
AcDbEntity
 67
     1
  8
DATA
100
AcDbCircle
 10
269.0912901033259
 20
48.64999397670088
 30
0.0
 40
5.453506041597846
  0
ARC
  5
5773
330
1B
100
AcDbEntity
 67
     1
  8
DATA
100
AcDbCircle
 10
273.4383797023015
 20
41.31491335693323
 30
0.0
 40
0.568285714058395
100
AcDbArc
 50
180.0
 51
0.0
  0
TEXT
  5
5774
330
1B
100
AcDbEntity
 67
     1
  8
DATA
100
AcDbText
 10
267.9999999992
 20
25.20000000392001
 30
0.0
 40
1.9999999992
  1
GRN/WHT
 50
90.0
 41
0.7
  7
ROMANS
 72
     2
 11
266.0
 21
35.0
 31
0.0
100
AcDbText
 73
     3
  0
TEXT
  5
5775
330
1B
100
AcDbEntity
 67
     1
  8
DATA
100
AcDbText
 10
270.9999999992
 20
25.86666667032
 30
0.0
 40
1.9999999992
  1
YEL/WHT
 50
90.0
 41
0.7
  7
ROMANS
 72
     2
 11
269.0
 21
35.0
 31
0.0
100
AcDbText
 73
     3
  0
TEXT
  5
5776
330
1B
100
AcDbEntity
 67
     1
  8
DATA
100
AcDbText
 10
262.9999999992
 20
26.3333333368
 30
0.0
 40
1.9999999992
  1
(B) GRN
 50
90.0
 41
0.7
  7
ROMANS
 72
     2
 11
261.0
 21
35.0
 31
0.0
100
AcDbText
 73
     3
  0
ARC
  5
5777
330
1B
100
AcDbEntity
 67
     1
  8
DATA
100
AcDbCircle
 10
265.1018082770647
 20
41.31491335693323
 30
0.0
 40
0.568285714058395
100
AcDbArc
 50
180.0
 51
0.0
  0
LINE
  5
5778
330
1B
100
AcDbEntity
 67
     1
  8
DATA
100
AcDbLine
 10
262.3735225638703
 20
36.95891335867563
 30
0.0
 11
262.3735225638703
 21
41.31491335693323
 31
0.0
  0
CIRCLE
  5
5779
330
1B
100
AcDbEntity
 67
     1
  8
DATA
100
AcDbCircle
 10
262.3735225638703
 20
36.57834193025641
 30
0.0
 40
0.3805714284191993
  0
LINE
  5
577A
330
1B
100
AcDbEntity
 67
     1
  8
DATA
100
AcDbLine
 10
261.4632368499487
 20
42.61605621355562
 30
0.0
 11
257.1072368516912
 21
42.61605621355562
 31
0.0
  0
CIRCLE
  5
577B
330
1B
100
AcDbEntity
 67
     1
  8
DATA
100
AcDbCircle
 10
256.7266654232719
 20
42.61605621355562
 30
0.0
 40
0.3805714284191993
  0
LINE
  5
577C
330
1B
100
AcDbEntity
 67
     1
  8
DATA
100
AcDbLine
 10
262.3735225638703
 20
41.31491335693323
 30
0.0
 11
263.3969511348895
 21
41.31491335693323
 31
0.0
  0
ARC
  5
577D
330
1B
100
AcDbEntity
 67
     1
  8
DATA
100
AcDbCircle
 10
263.9652368489479
 20
41.31491335693323
 30
0.0
 40
0.568285714058395
100
AcDbArc
 50
180.0
 51
0.0
  0
ARC
  5
577E
330
1B
100
AcDbEntity
 67
     1
  8
DATA
100
AcDbCircle
 10
261.4632368499487
 20
44.31062764144927
 30
0.0
 40
0.568285714058395
100
AcDbArc
 50
90.0
 51
270.0
  0
LINE
  5
577F
330
1B
100
AcDbEntity
 67
     1
  8
DATA
100
AcDbLine
 10
261.4632368499487
 20
43.74234192739061
 30
0.0
 11
261.4632368499487
 21
42.61605621355562
 31
0.0
  0
LINE
  5
5780
330
1B
100
AcDbEntity
 67
     1
  8
DATA
100
AcDbLine
 10
269.5735225609904
 20
36.95891335867563
 30
0.0
 11
269.5735225609904
 21
41.31491335693323
 31
0.0
  0
LINE
  5
5781
330
1B
100
AcDbEntity
 67
     1
  8
DATA
100
AcDbLine
 10
267.9329511330751
 20
41.31491335693323
 30
0.0
 11
267.9329511330751
 21
36.95891335867563
 31
0.0
  0
CIRCLE
  5
5782
330
1B
100
AcDbEntity
 67
     1
  8
DATA
100
AcDbCircle
 10
267.9329511330751
 20
36.57834193025641
 30
0.0
 40
0.3805714284191993
  0
CIRCLE
  5
5783
330
1B
100
AcDbEntity
 67
     1
  8
DATA
100
AcDbCircle
 10
269.5735225609904
 20
36.57834193025641
 30
0.0
 40
0.3805714284191993
  0
ARC
  5
5784
330
1B
100
AcDbEntity
 67
     1
  8
DATA
100
AcDbCircle
 10
266.2383797051815
 20
41.31491335693323
 30
0.0
 40
0.568285714058395
100
AcDbArc
 50
180.0
 51
0.0
  0
LINE
  5
5785
330
1B
100
AcDbEntity
 67
     1
  8
DATA
100
AcDbLine
 10
266.8066654192402
 20
41.31491335693323
 30
0.0
 11
267.9329511330751
 21
41.31491335693323
 31
0.0
  0
ARC
  5
5786
330
1B
100
AcDbEntity
 67
     1
  8
DATA
100
AcDbCircle
 10
271.1652368460679
 20
41.31491335693323
 30
0.0
 40
0.568285714058395
100
AcDbArc
 50
180.0
 51
0.0
  0
LINE
  5
5787
330
1B
100
AcDbEntity
 67
     1
  8
DATA
100
AcDbLine
 10
269.5735225609904
 20
41.31491335693323
 30
0.0
 11
270.5969511320096
 21
41.31491335693323
 31
0.0
  0
ARC
  5
5788
330
1B
100
AcDbEntity
 67
     1
  8
DATA
100
AcDbCircle
 10
272.3018082741847
 20
41.31491335693323
 30
0.0
 40
0.568285714058395
100
AcDbArc
 50
180.0
 51
0.0
  0
TEXT
  5
5789
330
1B
100
AcDbEntity
 67
     1
  8
DATA
100
AcDbText
 10
275.9999999992
 20
25.3333333372
 30
0.0
 40
1.9999999992
  1
(B\) YEL
 50
90.0
 41
0.7
  7
ROMANS
 72
     2
 11
274.0
 21
35.0
 31
0.0
100
AcDbText
 73
     3
  0
LINE
  5
578A
330
1B
100
AcDbEntity
 67
     1
  8
DATA
100
AcDbLine
 10
275.1329511301951
 20
41.31491335693323
 30
0.0
 11
275.1329511301951
 21
36.95891335867563
 31
0.0
  0
CIRCLE
  5
578B
330
1B
100
AcDbEntity
 67
     1
  8
DATA
100
AcDbCircle
 10
275.1329511301951
 20
36.57834193025641
 30
0.0
 40
0.3805714284191993
  0
LINE
  5
578C
330
1B
100
AcDbEntity
 67
     1
  8
DATA
100
AcDbLine
 10
274.0066654163602
 20
41.31491335693323
 30
0.0
 11
275.1329511301951
 21
41.31491335693323
 31
0.0
  0
ARC
  5
578D
330
1B
100
AcDbEntity
 67
     1
  8
DATA
100
AcDbCircle
 10
261.4632368499487
 20
51.51062763856929
 30
0.0
 40
0.568285714058395
100
AcDbArc
 50
90.0
 51
270.0
  0
LINE
  5
578E
330
1B
100
AcDbEntity
 67
     1
  8
DATA
100
AcDbLine
 10
257.1072368516912
 20
48.17548478276044
 30
0.0
 11
261.4632368499487
 21
48.17548478276044
 31
0.0
  0
LINE
  5
578F
330
1B
100
AcDbEntity
 67
     1
  8
DATA
100
AcDbLine
 10
261.4632368499487
 20
49.81605621067564
 30
0.0
 11
257.1072368516912
 21
49.81605621067564
 31
0.0
  0
CIRCLE
  5
5790
330
1B
100
AcDbEntity
 67
     1
  8
DATA
100
AcDbCircle
 10
256.7266654232719
 20
48.17548478276044
 30
0.0
 40
0.3805714284191993
  0
CIRCLE
  5
5791
330
1B
100
AcDbEntity
 67
     1
  8
DATA
100
AcDbCircle
 10
256.7266654232719
 20
49.81605621067564
 30
0.0
 40
0.3805714284191993
  0
LINE
  5
5792
330
1B
100
AcDbEntity
 67
     1
  8
DATA
100
AcDbLine
 10
261.4632368499487
 20
48.17548478276044
 30
0.0
 11
261.4632368499487
 21
47.15205621174123
 31
0.0
  0
ARC
  5
5793
330
1B
100
AcDbEntity
 67
     1
  8
DATA
100
AcDbCircle
 10
261.4632368499487
 20
46.58377049768286
 30
0.0
 40
0.568285714058395
100
AcDbArc
 50
90.0
 51
270.0
  0
LINE
  5
5794
330
1B
100
AcDbEntity
 67
     1
  8
DATA
100
AcDbLine
 10
261.4632368499487
 20
50.94234192451063
 30
0.0
 11
261.4632368499487
 21
49.81605621067564
 31
0.0
  0
LINE
  5
5795
330
1B
100
AcDbEntity
 67
     1
  8
DATA
100
AcDbLine
 10
257.1072368516912
 20
55.37548477988045
 30
0.0
 11
261.4632368499487
 21
55.37548477988045
 31
0.0
  0
CIRCLE
  5
5796
330
1B
100
AcDbEntity
 67
     1
  8
DATA
100
AcDbCircle
 10
256.7266654232719
 20
55.37548477988045
 30
0.0
 40
0.3805714284191993
  0
ARC
  5
5797
330
1B
100
AcDbEntity
 67
     1
  8
DATA
100
AcDbCircle
 10
261.4632368499487
 20
53.78377049480288
 30
0.0
 40
0.568285714058395
100
AcDbArc
 50
90.0
 51
270.0
  0
ARC
  5
5798
330
1B
100
AcDbEntity
 67
     1
  8
DATA
100
AcDbCircle
 10
261.4632368499487
 20
52.64719906668607
 30
0.0
 40
0.568285714058395
100
AcDbArc
 50
90.0
 51
270.0
  0
LINE
  5
5799
330
1B
100
AcDbEntity
 67
     1
  8
DATA
100
AcDbLine
 10
261.4632368499487
 20
55.37548477988045
 30
0.0
 11
261.4632368499487
 21
54.35205620886126
 31
0.0
  0
TEXT
  5
579A
330
1B
100
AcDbEntity
 67
     1
  8
DATA
100
AcDbText
 10
247.6808558342373
 20
58.43986640626493
 30
0.0
 40
2.499999999
  1
WIRING DIAGRAM
 41
0.7
  7
ROMANS
100
AcDbText
  0
TEXT
  5
5AEE
330
1B
100
AcDbEntity
 67
     1
  8
DATA
100
AcDbText
 10
233.7068271283334
 20
46.62418850017655
 30
0.0
 40
2.4
  1
CCW
 41
0.7
  7
ROMANS
 72
     1
 11
236.3868271283334
 21
46.62418850017655
 31
0.0
100
AcDbText
  0
SOLID
  5
5AEF
330
1B
100
AcDbEntity
 67
     1
  8
DATA
100
AcDbTrace
 10
235.7922979078902
 20
41.7437254336985
 30
0.0
 11
236.5922979078904
 21
41.7437254336985
 31
0.0
 12
236.1922979078903
 22
44.14372543369836
 32
0.0
 13
236.1922979078903
 23
44.14372543369836
 33
0.0
  0
TEXT
  5
5AF0
330
1B
100
AcDbEntity
 67
     1
  8
DATA
100
AcDbText
 10
221.2828061425817
 20
46.68693641362074
 30
0.0
 40
2.4
  1
B\
 41
0.7
  7
ROMANS
 72
     1
 11
223.0828061425817
 21
46.68693641362074
 31
0.0
100
AcDbText
  0
TEXT
  5
5AF1
330
1B
100
AcDbEntity
 67
     1
  8
DATA
100
AcDbText
 10
213.5228061425817
 20
46.68693641362074
 30
0.0
 40
2.4
  1
A\
 41
0.7
  7
ROMANS
 72
     1
 11
215.0828061425817
 21
46.68693641362074
 31
0.0
100
AcDbText
  0
TEXT
  5
5AF2
330
1B
100
AcDbEntity
 67
     1
  8
DATA
100
AcDbText
 10
222.1854042670655
 20
41.88693641362078
 30
0.0
 40
2.4
  1
-
 41
0.7
  7
ROMANS
 72
     1
 11
223.2254042670655
 21
41.88693641362078
 31
0.0
100
AcDbText
  0
TEXT
  5
5AF3
330
1B
100
AcDbEntity
 67
     1
  8
DATA
100
AcDbText
 10
222.1854042670655
 20
37.31056476404092
 30
0.0
 40
2.4
  1
-
 41
0.7
  7
ROMANS
 72
     1
 11
223.2254042670655
 21
37.31056476404092
 31
0.0
100
AcDbText
  0
LINE
  5
5AF4
330
1B
100
AcDbEntity
 67
     1
  8
DATA
100
AcDbLine
 10
230.1012975980283
 20
34.36166438344162
 30
0.0
 11
230.1012975980283
 21
44.81305693282934
 31
0.0
  0
TEXT
  5
5AF5
330
1B
100
AcDbEntity
 67
     1
  8
DATA
100
AcDbText
 10
214.1854042670655
 20
41.88693641362078
 30
0.0
 40
2.4
  1
-
 41
0.7
  7
ROMANS
 72
     1
 11
215.2254042670655
 21
41.88693641362078
 31
0.0
100
AcDbText
  0
TEXT
  5
5AF6
330
1B
100
AcDbEntity
 67
     1
  8
DATA
100
AcDbText
 10
214.0428061425817
 20
37.08693641362084
 30
0.0
 40
2.4
  1
+
 41
0.7
  7
ROMANS
 72
     1
 11
215.0828061425817
 21
37.08693641362084
 31
0.0
100
AcDbText
  0
TEXT
  5
5AF7
330
1B
100
AcDbEntity
 67
     1
  8
DATA
100
AcDbText
 10
206.2028061425817
 20
46.68693641362074
 30
0.0
 40
2.4
  1
B
 41
0.7
  7
ROMANS
 72
     1
 11
207.0828061425817
 21
46.68693641362074
 31
0.0
100
AcDbText
  0
TEXT
  5
5AF8
330
1B
100
AcDbEntity
 67
     1
  8
DATA
100
AcDbText
 10
198.3628061425817
 20
46.68693641362074
 30
0.0
 40
2.4
  1
A
 41
0.7
  7
ROMANS
 72
     1
 11
199.0828061425817
 21
46.68693641362074
 31
0.0
100
AcDbText
  0
TEXT
  5
5AF9
330
1B
100
AcDbEntity
 67
     1
  8
DATA
100
AcDbText
 10
205.8138328081032
 20
32.27655566545809
 30
0.0
 40
2.4
  1
-
 41
0.7
  7
ROMANS
 72
     1
 11
206.8538328081032
 21
32.27655566545809
 31
0.0
100
AcDbText
  0
TEXT
  5
5AFA
330
1B
100
AcDbEntity
 67
     1
  8
DATA
100
AcDbText
 10
197.8138328081032
 20
32.27655566545809
 30
0.0
 40
2.4
  1
-
 41
0.7
  7
ROMANS
 72
     1
 11
198.8538328081032
 21
32.27655566545809
 31
0.0
100
AcDbText
  0
TEXT
  5
5AFB
330
1B
100
AcDbEntity
 67
     1
  8
DATA
100
AcDbText
 10
222.0428061425817
 20
27.4869364136207
 30
0.0
 40
2.4
  1
+
 41
0.7
  7
ROMANS
 72
     1
 11
223.0828061425817
 21
27.4869364136207
 31
0.0
100
AcDbText
  0
TEXT
  5
5AFC
330
1B
100
AcDbEntity
 67
     1
  8
DATA
100
AcDbText
 10
214.0568615897135
 20
27.35695582768153
 30
0.0
 40
2.4
  1
-
 41
0.7
  7
ROMANS
 72
     1
 11
215.0968615897135
 21
27.35695582768153
 31
0.0
100
AcDbText
  0
TEXT
  5
5AFD
330
1B
100
AcDbEntity
 67
     1
  8
DATA
100
AcDbText
 10
206.0568615897135
 20
27.35695582768153
 30
0.0
 40
2.4
  1
-
 41
0.7
  7
ROMANS
 72
     1
 11
207.0968615897135
 21
27.35695582768153
 31
0.0
100
AcDbText
  0
TEXT
  5
5AFE
330
1B
100
AcDbEntity
 67
     1
  8
DATA
100
AcDbText
 10
198.0428061425817
 20
27.4869364136207
 30
0.0
 40
2.4
  1
+
 41
0.7
  7
ROMANS
 72
     1
 11
199.0828061425817
 21
27.4869364136207
 31
0.0
100
AcDbText
  0
TEXT
  5
5AFF
330
1B
100
AcDbEntity
 67
     1
  8
DATA
100
AcDbText
 10
228.4913822100839
 20
27.79231129478513
 30
0.0
 40
2.4
  1
CW
 41
0.7
  7
ROMANS
 72
     1
 11
230.3313822100839
 21
27.79231129478513
 31
0.0
100
AcDbText
  0
LINE
  5
5B00
330
1B
100
AcDbEntity
 67
     1
  8
DATA
100
AcDbLine
 10
195.0828061425817
 20
50.28693641362065
 30
0.0
 11
195.0828061425817
 21
26.28693641362065
 31
0.0
  0
LINE
  5
5B01
330
1B
100
AcDbEntity
 67
     1
  8
DATA
100
AcDbLine
 10
239.2932888244301
 20
50.28693641362065
 30
0.0
 11
239.2932888244301
 21
26.28693641362065
 31
0.0
  0
LINE
  5
5B02
330
1B
100
AcDbEntity
 67
     1
  8
DATA
100
AcDbLine
 10
236.1922979078903
 20
41.7437254336985
 30
0.0
 11
236.1922979078903
 21
31.98357864943023
 31
0.0
  0
SOLID
  5
5B03
330
1B
100
AcDbEntity
 67
     1
  8
DATA
100
AcDbTrace
 10
230.5012975980284
 20
34.36166438344162
 30
0.0
 11
229.7012975980282
 21
34.36166438344162
 31
0.0
 12
230.1012975980283
 22
31.96166438344153
 32
0.0
 13
230.1012975980283
 23
31.96166438344153
 33
0.0
  0
LINE
  5
5B04
330
1B
100
AcDbEntity
 67
     1
  8
DATA
100
AcDbLine
 10
232.943052944977
 20
50.28693641362065
 30
0.0
 11
232.943052944977
 21
26.28693641362065
 31
0.0
  0
TEXT
  5
5B05
330
1B
100
AcDbEntity
 67
     1
  8
DATA
100
AcDbText
 10
222.0428061425817
 20
32.28693641362065
 30
0.0
 40
2.4
  1
+
 41
0.7
  7
ROMANS
 72
     1
 11
223.0828061425817
 21
32.28693641362065
 31
0.0
100
AcDbText
  0
TEXT
  5
5B06
330
1B
100
AcDbEntity
 67
     1
  8
DATA
100
AcDbText
 10
214.0428061425817
 20
32.28693641362065
 30
0.0
 40
2.4
  1
+
 41
0.7
  7
ROMANS
 72
     1
 11
215.0828061425817
 21
32.28693641362065
 31
0.0
100
AcDbText
  0
LINE
  5
5B07
330
1B
100
AcDbEntity
 67
     1
  8
DATA
100
AcDbLine
 10
227.0828061425817
 20
50.28693641362065
 30
0.0
 11
227.0828061425817
 21
26.28693641362065
 31
0.0
  0
LINE
  5
5B08
330
1B
100
AcDbEntity
 67
     1
  8
DATA
100
AcDbLine
 10
219.0828061425817
 20
50.28693641362065
 30
0.0
 11
219.0828061425817
 21
26.28693641362065
 31
0.0
  0
LINE
  5
5B09
330
1B
100
AcDbEntity
 67
     1
  8
DATA
100
AcDbLine
 10
211.0828061425817
 20
50.28693641362065
 30
0.0
 11
211.0828061425817
 21
26.28693641362065
 31
0.0
  0
TEXT
  5
5B0A
330
1B
100
AcDbEntity
 67
     1
  8
DATA
100
AcDbText
 10
190.4028061425817
 20
41.88693641362078
 30
0.0
 40
2.4
  1
1
 41
0.7
  7
ROMANS
 72
     1
 11
191.0828061425817
 21
41.88693641362078
 31
0.0
100
AcDbText
  0
TEXT
  5
5B0B
330
1B
100
AcDbEntity
 67
     1
  8
DATA
100
AcDbText
 10
190.2828061425817
 20
37.08693641362084
 30
0.0
 40
2.4
  1
2
 41
0.7
  7
ROMANS
 72
     1
 11
191.0828061425817
 21
37.08693641362084
 31
0.0
100
AcDbText
  0
TEXT
  5
5B0C
330
1B
100
AcDbEntity
 67
     1
  8
DATA
100
AcDbText
 10
190.2428061425817
 20
27.4869364136207
 30
0.0
 40
2.4
  1
4
 41
0.7
  7
ROMANS
 72
     1
 11
191.0828061425817
 21
27.4869364136207
 31
0.0
100
AcDbText
  0
TEXT
  5
5B0D
330
1B
100
AcDbEntity
 67
     1
  8
DATA
100
AcDbText
 10
190.2828061425817
 20
32.28693641362065
 30
0.0
 40
2.4
  1
3
 41
0.7
  7
ROMANS
 72
     1
 11
191.0828061425817
 21
32.28693641362065
 31
0.0
100
AcDbText
  0
LINE
  5
5B0E
330
1B
100
AcDbEntity
 67
     1
  8
DATA
100
AcDbLine
 10
187.0828061425817
 20
50.28693641362065
 30
0.0
 11
187.0828061425817
 21
26.28693641362065
 31
0.0
  0
TEXT
  5
5B0F
330
1B
100
AcDbEntity
 67
     1
  8
DATA
100
AcDbText
 10
187.0828061425817
 20
51.69646022314464
 30
0.0
 40
2.8
  1
WHEN FACING MOUNTING END (X)
 41
0.7
  7
ROMANS
100
AcDbText
  0
TEXT
  5
5B10
330
1B
100
AcDbEntity
 67
     1
  8
DATA
100
AcDbText
 10
186.9159241000208
 20
56.28693641362065
 30
0.0
 40
2.8
  1
FULL STEP 2 PHASE-Ex.,
 41
0.7
  7
ROMANS
100
AcDbText
  0
LINE
  5
5B11
330
1B
100
AcDbEntity
 67
     1
  8
DATA
100
AcDbLine
 10
187.0828061425817
 20
45.4869364136207
 30
0.0
 11
227.0828061425817
 21
45.4869364136207
 31
0.0
  0
LINE
  5
5B12
330
1B
100
AcDbEntity
 67
     1
  8
DATA
100
AcDbLine
 10
187.0828061425817
 20
31.08693641362084
 30
0.0
 11
227.0828061425817
 21
31.08693641362084
 31
0.0
  0
LINE
  5
5B13
330
1B
100
AcDbEntity
 67
     1
  8
DATA
100
AcDbLine
 10
239.2932888244301
 20
50.28693641362065
 30
0.0
 11
187.0828061425817
 21
50.28693641362065
 31
0.0
  0
LINE
  5
5B14
330
1B
100
AcDbEntity
 67
     1
  8
DATA
100
AcDbLine
 10
187.0828061425817
 20
26.28693641362065
 30
0.0
 11
239.2932888244301
 21
26.28693641362065
 31
0.0
  0
TEXT
  5
5B15
330
1B
100
AcDbEntity
 67
     1
  8
DATA
100
AcDbText
 10
188.0428061425817
 20
46.68693641362074
 30
0.0
 40
2.4
  1
STEP
 41
0.7
  7
ROMANS
 72
     1
 11
191.0828061425817
 21
46.68693641362074
 31
0.0
100
AcDbText
  0
TEXT
  5
5B16
330
1B
100
AcDbEntity
 67
     1
  8
DATA
100
AcDbText
 10
206.0428061425817
 20
41.88693641362078
 30
0.0
 40
2.4
  1
+
 41
0.7
  7
ROMANS
 72
     1
 11
207.0828061425817
 21
41.88693641362078
 31
0.0
100
AcDbText
  0
TEXT
  5
5B17
330
1B
100
AcDbEntity
 67
     1
  8
DATA
100
AcDbText
 10
206.0428061425817
 20
37.08693641362084
 30
0.0
 40
2.4
  1
+
 41
0.7
  7
ROMANS
 72
     1
 11
207.0828061425817
 21
37.08693641362084
 31
0.0
100
AcDbText
  0
TEXT
  5
5B18
330
1B
100
AcDbEntity
 67
     1
  8
DATA
100
AcDbText
 10
198.0428061425817
 20
41.88693641362078
 30
0.0
 40
2.4
  1
+
 41
0.7
  7
ROMANS
 72
     1
 11
199.0828061425817
 21
41.88693641362078
 31
0.0
100
AcDbText
  0
TEXT
  5
5B19
330
1B
100
AcDbEntity
 67
     1
  8
DATA
100
AcDbText
 10
197.8138328081032
 20
37.08174583665027
 30
0.0
 40
2.4
  1
-
 41
0.7
  7
ROMANS
 72
     1
 11
198.8538328081032
 21
37.08174583665027
 31
0.0
100
AcDbText
  0
LINE
  5
5B1A
330
1B
100
AcDbEntity
 67
     1
  8
DATA
100
AcDbLine
 10
203.0828061425817
 20
50.28693641362065
 30
0.0
 11
203.0828061425817
 21
26.28693641362065
 31
0.0
  0
LINE
  5
5B1B
330
1B
100
AcDbEntity
 67
     1
  8
DATA
100
AcDbLine
 10
187.0828061425817
 20
40.68693641362074
 30
0.0
 11
227.0828061425817
 21
40.68693641362074
 31
0.0
  0
LINE
  5
5B1C
330
1B
100
AcDbEntity
 67
     1
  8
DATA
100
AcDbLine
 10
187.0828061425817
 20
35.88693641362079
 30
0.0
 11
227.0828061425817
 21
35.88693641362079
 31
0.0
  0
MTEXT
  5
5B1D
330
1B
100
AcDbEntity
 67
     1
  8
DATA
100
AcDbMText
 10
128.2344639665928
 20
79.4204407347795
 30
0.0
 40
2.399999999999999
 41
6.509999999999999
 71
     1
 72
     5
  1
F{\H0.8333x;a}
  7
ROMANS
 73
     1
 44
1.0
1001
ACAD
1000
ACAD_MTEXT_DEFINED_HEIGHT_BEGIN
1070
    46
1040
0.0
1000
ACAD_MTEXT_DEFINED_HEIGHT_END
1000
MTEXTBEGIN
1070
    73
1070
     1
1070
    44
1040
1.0
1070
    74
1070
     0
1000
MTEXTEND
  0
TEXT
  5
5B1E
330
1B
100
AcDbEntity
 67
     1
  8
CONNECTOR
100
AcDbText
 10
242.5785976500606
 20
78.66514701139573
 30
0.0
 40
2.3999999904
  1
BLK
 41
0.7
  7
ROMANS
100
AcDbText
  0
TEXT
  5
5B1F
330
1B
100
AcDbEntity
 67
     1
  8
CONNECTOR
100
AcDbText
 10
242.5785976500606
 20
74.7794327412243
 30
0.0
 40
2.3999999904
  1
GRN
 41
0.7
  7
ROMANS
100
AcDbText
  0
TEXT
  5
5B20
330
1B
100
AcDbEntity
 67
     1
  8
CONNECTOR
100
AcDbText
 10
242.5785976500606
 20
70.89371847105288
 30
0.0
 40
2.3999999904
  1
GRN/WHT
 41
0.7
  7
ROMANS
100
AcDbText
  0
LINE
  5
5B21
330
1B
100
AcDbEntity
 67
     1
  8
CONNECTOR
100
AcDbLine
 10
240.0682034580287
 20
74.13898732888604
 30
0.0
 11
256.0393726925287
 21
74.13898732445762
 31
0.0
  0
LINE
  5
5B22
330
1B
100
AcDbEntity
 67
     1
  8
CONNECTOR
100
AcDbLine
 10
240.0682034618103
 20
77.97572213011448
 30
0.0
 11
256.0393726925287
 21
77.97572212294278
 31
0.0
  0
TEXT
  5
5B23
330
1B
100
AcDbEntity
 67
     1
  8
CONNECTOR
100
AcDbText
 10
242.5785976500606
 20
90.32228982191004
 30
0.0
 40
2.3999999904
  1
RED
 41
0.7
  7
ROMANS
100
AcDbText
  0
TEXT
  5
5B24
330
1B
100
AcDbEntity
 67
     1
  8
CONNECTOR
100
AcDbText
 10
242.5785976500606
 20
86.43657555173859
 30
0.0
 40
2.3999999904
  1
RED/WHT
 41
0.7
  7
ROMANS
100
AcDbText
  0
LINE
  5
5B25
330
1B
100
AcDbEntity
 67
     1
  8
CONNECTOR
100
AcDbLine
 10
240.0682034732927
 20
89.62544391217432
 30
0.0
 11
256.0393726925287
 21
89.62544390774587
 31
0.0
  0
LINE
  5
5B26
330
1B
100
AcDbEntity
 67
     1
  8
CONNECTOR
100
AcDbLine
 10
240.0682034655919
 20
81.81245693392664
 30
0.0
 11
256.0393726925287
 21
81.81245692675494
 31
0.0
  0
LINE
  5
5B27
330
1B
100
AcDbEntity
 67
     1
  8
CONNECTOR
100
AcDbLine
 10
240.0682034693736
 20
85.64919173644687
 30
0.0
 11
256.0393726925287
 21
85.64919172798338
 31
0.0
  0
TEXT
  5
5B28
330
1B
100
AcDbEntity
 67
     1
  8
CONNECTOR
100
AcDbText
 10
242.5785976500606
 20
82.55086128156717
 30
0.0
 40
2.3999999904
  1
BLK/WHT
 41
0.7
  7
ROMANS
100
AcDbText
  0
LINE
  5
5B29
330
1B
100
AcDbEntity
 67
     1
  8
CONNECTOR
100
AcDbLine
 10
240.0682034541096
 20
70.16273515315868
 30
0.0
 11
256.0393726925287
 21
70.16273514873025
 31
0.0
  0
LINE
  5
5B2A
330
1B
100
AcDbEntity
 67
     1
  8
CONNECTOR
100
AcDbLine
 10
240.068203450328
 20
66.32600034934654
 30
0.0
 11
256.0393726925287
 21
66.32600034217484
 31
0.0
  0
TEXT
  5
5B2B
330
1B
100
AcDbEntity
 67
     1
  8
CONNECTOR
100
AcDbText
 10
242.5785976500606
 20
67.0154252306278
 30
0.0
 40
2.3999999904
  1
YEL/WHT
 41
0.7
  7
ROMANS
100
AcDbText
  0
TEXT
  5
5B2C
330
1B
100
AcDbEntity
 67
     1
  8
CONNECTOR
100
AcDbText
 10
242.5785976500606
 20
63.12971096045636
 30
0.0
 40
2.3999999904
  1
YEL
 41
0.7
  7
ROMANS
100
AcDbText
  0
LWPOLYLINE
  5
5B2D
330
1B
100
AcDbEntity
 67
     1
  8
CONNECTOR
100
AcDbPolyline
 90
        4
 70
     1
 43
0.0
 10
240.0682034847751
 20
101.2751655164238
 10
256.0393726925287
 20
101.2751652978669
 10
256.0393726543001
 20
62.48926555528981
 10
240.0682034465464
 20
62.48926555528981
  0
LINE
  5
5B2E
330
1B
100
AcDbEntity
 67
     1
  8
CONNECTOR
100
AcDbLine
 10
200.2948899730421
 20
101.2751660090053
 30
0.0
 11
200.2948899348135
 21
62.48926614951452
 31
0.0
  0
TEXT
  5
5B2F
330
1B
100
AcDbEntity
 67
     1
  8
CONNECTOR
100
AcDbText
 10
214.0103757680178
 20
98.07705108849267
 30
0.0
 40
2.3999999904
  1
BIPOLAR
 41
0.65
  7
ROMANS
100
AcDbText
  0
LWPOLYLINE
  5
5B30
330
1B
100
AcDbEntity
 67
     1
  8
CONNECTOR
100
AcDbPolyline
 90
        4
 70
     0
 43
0.0
 10
232.7445552278839
 20
91.50431976577753
 10
232.7445552278839
 20
91.50431976577753
 10
232.7445552278839
 20
84.03493457971324
 10
236.8945015079387
 20
84.03493455206044
  0
MTEXT
  5
5B31
330
1B
100
AcDbEntity
 67
     1
  8
CONNECTOR
100
AcDbMText
 10
228.1454756368693
 20
90.15809829153569
 30
0.0
 40
2.3999999904
 41
3.999999983999999
 71
     7
 72
     1
  1
{\W0.65;A}
  7
ROMANS
 73
     1
 44
1.0
1001
ACAD
1000
ACAD_MTEXT_DEFINED_HEIGHT_BEGIN
1070
    46
1040
0.0
1000
ACAD_MTEXT_DEFINED_HEIGHT_END
1000
MTEXTBEGIN
1070
    73
1070
     1
1070
    44
1040
1.0
1070
    74
1070
     0
1000
MTEXTEND
  0
MTEXT
  5
5B32
330
1B
100
AcDbEntity
 67
     1
  8
CONNECTOR
100
AcDbMText
 10
228.1454756368693
 20
78.32160683304869
 30
0.0
 40
2.3999999904
 41
3.999999983999999
 71
     7
 72
     1
  1
{\W0.65;A\\}
  7
ROMANS
 73
     1
 44
1.0
1001
ACAD
1000
ACAD_MTEXT_DEFINED_HEIGHT_BEGIN
1070
    46
1040
0.0
1000
ACAD_MTEXT_DEFINED_HEIGHT_END
1000
MTEXTBEGIN
1070
    73
1070
     1
1070
    44
1040
1.0
1070
    74
1070
     0
1000
MTEXTEND
  0
LINE
  5
5B33
102
{ACAD_REACTORS
330
5B35
102
}
330
1B
100
AcDbEntity
 67
     1
  8
CONNECTOR
100
AcDbLine
 10
263.8438865358194
 20
91.0195825612644
 30
0.0
 11
263.8438865358194
 21
87.88358257380838
 31
0.0
  0
LINE
  5
5B34
102
{ACAD_REACTORS
330
5B35
102
}
330
1B
100
AcDbEntity
 67
     1
  8
CONNECTOR
100
AcDbLine
 10
265.1878865304433
 20
87.88358257380838
 30
0.0
 11
265.1878865304433
 21
91.0195825612644
 31
0.0
  0
HATCH
  5
5B35
330
1B
100
AcDbEntity
 67
     1
  8
CONNECTOR
100
AcDbHatch
 10
0.0
 20
0.0
 30
0.0
210
0.0
220
0.0
230
1.0
  2
SOLID
 70
     1
 71
     1
 91
        1
 92
        1
 93
        4
 72
     1
 10
265.1878865304433
 20
91.0195825612644
 11
263.8438865358194
 21
91.0195825612644
 72
     1
 10
263.8438865358194
 20
91.0195825612644
 11
263.8438865358194
 21
87.88358257380838
 72
     1
 10
263.8438865358194
 20
87.88358257380838
 11
265.1878865304433
 21
87.88358257380838
 72
     1
 10
265.1878865304433
 20
87.88358257380838
 11
265.1878865304433
 21
91.0195825612644
 97
        4
330
5B39
330
5B33
330
5B36
330
5B34
 75
     0
 76
     1
 98
        1
 10
160.8038869479794
 20
11.94758287755238
  0
LINE
  5
5B36
102
{ACAD_REACTORS
330
5B35
102
}
330
1B
100
AcDbEntity
 67
     1
  8
CONNECTOR
100
AcDbLine
 10
263.8438865358194
 20
87.88358257380838
 30
0.0
 11
265.1878865304433
 21
87.88358257380838
 31
0.0
  0
LINE
  5
5B37
330
1B
100
AcDbEntity
 67
     1
  8
CONNECTOR
100
AcDbLine
 10
264.5158863758985
 20
86.68358257380841
 30
0.0
 11
259.2460786653489
 21
86.68358257380841
 31
0.0
  0
LINE
  5
5B38
330
1B
100
AcDbEntity
 67
     1
  8
CONNECTOR
100
AcDbLine
 10
264.5158863093595
 20
87.8835825738084
 30
0.0
 11
264.5158863758985
 21
86.68358257380841
 31
0.0
  0
LINE
  5
5B39
102
{ACAD_REACTORS
330
5B35
102
}
330
1B
100
AcDbEntity
 67
     1
  8
CONNECTOR
100
AcDbLine
 10
265.1878865304433
 20
91.0195825612644
 30
0.0
 11
263.8438865358194
 21
91.0195825612644
 31
0.0
  0
LINE
  5
5B3A
330
1B
100
AcDbEntity
 67
     1
  8
CONNECTOR
100
AcDbLine
 10
264.5158865216746
 20
92.21958256126436
 30
0.0
 11
259.246078811125
 21
92.21958256126436
 31
0.0
  0
LINE
  5
5B3B
330
1B
100
AcDbEntity
 67
     1
  8
CONNECTOR
100
AcDbLine
 10
264.5158865331314
 20
91.01958256126438
 30
0.0
 11
264.5158866229757
 21
92.21958256126436
 31
0.0
  0
MTEXT
  5
5B3C
330
1B
100
AcDbEntity
 67
     1
  8
CONNECTOR
100
AcDbMText
 10
266.7563531162018
 20
90.33537332193397
 30
0.0
 40
2.3999999904
 41
3.999999983999999
 71
     7
 72
     1
  1
{\W0.65;A}
  7
ROMANS
 73
     1
 44
1.0
1001
ACAD
1000
ACAD_MTEXT_DEFINED_HEIGHT_BEGIN
1070
    46
1040
0.0
1000
ACAD_MTEXT_DEFINED_HEIGHT_END
1000
MTEXTBEGIN
1070
    73
1070
     1
1070
    44
1040
1.0
1070
    74
1070
     0
1000
MTEXTEND
  0
MTEXT
  5
5B3D
330
1B
100
AcDbEntity
 67
     1
  8
CONNECTOR
100
AcDbMText
 10
228.1454756368693
 20
74.81344519485147
 30
0.0
 40
2.3999999904
 41
3.999999983999999
 71
     7
 72
     1
  1
{\W0.65;B}
  7
ROMANS
 73
     1
 44
1.0
1001
ACAD
1000
ACAD_MTEXT_DEFINED_HEIGHT_BEGIN
1070
    46
1040
0.0
1000
ACAD_MTEXT_DEFINED_HEIGHT_END
1000
MTEXTBEGIN
1070
    73
1070
     1
1070
    44
1040
1.0
1070
    74
1070
     0
1000
MTEXTEND
  0
LWPOLYLINE
  5
5B3E
330
1B
100
AcDbEntity
 67
     1
  8
CONNECTOR
100
AcDbPolyline
 90
        4
 70
     0
 43
0.0
 10
232.8142689334478
 20
75.9162709884191
 10
232.8142689334478
 20
75.9162709884191
 10
232.8142689334478
 20
68.44688580235483
 10
236.894501323083
 20
68.44688580055716
  0
LWPOLYLINE
  5
5B3F
330
1B
100
AcDbEntity
 67
     1
  8
CONNECTOR
100
AcDbPolyline
 90
        4
 70
     0
 43
0.0
 10
236.894501367372
 20
72.18157837359381
 10
234.6545012277374
 20
72.18157839538695
 10
234.6545012279892
 20
64.71222105909337
 10
236.7429124841455
 20
64.71222105826202
  0
MTEXT
  5
5B40
330
1B
100
AcDbEntity
 67
     1
  8
CONNECTOR
100
AcDbMText
 10
228.1454756368693
 20
62.73355805569027
 30
0.0
 40
2.3999999904
 41
3.999999983999999
 71
     7
 72
     1
  1
{\W0.65;B\\}
  7
ROMANS
 73
     1
 44
1.0
1001
ACAD
1000
ACAD_MTEXT_DEFINED_HEIGHT_BEGIN
1070
    46
1040
0.0
1000
ACAD_MTEXT_DEFINED_HEIGHT_END
1000
MTEXTBEGIN
1070
    73
1070
     1
1070
    44
1040
1.0
1070
    74
1070
     0
1000
MTEXTEND
  0
LEADER
  5
5B41
330
1B
100
AcDbEntity
 67
     1
  8
CONNECTOR
100
AcDbLeader
  3
STANDARD
 73
     0
 40
3.657142857142857
 41
2.96
 76
     2
 10
223.6371536729928
 20
64.71222105345043
 30
0.0
 10
219.0353157960823
 20
64.71222105345043
 30
0.0
213
0.0
223
0.9896550113095967
233
0.0
1001
ACAD
1000
DSTYLE
1002
{
1070
   176
1070
   256
1070
   341
1005
2FF
1070
    40
1040
1.0
1070
    77
1070
     0
1002
}
  0
LWPOLYLINE
  5
5B42
330
1B
100
AcDbEntity
 67
     1
  8
CONNECTOR
100
AcDbPolyline
 90
        4
 70
     0
 43
0.0
 10
223.7608666524892
 20
68.44688579555382
 10
221.3307989153504
 20
68.44688579555382
 10
221.3307989153504
 20
72.18157838858598
 10
223.7608666524892
 20
72.18157838858598
  0
LEADER
  5
5B43
330
1B
100
AcDbEntity
 67
     1
  8
CONNECTOR
100
AcDbLeader
  3
STANDARD
 73
     0
 40
2.4
 41
1.12
 76
     2
 10
223.7608666524892
 20
75.91627098220971
 30
0.0
 10
217.1918017080233
 20
75.91627098220971
 30
0.0
213
0.0
223
1.569879187309369
233
0.0
1001
ACAD
1000
DSTYLE
1002
{
1070
   176
1070
   256
1070
   341
1005
2FF
1070
    40
1040
1.0
1070
    77
1070
     0
1002
}
  0
LWPOLYLINE
  5
5B44
330
1B
100
AcDbEntity
 67
     1
  8
CONNECTOR
100
AcDbPolyline
 90
        4
 70
     0
 43
0.0
 10
223.7608666524892
 20
84.03493480091126
 10
221.5213778067968
 20
84.03493480091126
 10
221.5213778067968
 20
87.7696273939434
 10
223.7608666524892
 20
87.7696273939434
  0
LEADER
  5
5B45
330
1B
100
AcDbEntity
 67
     1
  8
CONNECTOR
100
AcDbLeader
  3
STANDARD
 73
     0
 40
3.657142857142857
 41
2.959999999999999
 76
     2
 10
223.7608666524892
 20
80.30027005722516
 30
0.0
 10
219.2258946875288
 20
80.30027005722516
 30
0.0
213
0.0
223
1.199999995199999
233
0.0
1001
ACAD
1000
DSTYLE
1002
{
1070
   176
1070
   256
1070
   341
1005
2FF
1070
    40
1040
1.0
1070
    77
1070
     0
1002
}
  0
LEADER
  5
5B46
330
1B
100
AcDbEntity
 67
     1
  8
CONNECTOR
100
AcDbLeader
  3
STANDARD
 73
     0
 40
2.4
 41
1.28
 76
     2
 10
223.7608666524892
 20
91.50431998697555
 30
0.0
 10
217.7141735950739
 20
91.50431998697557
 30
0.0
213
0.0
223
1.199999995199999
233
0.0
1001
ACAD
1000
DSTYLE
1002
{
1070
   176
1070
   256
1070
   341
1005
2FF
1070
    40
1040
1.0
1070
    77
1070
     0
1002
}
  0
TEXT
  5
5B47
330
1B
100
AcDbEntity
 67
     1
  8
CONNECTOR
100
AcDbText
 10
214.8889064854714
 20
94.46028478981743
 30
0.0
 40
2.3999999904
  1
SERIAL
 41
0.65
  7
ROMANS
100
AcDbText
  0
TEXT
  5
5B48
330
1B
100
AcDbEntity
 67
     1
  8
CONNECTOR
100
AcDbText
 10
227.5678393520829
 20
94.38115575080765
 30
0.0
 40
2.3999999904
  1
PARALLEL
 41
0.65
  7
ROMANS
100
AcDbText
  0
LINE
  5
5B49
330
1B
100
AcDbEntity
 67
     1
  8
CONNECTOR
100
AcDbLine
 10
200.2948899693937
 20
97.57357170412801
 30
0.0
 11
239.7682037824956
 21
97.57357161770672
 31
0.0
  0
CIRCLE
  5
5B4A
330
1B
100
AcDbEntity
 67
     1
  8
CONNECTOR
100
AcDbCircle
 10
232.744555227884
 20
91.50431976577753
 30
0.0
 40
0.4799999980800001
  0
CIRCLE
  5
5B4B
330
1B
100
AcDbEntity
 67
     1
  8
CONNECTOR
100
AcDbCircle
 10
232.8142689334478
 20
75.91627098765811
 30
0.0
 40
0.4799999980800001
  0
HATCH
  5
5B4C
330
1B
100
AcDbEntity
 67
     1
  8
CONNECTOR
100
AcDbHatch
 10
0.0
 20
0.0
 30
0.0
210
0.0
220
0.0
230
1.0
  2
SOLID
 70
     1
 71
     0
 91
        3
 92
        7
 72
     1
 73
     1
 93
        2
 10
232.264555229804
 20
91.50431976577747
 42
0.0
 10
233.2245552259639
 20
91.50431976577747
 42
1.0
 97
        0
 92
        7
 72
     1
 73
     1
 93
        3
 10
232.7445552278839
 20
91.50431976577747
 42
0.0
 10
232.264555229804
 20
91.50431976577747
 42
0.4142135623730827
 10
232.7445552278839
 20
91.02431976769748
 42
0.0
 97
        0
 92
        7
 72
     1
 73
     1
 93
        3
 10
233.2245552259639
 20
91.50431976577747
 42
0.0
 10
232.7445552278839
 20
91.50431976577747
 42
0.0
 10
232.7445552278839
 20
91.02431976769748
 42
0.4142135623730827
 97
        0
 75
     0
 76
     1
 47
0.0084010310380994
 98
        3
 10
232.6434997198538
 20
91.7334863260921
 10
232.5462032982085
 20
91.44180540327081
 10
232.9597130902012
 20
91.32027078735749
  0
HATCH
  5
5B4D
330
1B
100
AcDbEntity
 67
     1
  8
CONNECTOR
100
AcDbHatch
 10
0.0
 20
0.0
 30
0.0
210
0.0
220
0.0
230
1.0
  2
SOLID
 70
     1
 71
     0
 91
        3
 92
        7
 72
     1
 73
     1
 93
        2
 10
232.3342689353678
 20
75.91627098765808
 42
0.0
 10
233.2942689315278
 20
75.91627098765808
 42
1.0
 97
        0
 92
        7
 72
     1
 73
     1
 93
        3
 10
232.8142689334478
 20
75.91627098765808
 42
0.0
 10
232.3342689353678
 20
75.91627098765808
 42
0.4142135623730827
 10
232.8142689334478
 20
75.43627098957808
 42
0.0
 97
        0
 92
        7
 72
     1
 73
     1
 93
        3
 10
233.2942689315278
 20
75.91627098765808
 42
0.0
 10
232.8142689334478
 20
75.91627098765809
 42
0.0
 10
232.8142689334478
 20
75.43627098957808
 42
0.4142135623730827
 97
        0
 75
     0
 76
     1
 47
0.007033492173799
 98
        3
 10
232.9178306318548
 20
76.16890549312632
 10
232.6475535259959
 20
75.79753647573125
 10
232.9854004430092
 20
75.79753647573125
  0
CIRCLE
  5
5B4E
330
1B
100
AcDbEntity
 67
     1
  8
CONNECTOR
100
AcDbCircle
 10
234.6545012277374
 20
64.71222105904056
 30
0.0
 40
0.4799999980800001
  0
HATCH
  5
5B4F
330
1B
100
AcDbEntity
 67
     1
  8
CONNECTOR
100
AcDbHatch
 10
0.0
 20
0.0
 30
0.0
210
0.0
220
0.0
230
1.0
  2
SOLID
 70
     1
 71
     0
 91
        3
 92
        7
 72
     1
 73
     1
 93
        2
 10
234.1745012296574
 20
64.71222105904056
 42
0.0
 10
235.1345012258174
 20
64.71222105904056
 42
1.0
 97
        0
 92
        7
 72
     1
 73
     1
 93
        3
 10
234.6545012277374
 20
64.71222105904056
 42
0.0
 10
234.1745012296574
 20
64.71222105904056
 42
0.4142135623730827
 10
234.6545012277374
 20
64.23222106096054
 42
0.0
 97
        0
 92
        7
 72
     1
 73
     1
 93
        3
 10
235.1345012258174
 20
64.71222105904056
 42
0.0
 10
234.6545012277374
 20
64.71222105904056
 42
0.0
 10
234.6545012277374
 20
64.23222106096054
 42
0.4142135623730827
 97
        0
 75
     0
 76
     1
 47
0.007033492173799
 98
        3
 10
234.7580629261444
 20
64.96485556450878
 10
234.4877858202855
 20
64.59348654711374
 10
234.8256327372989
 20
64.59348654711374
  0
LWPOLYLINE
  5
5B50
330
1B
100
AcDbEntity
 67
     1
  8
CONNECTOR
100
AcDbPolyline
 90
        4
 70
     0
 43
0.0
 10
236.8945014622174
 20
87.76962716861062
 10
234.6545015328244
 20
87.76962718986402
 10
234.6545015330762
 20
80.30026985357045
 10
236.7429127892325
 20
80.30026985273909
  0
CIRCLE
  5
5B51
330
1B
100
AcDbEntity
 67
     1
  8
CONNECTOR
100
AcDbCircle
 10
234.6545015328245
 20
80.30026985370358
 30
0.0
 40
0.4799999980800001
  0
HATCH
  5
5B52
330
1B
100
AcDbEntity
 67
     1
  8
CONNECTOR
100
AcDbHatch
 10
0.0
 20
0.0
 30
0.0
210
0.0
220
0.0
230
1.0
  2
SOLID
 70
     1
 71
     0
 91
        3
 92
        7
 72
     1
 73
     1
 93
        2
 10
234.1745015347445
 20
80.30026985370355
 42
0.0
 10
235.1345015309044
 20
80.30026985370355
 42
1.0
 97
        0
 92
        7
 72
     1
 73
     1
 93
        3
 10
234.6545015328245
 20
80.30026985370355
 42
0.0
 10
234.1745015347445
 20
80.30026985370355
 42
0.4142135623730827
 10
234.6545015328245
 20
79.82026985562352
 42
0.0
 97
        0
 92
        7
 72
     1
 73
     1
 93
        3
 10
235.1345015309044
 20
80.30026985370355
 42
0.0
 10
234.6545015328245
 20
80.30026985370357
 42
0.0
 10
234.6545015328245
 20
79.82026985562352
 42
0.4142135623730827
 97
        0
 75
     0
 76
     1
 47
0.007033492173799
 98
        3
 10
234.7580632312315
 20
80.55290435917177
 10
234.4877861253726
 20
80.1815353417767
 10
234.8256330423859
 20
80.1815353417767
  0
LWPOLYLINE
  5
5B53
330
1B
100
AcDbEntity
 67
     1
  8
CONNECTOR
100
AcDbPolyline
 90
        4
 70
     1
 43
0.0
 10
256.0393726543001
 20
101.2751652815092
 10
272.9297000965773
 20
101.2751652815092
 10
272.9297000965773
 20
62.48926553893213
 10
256.0393726543001
 20
62.48926553893213
  0
TEXT
  5
5B54
330
1B
100
AcDbEntity
 67
     1
  8
CONNECTOR
100
AcDbText
 10
258.8068924342948
 20
96.22111656472675
 30
0.0
 40
2.3999999904
  1
WINDING
 41
0.7
  7
ROMANS
100
AcDbText
  0
LWPOLYLINE
  5
5B55
330
1B
100
AcDbEntity
 67
     1
  8
CONNECTOR
100
AcDbPolyline
 90
        4
 70
     0
 43
0.0
 10
198.5212563652818
 20
68.44688614694966
 10
196.091188628143
 20
68.44688614694966
 10
196.091188628143
 20
72.18157873998181
 10
198.5212563652818
 20
72.18157873998181
  0
MTEXT
  5
5B56
102
{ACAD_REACTORS
330
5B57
102
}
330
1B
100
AcDbEntity
 67
     1
  8
CONNECTOR
100
AcDbMText
 10
187.9678393520829
 20
63.09012486480007
 30
0.0
 40
2.3999999904
 41
3.999999983999999
 71
     7
 72
     1
  1
{\W0.65;B\\}
  7
ROMANS
 73
     1
 44
1.0
1001
ACAD
1000
ACAD_MTEXT_DEFINED_HEIGHT_BEGIN
1070
    46
1040
0.0
1000
ACAD_MTEXT_DEFINED_HEIGHT_END
1000
MTEXTBEGIN
1070
    73
1070
     1
1070
    44
1040
1.0
1070
    74
1070
     0
1000
MTEXTEND
  0
LEADER
  5
5B57
330
1B
100
AcDbEntity
 67
     1
  8
CONNECTOR
100
AcDbLeader
  3
STANDARD
 73
     0
 40
3.657142857142857
 41
2.96
 76
     2
 10
198.3975433857855
 20
64.71222105345043
 30
0.0
 10
194.0585233341862
 20
64.71222105345043
 30
0.0
213
-1.321142201008449
223
0.9896546599137648
233
0.0
1001
ACAD
1000
DSTYLE
1002
{
1070
   176
1070
   256
1070
   341
1005
2FF
1070
    40
1040
1.0
1070
    77
1070
     0
1002
}
  0
LWPOLYLINE
  5
5B58
330
1B
100
AcDbEntity
 67
     1
  8
CONNECTOR
100
AcDbPolyline
 90
        4
 70
     0
 43
0.0
 10
198.5212563652818
 20
84.0349351523071
 10
196.2817675195895
 20
84.0349351523071
 10
196.2817675195895
 20
87.76962774533926
 10
198.5212563652818
 20
87.76962774533926
  0
LEADER
  5
5B59
330
1B
100
AcDbEntity
 67
     1
  8
CONNECTOR
100
AcDbLeader
  3
STANDARD
 73
     0
 40
2.4
 41
1.12
 76
     2
 10
198.5212563652818
 20
75.91627098220971
 30
0.0
 10
194.0585233341862
 20
75.9113732298329
 30
0.0
213
0.5223718870505733
223
1.569878835913537
233
0.0
1001
ACAD
1000
DSTYLE
1002
{
1070
   176
1070
   256
1070
   341
1005
2FF
1070
    40
1040
1.0
1070
    77
1070
     0
1002
}
  0
MTEXT
  5
5B5A
102
{ACAD_REACTORS
330
5B59
102
}
330
1B
100
AcDbEntity
 67
     1
  8
CONNECTOR
100
AcDbMText
 10
187.9678393520829
 20
74.13537322983292
 30
0.0
 40
2.3999999904
 41
3.999999983999999
 71
     7
 72
     1
  1
{\W0.65;B}
  7
ROMANS
 73
     1
 44
1.0
1001
ACAD
1000
ACAD_MTEXT_DEFINED_HEIGHT_BEGIN
1070
    46
1040
0.0
1000
ACAD_MTEXT_DEFINED_HEIGHT_END
1000
MTEXTBEGIN
1070
    73
1070
     1
1070
    44
1040
1.0
1070
    74
1070
     0
1000
MTEXTEND
  0
MTEXT
  5
5B5B
102
{ACAD_REACTORS
330
5B5C
102
}
330
1B
100
AcDbEntity
 67
     1
  8
CONNECTOR
100
AcDbMText
 10
187.9678393520829
 20
77.37537322983292
 30
0.0
 40
2.3999999904
 41
3.999999983999999
 71
     7
 72
     1
  1
{\W0.65;A\\}
  7
ROMANS
 73
     1
 44
1.0
1001
ACAD
1000
ACAD_MTEXT_DEFINED_HEIGHT_BEGIN
1070
    46
1040
0.0
1000
ACAD_MTEXT_DEFINED_HEIGHT_END
1000
MTEXTBEGIN
1070
    73
1070
     1
1070
    44
1040
1.0
1070
    74
1070
     0
1000
MTEXTEND
  0
LEADER
  5
5B5C
330
1B
100
AcDbEntity
 67
     1
  8
CONNECTOR
100
AcDbLeader
  3
STANDARD
 73
     0
 40
3.657142857142857
 41
2.959999999999999
 76
     2
 10
198.5212563652818
 20
80.30027040862099
 30
0.0
 10
194.0585233341862
 20
80.30027040862099
 30
0.0
213
-1.511721092454882
223
1.199999995199999
233
0.0
1001
ACAD
1000
DSTYLE
1002
{
1070
   176
1070
   256
1070
   341
1005
2FF
1070
    40
1040
1.0
1070
    77
1070
     0
1002
}
  0
TEXT
  5
5B5D
330
1B
100
AcDbEntity
 67
     1
  8
CONNECTOR
100
AcDbText
 10
187.4326592825869
 20
96.07217071075226
 30
0.0
 40
2.3999999904
  1
UNIPOLAR
 41
0.65
  7
ROMANS
100
AcDbText
  0
MTEXT
  5
5B5E
102
{ACAD_REACTORS
330
5B5F
102
}
330
1B
100
AcDbEntity
 67
     1
  8
CONNECTOR
100
AcDbMText
 10
187.9678393520829
 20
89.73537322983291
 30
0.0
 40
2.3999999904
 41
3.999999983999999
 71
     7
 72
     1
  1
{\W0.65;A}
  7
ROMANS
 73
     1
 44
1.0
1001
ACAD
1000
ACAD_MTEXT_DEFINED_HEIGHT_BEGIN
1070
    46
1040
0.0
1000
ACAD_MTEXT_DEFINED_HEIGHT_END
1000
MTEXTBEGIN
1070
    73
1070
     1
1070
    44
1040
1.0
1070
    74
1070
     0
1000
MTEXTEND
  0
LEADER
  5
5B5F
330
1B
100
AcDbEntity
 67
     1
  8
CONNECTOR
100
AcDbLeader
  3
STANDARD
 73
     0
 40
2.4
 41
1.28
 76
     2
 10
198.5212563652818
 20
91.50432033837139
 30
0.0
 10
194.0585233341862
 20
91.50432033837141
 30
0.0
213
0.0
223
1.199999995199999
233
0.0
1001
ACAD
1000
DSTYLE
1002
{
1070
   176
1070
   256
1070
   341
1005
2FF
1070
    40
1040
1.0
1070
    77
1070
     0
1002
}
  0
LINE
  5
5B60
330
1B
100
AcDbEntity
 67
     1
  8
CONNECTOR
100
AcDbLine
 10
187.0371182736649
 20
62.48926618542802
 30
0.0
 11
251.6525238569329
 21
62.48926541916631
 31
0.0
  0
LINE
  5
5B61
330
1B
100
AcDbEntity
 67
     1
  8
CONNECTOR
100
AcDbLine
 10
272.9297000965773
 20
93.46217884026499
 30
0.0
 11
187.0371186909462
 21
93.46217885409036
 31
0.0
  0
LINE
  5
5B62
330
1B
100
AcDbEntity
 67
     1
  8
CONNECTOR
100
AcDbLine
 10
187.0371187962064
 20
101.2751659491758
 30
0.0
 11
187.0371182736649
 21
62.48926615927377
 31
0.0
  0
TEXT
  5
5B63
330
1B
100
AcDbEntity
 67
     1
  8
CONNECTOR
100
AcDbText
 10
201.0780111684432
 20
94.39303616246229
 30
0.0
 40
2.3999999904
  1
1WINDING
 41
0.65
  7
ROMANS
100
AcDbText
  0
LEADER
  5
5B64
330
1B
100
AcDbEntity
 67
     1
  8
CONNECTOR
100
AcDbLeader
  3
STANDARD
 73
     0
 40
2.4
 41
1.28
 76
     2
 10
211.0499140011421
 20
91.50431975897655
 30
0.0
 10
205.8616686614822
 20
91.50431998697557
 30
0.0
213
0.0
223
1.914289657710443
233
0.0
1001
ACAD
1000
DSTYLE
1002
{
1070
   176
1070
   256
1070
   341
1005
2FF
1070
    40
1040
1.0
1070
    77
1070
     0
1002
}
  0
MTEXT
  5
5B65
102
{ACAD_REACTORS
330
5B64
102
}
330
1B
100
AcDbEntity
 67
     1
  8
CONNECTOR
100
AcDbMText
 10
202.3678393520829
 20
88.64644644959085
 30
0.0
 40
2.3999999904
 41
3.999999983999999
 71
     7
 72
     1
  1
{\W0.65;A}
  7
ROMANS
 73
     1
 44
1.0
1001
ACAD
1000
ACAD_MTEXT_DEFINED_HEIGHT_BEGIN
1070
    46
1040
0.0
1000
ACAD_MTEXT_DEFINED_HEIGHT_END
1000
MTEXTBEGIN
1070
    73
1070
     1
1070
    44
1040
1.0
1070
    74
1070
     0
1000
MTEXTEND
  0
LEADER
  5
5B66
330
1B
100
AcDbEntity
 67
     1
  8
CONNECTOR
100
AcDbLeader
  3
STANDARD
 73
     0
 40
2.4
 41
1.12
 76
     2
 10
211.0499140011421
 20
75.91627098220971
 30
0.0
 10
205.8616686614822
 20
75.91627098220971
 30
0.0
213
0.0
223
2.284168849819812
233
0.0
1001
ACAD
1000
DSTYLE
1002
{
1070
   176
1070
   256
1070
   341
1005
2FF
1070
    40
1040
1.0
1070
    77
1070
     0
1002
}
  0
MTEXT
  5
5B67
102
{ACAD_REACTORS
330
5B66
102
}
330
1B
100
AcDbEntity
 67
     1
  8
CONNECTOR
100
AcDbMText
 10
202.3678393520829
 20
73.04644644959084
 30
0.0
 40
2.3999999904
 41
3.999999983999999
 71
     7
 72
     1
  1
{\W0.65;B}
  7
ROMANS
 73
     1
 44
1.0
1001
ACAD
1000
ACAD_MTEXT_DEFINED_HEIGHT_BEGIN
1070
    46
1040
0.0
1000
ACAD_MTEXT_DEFINED_HEIGHT_END
1000
MTEXTBEGIN
1070
    73
1070
     1
1070
    44
1040
1.0
1070
    74
1070
     0
1000
MTEXTEND
  0
LEADER
  5
5B68
330
1B
100
AcDbEntity
 67
     1
  8
CONNECTOR
100
AcDbLeader
  3
STANDARD
 73
     0
 40
3.657142857142857
 41
2.959999999999999
 76
     2
 10
211.0456686614821
 20
87.76962776889538
 30
0.0
 10
205.8616686614822
 20
87.76962799689437
 30
0.0
213
0.0
223
1.980003374946596
233
0.0
1001
ACAD
1000
DSTYLE
1002
{
1070
   176
1070
   256
1070
   341
1005
2FF
1070
    40
1040
1.0
1070
    77
1070
     0
1002
}
  0
LEADER
  5
5B69
330
1B
100
AcDbEntity
 67
     1
  8
CONNECTOR
100
AcDbLeader
  3
STANDARD
 73
     0
 40
3.657142857142857
 41
2.96
 76
     2
 10
211.0456686614821
 20
72.18157838858601
 30
0.0
 10
205.8616686614822
 20
72.18157838858601
 30
0.0
213
0.0
223
2.349882566464403
233
0.0
1001
ACAD
1000
DSTYLE
1002
{
1070
   176
1070
   256
1070
   341
1005
2FF
1070
    40
1040
1.0
1070
    77
1070
     0
1002
}
  0
TEXT
  5
5B6A
330
1B
100
AcDbEntity
 67
     1
  8
CONNECTOR
100
AcDbText
 10
243.0581207721744
 20
96.13965680667647
 30
0.0
 40
2.3999999904
  1
LEADS
 41
0.7
  7
ROMANS
100
AcDbText
  0
LINE
  5
5B6B
330
1B
100
AcDbEntity
 67
     1
  8
CONNECTOR
100
AcDbLine
 10
213.5526616130085
 20
97.57357169106072
 30
0.0
 11
213.5526615784283
 21
62.48926592201716
 31
0.0
  0
MLINE
  5
5B6C
330
1B
100
AcDbEntity
 67
     1
  8
CONNECTOR
100
AcDbMline
  2
STANDARD
340
18
 40
0.2999999987999999
 70
     0
 71
     1
 72
     2
 73
     2
 10
200.2948899730421
 20
101.2751658820296
 30
0.0
210
0.0
220
0.0
230
1.0
 11
200.2948899730421
 21
101.2751658820296
 31
0.0
 12
-1.347246216500632E-08
 22
-0.9999999999999998
 32
0.0
 13
1.0
 23
-1.347246250183506E-08
 33
0.0
 74
     2
 41
0.0
 41
0.0
 75
     0
 74
     2
 41
-0.2999999987999999
 41
0.0
 75
     0
 11
200.2948894505006
 21
62.48926612327778
 31
0.0
 12
-1.347246216500632E-08
 22
-0.9999999999999998
 32
0.0
 13
1.0
 23
-1.347246250183506E-08
 33
0.0
 74
     2
 41
0.0
 41
0.0
 75
     0
 74
     2
 41
-0.2999999987999999
 41
0.0
 75
     0
  0
MLINE
  5
5B6D
330
1B
100
AcDbEntity
 67
     1
  8
CONNECTOR
100
AcDbMline
  2
STANDARD
340
18
 40
0.2999999987999999
 70
     0
 71
     1
 72
     2
 73
     2
 10
240.0682038945516
 20
109.4436788175664
 30
0.0
210
0.0
220
0.0
230
1.0
 11
240.0682038945516
 21
109.4436788175664
 31
0.0
 12
-9.541281303597569E-09
 22
-1.0
 32
0.0
 13
1.0
 23
-9.541281787545617E-09
 33
0.0
 74
     2
 41
0.0
 41
0.0
 75
     0
 74
     2
 41
-0.2999999987999999
 41
0.0
 75
     0
 11
240.0682034465464
 21
62.4892656087997
 31
0.0
 12
-9.541281303597569E-09
 22
-1.0
 32
0.0
 13
1.0
 23
-9.541281787545617E-09
 33
0.0
 74
     2
 41
0.0
 41
0.0
 75
     0
 74
     2
 41
-0.2999999987999999
 41
0.0
 75
     0
  0
MLINE
  5
5B6E
330
1B
100
AcDbEntity
 67
     1
  8
CONNECTOR
100
AcDbMline
  2
STANDARD
340
18
 40
0.2999999987999999
 70
     0
 71
     1
 72
     2
 73
     2
 10
226.8104322921121
 20
97.57357168558456
 30
0.0
210
0.0
220
0.0
230
1.0
 11
226.8104322921121
 21
97.57357168558456
 31
0.0
 12
-1.033903164515749E-10
 22
-1.0
 32
0.0
 13
1.0
 23
-1.033904302233032E-10
 33
0.0
 74
     2
 41
0.0
 41
0.0
 75
     0
 74
     2
 41
-0.2999999987999999
 41
0.0
 75
     0
 11
226.8104322884847
 21
62.48926573258342
 31
0.0
 12
-1.033903164515749E-10
 22
-1.0
 32
0.0
 13
1.0
 23
-1.033904302233032E-10
 33
0.0
 74
     2
 41
0.0
 41
0.0
 75
     0
 74
     2
 41
-0.2999999987999999
 41
0.0
 75
     0
  0
MLINE
  5
5B6F
330
1B
100
AcDbEntity
 67
     1
  8
CONNECTOR
100
AcDbMline
  2
STANDARD
340
18
 40
0.2999999987999999
 70
     0
 71
     1
 72
     2
 73
     2
 10
213.5526616130085
 20
97.57357169106072
 30
0.0
210
0.0
220
0.0
230
1.0
 11
213.5526616130085
 21
97.57357169106072
 31
0.0
 12
-1.429013405962490E-08
 22
-0.9999999999999998
 32
0.0
 13
1.0
 23
-1.429013465404413E-08
 33
0.0
 74
     2
 41
0.0
 41
0.0
 75
     0
 74
     2
 41
-0.2999999987999999
 41
0.0
 75
     0
 11
213.5526611116491
 21
62.48926573395414
 31
0.0
 12
-1.429013405962490E-08
 22
-0.9999999999999998
 32
0.0
 13
1.0
 23
-1.429013465404413E-08
 33
0.0
 74
     2
 41
0.0
 41
0.0
 75
     0
 74
     2
 41
-0.2999999987999999
 41
0.0
 75
     0
  0
LWPOLYLINE
  5
5B70
330
1B
100
AcDbEntity
 67
     1
  8
CONNECTOR
100
AcDbPolyline
 90
        4
 70
     1
 43
0.0
 10
187.0371187962064
 20
101.2751661645556
 10
272.9297000965773
 20
101.2751661645556
 10
272.9278393520829
 20
109.4436787960245
 10
187.0318393520829
 20
109.4436787960245
  0
TEXT
  5
5B71
330
1B
100
AcDbEntity
 67
     1
  8
CONNECTOR
100
AcDbText
 10
195.1443115006735
 20
104.335588418594
 30
0.0
 40
2.3999999904
  1
TYPE OF CONNECTION (EXTERN)
 41
0.65
  7
ROMANS
100
AcDbText
  0
TEXT
  5
5B72
330
1B
100
AcDbEntity
 67
     1
  8
CONNECTOR
100
AcDbText
 10
255.1448183988473
 20
103.9407915476029
 30
0.0
 40
2.3999999904
  1
MOTOR
 41
0.65
  7
ROMANS
100
AcDbText
  0
LINE
  5
5B73
330
1B
100
AcDbEntity
 67
     1
  8
CONNECTOR
100
AcDbLine
 10
196.2817675195895
 20
85.64919162598474
 30
0.0
 11
194.0585233341862
 21
85.64919162598474
 31
0.0
  0
LINE
  5
5B74
330
1B
100
AcDbEntity
 67
     1
  8
CONNECTOR
100
AcDbLine
 10
196.091188628143
 20
70.16273504274941
 30
0.0
 11
194.0585233341862
 21
70.16273504274941
 31
0.0
  0
TEXT
  5
5B75
330
1B
100
AcDbEntity
 67
     1
  8
CONNECTOR
  6
HIDDEN
100
AcDbText
 10
187.9678393520829
 20
84.33537322983292
 30
0.0
 40
2.399999990399999
  1
COM
 41
0.65
  7
ROMANS
100
AcDbText
  0
TEXT
  5
5B76
330
1B
100
AcDbEntity
 67
     1
  8
CONNECTOR
  6
HIDDEN
100
AcDbText
 10
187.9678393520829
 20
68.73537322983292
 30
0.0
 40
2.399999990399999
  1
COM
 41
0.65
  7
ROMANS
100
AcDbText
  0
MTEXT
  5
5B77
330
1B
100
AcDbEntity
 67
     1
  8
CONNECTOR
100
AcDbMText
 10
214.6923251228114
 20
63.09012448290359
 30
0.0
 40
2.3999999904
 41
3.999999983999999
 71
     7
 72
     1
  1
{\W0.65;B\\}
  7
ROMANS
 73
     1
 44
1.0
1001
ACAD
1000
ACAD_MTEXT_DEFINED_HEIGHT_BEGIN
1070
    46
1040
0.0
1000
ACAD_MTEXT_DEFINED_HEIGHT_END
1000
MTEXTBEGIN
1070
    73
1070
     1
1070
    44
1040
1.0
1070
    74
1070
     0
1000
MTEXTEND
  0
MTEXT
  5
5B78
330
1B
100
AcDbEntity
 67
     1
  8
CONNECTOR
100
AcDbMText
 10
214.6923251228114
 20
74.13537284793642
 30
0.0
 40
2.3999999904
 41
3.999999983999999
 71
     7
 72
     1
  1
{\W0.65;B}
  7
ROMANS
 73
     1
 44
1.0
1001
ACAD
1000
ACAD_MTEXT_DEFINED_HEIGHT_BEGIN
1070
    46
1040
0.0
1000
ACAD_MTEXT_DEFINED_HEIGHT_END
1000
MTEXTBEGIN
1070
    73
1070
     1
1070
    44
1040
1.0
1070
    74
1070
     0
1000
MTEXTEND
  0
MTEXT
  5
5B79
330
1B
100
AcDbEntity
 67
     1
  8
CONNECTOR
100
AcDbMText
 10
214.6923251228114
 20
77.37537284793643
 30
0.0
 40
2.3999999904
 41
3.999999983999999
 71
     7
 72
     1
  1
{\W0.65;A\\}
  7
ROMANS
 73
     1
 44
1.0
1001
ACAD
1000
ACAD_MTEXT_DEFINED_HEIGHT_BEGIN
1070
    46
1040
0.0
1000
ACAD_MTEXT_DEFINED_HEIGHT_END
1000
MTEXTBEGIN
1070
    73
1070
     1
1070
    44
1040
1.0
1070
    74
1070
     0
1000
MTEXTEND
  0
MTEXT
  5
5B7A
330
1B
100
AcDbEntity
 67
     1
  8
CONNECTOR
100
AcDbMText
 10
214.6923251228114
 20
89.73537284793643
 30
0.0
 40
2.3999999904
 41
3.999999983999999
 71
     7
 72
     1
  1
{\W0.65;A}
  7
ROMANS
 73
     1
 44
1.0
1001
ACAD
1000
ACAD_MTEXT_DEFINED_HEIGHT_BEGIN
1070
    46
1040
0.0
1000
ACAD_MTEXT_DEFINED_HEIGHT_END
1000
MTEXTBEGIN
1070
    73
1070
     1
1070
    44
1040
1.0
1070
    74
1070
     0
1000
MTEXTEND
  0
LEADER
  5
5B7B
330
1B
100
AcDbEntity
 67
     1
  8
CONNECTOR
100
AcDbLeader
  3
STANDARD
 73
     0
 40
2.4
 41
1.28
 76
     2
 10
236.8945014932091
 20
91.50431976451958
 30
0.0
 10
230.6962199634794
 20
91.50431976577753
 30
0.0
213
0.0
223
1.199999995199999
233
0.0
1001
ACAD
1000
DSTYLE
1002
{
1070
   176
1070
   256
1070
   341
1005
2FF
1070
    40
1040
1.0
1070
    77
1070
     0
1002
}
  0
LEADER
  5
5B7C
330
1B
100
AcDbEntity
 67
     1
  8
CONNECTOR
100
AcDbLeader
  3
STANDARD
 73
     0
 40
2.4
 41
1.28
 76
     2
 10
236.89450146365
 20
80.30026985094144
 30
0.0
 10
230.6962197318171
 20
80.30026985273911
 30
0.0
213
0.0
223
1.199999995199999
233
0.0
1001
ACAD
1000
DSTYLE
1002
{
1070
   176
1070
   256
1070
   341
1005
2FF
1070
    40
1040
1.0
1070
    77
1070
     0
1002
}
  0
LEADER
  5
5B7D
330
1B
100
AcDbEntity
 67
     1
  8
CONNECTOR
100
AcDbLeader
  3
STANDARD
 73
     0
 40
2.4
 41
1.28
 76
     2
 10
236.894501411661
 20
75.91627098668716
 30
0.0
 10
230.7659336690433
 20
75.91627098765811
 30
0.0
213
0.0
223
1.199999995199999
233
0.0
1001
ACAD
1000
DSTYLE
1002
{
1070
   176
1070
   256
1070
   341
1005
2FF
1070
    40
1040
1.0
1070
    77
1070
     0
1002
}
  0
LEADER
  5
5B7E
330
1B
100
AcDbEntity
 67
     1
  8
CONNECTOR
100
AcDbLeader
  3
STANDARD
 73
     0
 40
2.4
 41
1.28
 76
     2
 10
236.8945012787943
 20
64.71222107364877
 30
0.0
 10
230.7659334373811
 20
64.7122210746197
 30
0.0
213
0.0
223
1.199999995199999
233
0.0
1001
ACAD
1000
DSTYLE
1002
{
1070
   176
1070
   256
1070
   341
1005
2FF
1070
    40
1040
1.0
1070
    77
1070
     0
1002
}
  0
DIMENSION
  5
5B7F
330
1B
100
AcDbEntity
 67
     1
  8
AM_5
100
AcDbDimension
  2
*D19
 10
134.9011157408813
 20
75.86098729582364
 30
0.0
 11
129.6384631343548
 21
75.86098729582364
 31
0.0
 70
   160
  1
 
 71
     5
 42
10.525305213053
  3
STANDARD$0
100
AcDbAlignedDimension
 13
124.3758105278284
 23
75.86098729582362
 33
0.0
 14
134.9011157408813
 24
75.86098729582364
 34
0.0
100
AcDbRotatedDimension
1001
ACAD
1000
DSTYLE
1002
{
1070
    76
1070
     1
1070
    75
1070
     1
1070
    47
1040
0.2
1070
    48
1040
-0.2
1070
   272
1070
     0
1002
}
  0
LINE
  5
5B80
102
{ACAD_REACTORS
330
5B82
102
}
330
1B
100
AcDbEntity
 67
     1
  8
CONNECTOR
100
AcDbLine
 10
263.8438865435202
 20
83.20659535043896
 30
0.0
 11
263.8438865435202
 21
80.07059536298296
 31
0.0
  0
LINE
  5
5B81
102
{ACAD_REACTORS
330
5B82
102
}
330
1B
100
AcDbEntity
 67
     1
  8
CONNECTOR
100
AcDbLine
 10
265.1878865381441
 20
80.07059536298296
 30
0.0
 11
265.1878865381441
 21
83.20659535043896
 31
0.0
  0
HATCH
  5
5B82
330
1B
100
AcDbEntity
 67
     1
  8
CONNECTOR
100
AcDbHatch
 10
0.0
 20
0.0
 30
0.0
210
0.0
220
0.0
230
1.0
  2
SOLID
 70
     1
 71
     1
 91
        1
 92
        1
 93
        4
 72
     1
 10
265.1878865381441
 20
83.20659535043896
 11
263.8438865435202
 21
83.20659535043896
 72
     1
 10
263.8438865435202
 20
83.20659535043896
 11
263.8438865435202
 21
80.07059536298296
 72
     1
 10
263.8438865435202
 20
80.07059536298296
 11
265.1878865381441
 21
80.07059536298296
 72
     1
 10
265.1878865381441
 20
80.07059536298296
 11
265.1878865381441
 21
83.20659535043896
 97
        4
330
5B86
330
5B80
330
5B83
330
5B81
 75
     0
 76
     1
 98
        1
 10
160.8038869556802
 20
4.134595666726937
  0
LINE
  5
5B83
102
{ACAD_REACTORS
330
5B82
102
}
330
1B
100
AcDbEntity
 67
     1
  8
CONNECTOR
100
AcDbLine
 10
263.8438865435202
 20
80.07059536298296
 30
0.0
 11
265.1878865381441
 21
80.07059536298296
 31
0.0
  0
LINE
  5
5B84
330
1B
100
AcDbEntity
 67
     1
  8
CONNECTOR
100
AcDbLine
 10
264.5158863835992
 20
78.87059536298297
 30
0.0
 11
259.2460786730496
 21
78.87059536298297
 31
0.0
  0
LINE
  5
5B85
330
1B
100
AcDbEntity
 67
     1
  8
CONNECTOR
100
AcDbLine
 10
264.5158863170603
 20
80.07059536298298
 30
0.0
 11
264.5158863835992
 21
78.87059536298297
 31
0.0
  0
LINE
  5
5B86
102
{ACAD_REACTORS
330
5B82
102
}
330
1B
100
AcDbEntity
 67
     1
  8
CONNECTOR
100
AcDbLine
 10
265.1878865381441
 20
83.20659535043896
 30
0.0
 11
263.8438865435202
 21
83.20659535043896
 31
0.0
  0
LINE
  5
5B87
330
1B
100
AcDbEntity
 67
     1
  8
CONNECTOR
100
AcDbLine
 10
264.5158865293753
 20
84.40659535043893
 30
0.0
 11
259.2460788188258
 21
84.40659535043893
 31
0.0
  0
LINE
  5
5B88
330
1B
100
AcDbEntity
 67
     1
  8
CONNECTOR
100
AcDbLine
 10
264.5158865408321
 20
83.20659535043894
 30
0.0
 11
264.5158866306764
 21
84.40659535043893
 31
0.0
  0
MTEXT
  5
5B89
330
1B
100
AcDbEntity
 67
     1
  8
CONNECTOR
100
AcDbMText
 10
266.7563531239026
 20
78.69537332193397
 30
0.0
 40
2.3999999904
 41
3.999999983999999
 71
     7
 72
     1
  1
{\W0.65;A\\}
  7
ROMANS
 73
     1
 44
1.0
1001
ACAD
1000
ACAD_MTEXT_DEFINED_HEIGHT_BEGIN
1070
    46
1040
0.0
1000
ACAD_MTEXT_DEFINED_HEIGHT_END
1000
MTEXTBEGIN
1070
    73
1070
     1
1070
    44
1040
1.0
1070
    74
1070
     0
1000
MTEXTEND
  0
LINE
  5
5B8A
102
{ACAD_REACTORS
330
5B8C
102
}
330
1B
100
AcDbEntity
 67
     1
  8
CONNECTOR
100
AcDbLine
 10
263.8438865435202
 20
75.53312574539837
 30
0.0
 11
263.8438865435202
 21
72.39712575794236
 31
0.0
  0
LINE
  5
5B8B
102
{ACAD_REACTORS
330
5B8C
102
}
330
1B
100
AcDbEntity
 67
     1
  8
CONNECTOR
100
AcDbLine
 10
265.1878865381441
 20
72.39712575794236
 30
0.0
 11
265.1878865381441
 21
75.53312574539837
 31
0.0
  0
HATCH
  5
5B8C
330
1B
100
AcDbEntity
 67
     1
  8
CONNECTOR
100
AcDbHatch
 10
0.0
 20
0.0
 30
0.0
210
0.0
220
0.0
230
1.0
  2
SOLID
 70
     1
 71
     1
 91
        1
 92
        1
 93
        4
 72
     1
 10
265.1878865381441
 20
75.53312574539837
 11
263.8438865435202
 21
75.53312574539837
 72
     1
 10
263.8438865435202
 20
75.53312574539837
 11
263.8438865435202
 21
72.39712575794236
 72
     1
 10
263.8438865435202
 20
72.39712575794236
 11
265.1878865381441
 21
72.39712575794236
 72
     1
 10
265.1878865381441
 20
72.39712575794236
 11
265.1878865381441
 21
75.53312574539837
 97
        4
330
5B90
330
5B8A
330
5B8D
330
5B8B
 75
     0
 76
     1
 98
        1
 10
160.8038869556802
 20
-3.538873938313642
  0
LINE
  5
5B8D
102
{ACAD_REACTORS
330
5B8C
102
}
330
1B
100
AcDbEntity
 67
     1
  8
CONNECTOR
100
AcDbLine
 10
263.8438865435202
 20
72.39712575794236
 30
0.0
 11
265.1878865381441
 21
72.39712575794236
 31
0.0
  0
LINE
  5
5B8E
330
1B
100
AcDbEntity
 67
     1
  8
CONNECTOR
100
AcDbLine
 10
264.5158863835992
 20
71.19712575794238
 30
0.0
 11
259.2460786730496
 21
71.19712575794238
 31
0.0
  0
LINE
  5
5B8F
330
1B
100
AcDbEntity
 67
     1
  8
CONNECTOR
100
AcDbLine
 10
264.5158863170603
 20
72.39712575794237
 30
0.0
 11
264.5158863835992
 21
71.19712575794238
 31
0.0
  0
LINE
  5
5B90
102
{ACAD_REACTORS
330
5B8C
102
}
330
1B
100
AcDbEntity
 67
     1
  8
CONNECTOR
100
AcDbLine
 10
265.1878865381441
 20
75.53312574539837
 30
0.0
 11
263.8438865435202
 21
75.53312574539837
 31
0.0
  0
LINE
  5
5B91
330
1B
100
AcDbEntity
 67
     1
  8
CONNECTOR
100
AcDbLine
 10
264.5158865293753
 20
76.73312574539834
 30
0.0
 11
259.2460788188258
 21
76.73312574539834
 31
0.0
  0
LINE
  5
5B92
330
1B
100
AcDbEntity
 67
     1
  8
CONNECTOR
100
AcDbLine
 10
264.5158865408321
 20
75.53312574539837
 30
0.0
 11
264.5158866306764
 21
76.73312574539834
 31
0.0
  0
MTEXT
  5
5B93
330
1B
100
AcDbEntity
 67
     1
  8
CONNECTOR
100
AcDbMText
 10
266.7563531239026
 20
74.73537332193398
 30
0.0
 40
2.3999999904
 41
3.999999983999999
 71
     7
 72
     1
  1
{\W0.65;B}
  7
ROMANS
 73
     1
 44
1.0
1001
ACAD
1000
ACAD_MTEXT_DEFINED_HEIGHT_BEGIN
1070
    46
1040
0.0
1000
ACAD_MTEXT_DEFINED_HEIGHT_END
1000
MTEXTBEGIN
1070
    73
1070
     1
1070
    44
1040
1.0
1070
    74
1070
     0
1000
MTEXTEND
  0
LINE
  5
5B94
102
{ACAD_REACTORS
330
5B96
102
}
330
1B
100
AcDbEntity
 67
     1
  8
CONNECTOR
100
AcDbLine
 10
263.8438865128547
 20
67.72013876715077
 30
0.0
 11
263.8438865128547
 21
64.58413877969475
 31
0.0
  0
LINE
  5
5B95
102
{ACAD_REACTORS
330
5B96
102
}
330
1B
100
AcDbEntity
 67
     1
  8
CONNECTOR
100
AcDbLine
 10
265.1878865074786
 20
64.58413877969475
 30
0.0
 11
265.1878865074786
 21
67.72013876715077
 31
0.0
  0
HATCH
  5
5B96
330
1B
100
AcDbEntity
 67
     1
  8
CONNECTOR
100
AcDbHatch
 10
0.0
 20
0.0
 30
0.0
210
0.0
220
0.0
230
1.0
  2
SOLID
 70
     1
 71
     1
 91
        1
 92
        1
 93
        4
 72
     1
 10
265.1878865074786
 20
67.72013876715077
 11
263.8438865128547
 21
67.72013876715077
 72
     1
 10
263.8438865128547
 20
67.72013876715077
 11
263.8438865128547
 21
64.58413877969475
 72
     1
 10
263.8438865128547
 20
64.58413877969475
 11
265.1878865074786
 21
64.58413877969475
 72
     1
 10
265.1878865074786
 20
64.58413877969475
 11
265.1878865074786
 21
67.72013876715077
 97
        4
330
5B9A
330
5B94
330
5B97
330
5B95
 75
     0
 76
     1
 98
        1
 10
160.8038869250147
 20
-11.35186091656125
  0
LINE
  5
5B97
102
{ACAD_REACTORS
330
5B96
102
}
330
1B
100
AcDbEntity
 67
     1
  8
CONNECTOR
100
AcDbLine
 10
263.8438865128547
 20
64.58413877969475
 30
0.0
 11
265.1878865074786
 21
64.58413877969475
 31
0.0
  0
LINE
  5
5B98
330
1B
100
AcDbEntity
 67
     1
  8
CONNECTOR
100
AcDbLine
 10
264.5158863529338
 20
63.38413877969478
 30
0.0
 11
259.2460786423842
 21
63.38413877969478
 31
0.0
  0
LINE
  5
5B99
330
1B
100
AcDbEntity
 67
     1
  8
CONNECTOR
100
AcDbLine
 10
264.5158862863949
 20
64.58413877969476
 30
0.0
 11
264.5158863529338
 21
63.38413877969478
 31
0.0
  0
LINE
  5
5B9A
102
{ACAD_REACTORS
330
5B96
102
}
330
1B
100
AcDbEntity
 67
     1
  8
CONNECTOR
100
AcDbLine
 10
265.1878865074786
 20
67.72013876715077
 30
0.0
 11
263.8438865128547
 21
67.72013876715077
 31
0.0
  0
LINE
  5
5B9B
330
1B
100
AcDbEntity
 67
     1
  8
CONNECTOR
100
AcDbLine
 10
264.5158864987099
 20
68.92013876715073
 30
0.0
 11
259.2460787881603
 21
68.92013876715073
 31
0.0
  0
LINE
  5
5B9C
330
1B
100
AcDbEntity
 67
     1
  8
CONNECTOR
100
AcDbLine
 10
264.5158865101667
 20
67.72013876715075
 30
0.0
 11
264.515886600011
 21
68.92013876715073
 31
0.0
  0
MTEXT
  5
5B9D
330
1B
100
AcDbEntity
 67
     1
  8
CONNECTOR
100
AcDbMText
 10
266.7563530932371
 20
63.13137332193398
 30
0.0
 40
2.3999999904
 41
3.999999983999999
 71
     7
 72
     1
  1
{\W0.65;B\\}
  7
ROMANS
 73
     1
 44
1.0
1001
ACAD
1000
ACAD_MTEXT_DEFINED_HEIGHT_BEGIN
1070
    46
1040
0.0
1000
ACAD_MTEXT_DEFINED_HEIGHT_END
1000
MTEXTBEGIN
1070
    73
1070
     1
1070
    44
1040
1.0
1070
    74
1070
     0
1000
MTEXTEND
  0
TEXT
  5
5C58
330
1B
100
AcDbEntity
 67
     1
  8
DATA
100
AcDbText
 10
175.6829051118027
 20
7.348353290222588
 30
0.0
 40
3.0
  1
J.W.
  7
ITALICT
100
AcDbText
  0
TEXT
  5
5CEB
330
1B
100
AcDbEntity
 67
     1
  8
DATA
100
AcDbText
 10
174.0
 20
38.0
 30
0.0
 40
2.4
  1
52
 41
0.7
  7
ROMANS
100
AcDbText
  0
TEXT
  5
5CEC
330
1B
100
AcDbEntity
 67
     1
  8
DATA
100
AcDbText
 10
159.0
 20
38.0
 30
0.0
 40
2.4
  1
90
 41
0.7
  7
ROMANS
100
AcDbText
  0
TEXT
  5
5CED
330
1B
100
AcDbEntity
 67
     1
  8
DATA
100
AcDbText
 10
167.0
 20
38.0
 30
0.0
 40
2.4
  1
70
 41
0.7
  7
ROMANS
100
AcDbText
  0
TEXT
  5
5CEE
330
1B
100
AcDbEntity
 67
     1
  8
DATA
100
AcDbText
 10
152.0
 20
38.0
 30
0.0
 40
2.4
  1
130
 41
0.7
  7
ROMANS
100
AcDbText
  0
MTEXT
  5
5CEF
330
1B
100
AcDbEntity
 67
     1
  8
DATA
100
AcDbMText
 10
158.4983559025127
 20
50.13711884239956
 30
0.0
 40
2.399999999999999
 41
110.0
 71
     1
 72
     5
  1
{\W0.7;F\H0.8333x;a\H1.2x;=10}
  7
ROMANS
 73
     1
 44
1.0
1001
ACAD
1000
ACAD_MTEXT_DEFINED_HEIGHT_BEGIN
1070
    46
1040
0.0
1000
ACAD_MTEXT_DEFINED_HEIGHT_END
1000
MTEXTBEGIN
1070
    73
1070
     1
1070
    44
1040
1.0
1070
    74
1070
     0
1000
MTEXTEND
  0
TEXT
  5
6172
330
1B
100
AcDbEntity
 67
     1
  8
DATA
100
AcDbText
 10
79.99999999999999
 20
98.0
 30
0.0
 40
2.4
  1
7.23
 41
0.7
  7
ROMANS
100
AcDbText
  0
TEXT
  5
6173
330
1B
100
AcDbEntity
 67
     1
  8
DATA
100
AcDbText
 10
101.0
 20
98.00000000000002
 30
0.0
 40
2.4
  1
3.62
 41
0.7
  7
ROMANS
100
AcDbText
  0
TEXT
  5
6174
330
1B
100
AcDbEntity
 67
     1
  8
DATA
100
AcDbText
 10
189.4634543457442
 20
17.05999183728653
 30
0.0
 40
2.509907399999999
  1
13.07.06
 41
0.7
  7
ROMANS
100
AcDbText
  0
TEXT
  5
6175
330
1B
100
AcDbEntity
 67
     1
  8
DATA
100
AcDbText
 10
175.6829051118027
 20
16.86719000998262
 30
0.0
 40
3.0
  1
S.K.
  7
ITALICT
100
AcDbText
  0
ENDSEC
  0
SECTION
  2
OBJECTS
  0
DICTIONARY
  5
C
330
0
100
AcDbDictionary
281
     1
  3
ACAD_COLOR
350
BE
  3
ACAD_GROUP
350
D
  3
ACAD_LAYOUT
350
1A
  3
ACAD_MATERIAL
350
BD
  3
ACAD_MLINESTYLE
350
17
  3
ACAD_PLOTSETTINGS
350
19
  3
ACAD_PLOTSTYLENAME
350
E
  3
ACAD_TABLESTYLE
350
11A
  3
AcadDim
350
2E5B
  3
ACDBHEADERROUNDTRIPXREC
350
61B5
  3
AcDbVariableDictionary
350
94
  3
AcmDictionary
350
5B
  3
AMG
350
41
  3
AMGSNAPSETTINGS
350
26B
  3
DWGPROPS
350
61B4
  0
DICTIONARY
  5
2F5
330
2
100
AcDbDictionary
280
     1
281
     1
  3
ACAD_LAYERSTATES
360
2F6
  0
DICTIONARY
  5
8F
330
1F
100
AcDbDictionary
280
     1
281
     1
  3
ACAD_SORTENTS
360
4FF8
  0
DICTIONARY
  5
2D9F
330
1B
100
AcDbDictionary
280
     1
281
     1
  3
ACAD_SORTENTS
360
2DA0
  0
DICTIONARY
  5
128A
330
125D
100
AcDbDictionary
280
     1
281
     1
  0
DICTIONARY
  5
2CC2
330
2CC0
100
AcDbDictionary
280
     1
281
     1
  0
DICTIONARY
  5
4CA4
330
4C97
100
AcDbDictionary
280
     1
281
     1
  3
ACAD_DIMASSOC
360
4CA5
  0
DICTIONARY
  5
4CFB
330
4CEE
100
AcDbDictionary
280
     1
281
     1
  3
ACAD_DIMASSOC
360
4CFC
  0
DICTIONARY
  5
4ECB
330
4EBE
100
AcDbDictionary
280
     1
281
     1
  3
ACAD_DIMASSOC
360
4ECC
  0
DICTIONARY
  5
61B9
330
2D8
100
AcDbDictionary
280
     1
281
     1
  3
ACAD_XREC_ROUNDTRIP
360
61BA
  0
DICTIONARY
  5
61BB
330
1E55
100
AcDbDictionary
280
     1
281
     1
  3
ACAD_XREC_ROUNDTRIP
360
61BC
  0
DICTIONARY
  5
BE
102
{ACAD_REACTORS
330
C
102
}
330
C
100
AcDbDictionary
281
     1
  0
DICTIONARY
  5
D
102
{ACAD_REACTORS
330
C
102
}
330
C
100
AcDbDictionary
281
     1
  0
DICTIONARY
  5
1A
102
{ACAD_REACTORS
330
C
102
}
330
C
100
AcDbDictionary
281
     1
  3
Layout1
350
1E
  3
Model
350
22
  0
DICTIONARY
  5
BD
102
{ACAD_REACTORS
330
C
102
}
330
C
100
AcDbDictionary
281
     1
  0
DICTIONARY
  5
17
102
{ACAD_REACTORS
330
C
102
}
330
C
100
AcDbDictionary
281
     1
  3
Standard
350
18
  0
DICTIONARY
  5
19
102
{ACAD_REACTORS
330
C
102
}
330
C
100
AcDbDictionary
281
     1
  0
ACDBDICTIONARYWDFLT
  5
E
102
{ACAD_REACTORS
330
C
102
}
330
C
100
AcDbDictionary
281
     1
  3
Normal
350
F
100
AcDbDictionaryWithDefault
340
F
  0
DICTIONARY
  5
11A
102
{ACAD_REACTORS
330
C
102
}
330
C
100
AcDbDictionary
281
     1
  3
Standard
350
11B
  0
XRECORD
  5
2E5B
102
{ACAD_REACTORS
330
C
102
}
330
C
100
AcDbXrecord
280
     1
 90
   990106
  3

 60
     0
 61
     0
 62
     1
 63
     3
 64
     0
 65
     0
 66
     0
 67
     3
 68
     1
 69
     0
 70
     0
 71
     0
 72
     0
 40
0.0
170
     0
340
2E0B
  0
DICTIONARY
  5
61B5
102
{ACAD_REACTORS
330
C
102
}
330
C
100
AcDbDictionary
281
     1
  0
DICTIONARY
  5
94
102
{ACAD_REACTORS
330
C
102
}
330
C
100
AcDbDictionary
281
     1
  3
CTABLESTYLE
350
138
  3
DIMASSOC
350
96
  3
INDEXCTL
350
95
  3
PROJECTNAME
350
1B03
  0
DICTIONARY
  5
5B
102
{ACAD_REACTORS
330
C
102
}
330
C
100
AcDbDictionary
281
     1
  3
AcmBOM
350
272
  3
AcmStdDictionary
350
61
  3
AMDTSECTSYM_ARROWCOLOR
350
123
  0
DICTIONARY
  5
41
102
{ACAD_REACTORS
330
C
102
}
330
C
100
AcDbDictionary
281
     1
  0
DICTIONARY
  5
26B
102
{ACAD_REACTORS
330
C
102
}
330
C
100
AcDbDictionary
281
     1
  0
XRECORD
  5
61B4
102
{ACAD_REACTORS
330
C
102
}
330
C
100
AcDbXrecord
280
     1
  1
DWGPROPS COOKIE
  2

  3

  4

  6

  7

  8

  9

300
AmdtFileType=84
301
=
302
=
303
=
304
=
305
=
306
=
307
=
308
=
309
=
 40
1.319419560185185
 41
2453787.436149942
 42
2453945.496459815
  1

 90
        1
  0
DICTIONARY
  5
2F6
102
{ACAD_REACTORS
330
2F5
102
}
330
2F5
100
AcDbDictionary
281
     1
  0
SORTENTSTABLE
  5
4FF8
102
{ACAD_REACTORS
330
8F
102
}
330
8F
100
AcDbSortentsTable
330
1F
331
5E1F
  5
5E21
331
5E27
  5
5E29
331
5E2F
  5
5E31
331
3C7C
  5
3C7F
331
3BC6
  5
3BC6
331
3C05
  5
3C07
331
3C84
  5
3C86
331
3C0D
  5
3C0F
331
3C8C
  5
3C8E
331
3BD6
  5
3BD6
331
3C15
  5
3C17
331
3BDE
  5
3BDE
331
3C25
  5
3C29
331
5E00
  5
5E02
331
5E08
  5
5E0A
331
5E7F
  5
3BE3
331
5E10
  5
5E12
331
4F57
  5
5D3B
331
3CA4
  5
3CA6
331
3C2D
  5
3C31
331
3CAC
  5
3CAE
331
3BEE
  5
3BF0
331
3CB4
  5
3CB7
331
3C6D
  5
3C6F
331
3BF6
  5
3C06
331
3C75
  5
3C77
331
5E18
  5
5E1A
331
5E20
  5
5E22
331
5E28
  5
5E2A
331
5DF9
  5
5DFB
331
5E30
  5
5E32
331
3C7D
  5
3C80
331
3BC7
  5
3BC7
331
3C06
  5
3C0A
331
3C0E
  5
3C10
331
3C8D
  5
3C90
331
3BD7
  5
3BD7
331
3C16
  5
3C23
331
3BDF
  5
3BDF
331
3C26
  5
3C2A
331
5E01
  5
5E03
331
5E09
  5
5E0B
331
5E11
  5
5E13
331
3CA5
  5
3CA7
331
3CAD
  5
3CAF
331
3BEF
  5
3BF1
331
3CB5
  5
4C97
331
3C6E
  5
3C70
331
3C76
  5
3C78
331
5E19
  5
5E1B
331
5DCA
  5
5DDB
331
5C9B
  5
5D3C
331
5E21
  5
5E23
331
5E29
  5
5E2B
331
5D3B
  5
5D3D
331
5DFA
  5
5DFC
331
5E31
  5
5E33
331
3BC8
  5
3BC8
331
3C07
  5
3C0B
331
3C0F
  5
3C11
331
3C8E
  5
3C96
331
3BD8
  5
3BD8
331
3C17
  5
3C24
331
3C96
  5
3CA1
331
5E02
  5
5E04
331
5E0A
  5
5E0C
331
5E12
  5
5E14
331
3BE0
  5
3BE0
331
3CA6
  5
3CA8
331
3CAE
  5
3CB0
331
3BF0
  5
3BF3
331
3C6F
  5
3C71
331
5E1A
  5
5E1C
331
5E22
  5
5E24
331
5DDB
  5
5DF9
331
5E2A
  5
5E2C
331
5D3C
  5
5D3E
331
5DFB
  5
5DFD
331
5E32
  5
5E34
331
13FA
  5
13FA
331
3BC9
  5
3BC9
331
3C10
  5
3C12
331
3BD9
  5
3BD9
331
5E03
  5
5E05
331
5E0B
  5
5E0D
331
5E13
  5
5E15
331
3BE1
  5
3BE2
331
3CA7
  5
3CA9
331
3C30
  5
3C33
331
3CAF
  5
3CB1
331
3C68
  5
3C6A
331
3BF1
  5
3BF4
331
3CB7
  5
4CEE
331
3C70
  5
3C72
331
5E1B
  5
5E1D
331
5E23
  5
5E25
331
5E2B
  5
5E2D
331
5D3D
  5
5D3F
331
5DFC
  5
5DFE
331
5E33
  5
5E35
331
4F23
  5
5C9B
331
3C78
  5
3C7A
331
3C88
  5
3C8A
331
3C11
  5
3C13
331
3C90
  5
3CA0
331
3BDA
  5
3BDA
331
5E04
  5
5E06
331
5E0C
  5
5E0E
331
5E14
  5
5E17
331
3CA0
  5
3CA2
331
3BE2
  5
3BE5
331
3C29
  5
3C2C
331
3CA8
  5
3CAA
331
3C31
  5
3C34
331
3CB0
  5
3CB2
331
3C69
  5
3C6B
331
3C71
  5
3C73
331
5E1C
  5
5E1E
331
5E24
  5
5E26
331
5E2C
  5
5E2E
331
5D3E
  5
5D40
331
5DFD
  5
5DFF
331
5E34
  5
5E36
331
3C79
  5
3C7B
331
3C0A
  5
3C0C
331
3C12
  5
3C14
331
3C89
  5
3C8B
331
3BDB
  5
3BDB
331
5E05
  5
5E07
331
5E0D
  5
5E0F
331
5E15
  5
5E18
331
3BE3
  5
3BEB
331
3C2A
  5
3C2D
331
3CA1
  5
3CA3
331
3BEB
  5
3BED
331
3CA9
  5
3CAB
331
3C6A
  5
3C6C
331
3BF3
  5
3BF5
331
3CB1
  5
3CB3
331
3C72
  5
3C74
331
5E1D
  5
5E1F
331
5DCE
  5
5DDE
331
5E25
  5
5E27
331
5DDE
  5
5DFA
331
5E2D
  5
5E2F
331
5DFE
  5
5E00
331
5D3F
  5
5DC7
331
5E35
  5
5E7E
331
4CEE
  5
4EBE
331
3C7A
  5
3C7C
331
3C0B
  5
3C0D
331
3C13
  5
3C15
331
3C8A
  5
3C8C
331
3BDC
  5
3BDC
331
3C23
  5
3C25
331
5E06
  5
5E08
331
5E0E
  5
5E10
331
5DC7
  5
5DCE
331
4C97
  5
4E6F
331
3CA2
  5
3CA4
331
3BEC
  5
3BEE
331
3C33
  5
3C68
331
3CAA
  5
3CAC
331
3BF4
  5
3BF6
331
3CB2
  5
3CB4
331
3C73
  5
3C75
331
5E1E
  5
5E20
331
5E26
  5
5E28
331
5E2E
  5
5E30
331
5DFF
  5
5E01
331
5E36
  5
5E7F
331
4EBE
  5
4F57
331
3BC5
  5
3BC5
331
3C7B
  5
3C7D
331
3C0C
  5
3C0E
331
3C14
  5
3C16
331
3C8B
  5
3C8D
331
3C24
  5
3C26
331
5D40
  5
5DCA
331
5E07
  5
5E09
331
5E7E
  5
3BE1
331
5E0F
  5
5E11
331
5E17
  5
5E19
331
3CA3
  5
3CA5
331
3BE5
  5
3BEC
331
3C2C
  5
3C30
331
3CAB
  5
3CAD
331
3BED
  5
3BEF
331
3C34
  5
3C69
331
3CB3
  5
3CB5
331
3BF5
  5
3C05
  0
SORTENTSTABLE
  5
2DA0
102
{ACAD_REACTORS
330
2D9F
102
}
330
2D9F
100
AcDbSortentsTable
330
1B
331
19EE
  5
19EE
331
1290
  5
1290
331
19F6
  5
19F6
331
19BF
  5
19BF
331
12A0
  5
12A0
331
1A23
  5
1A23
331
19C7
  5
19C7
331
1A06
  5
1A06
331
2D99
  5
2D9A
331
2DA1
  5
2DA2
331
12A8
  5
12A8
331
12B0
  5
12B0
331
1A0E
  5
1A0E
331
12B8
  5
12B8
331
1A16
  5
1A16
331
19DF
  5
19DF
331
1A1E
  5
1A1E
331
19E7
  5
19E7
331
2D72
  5
2D72
331
19EF
  5
19EF
331
1291
  5
1291
331
1708
  5
1708
331
1299
  5
1299
331
19F7
  5
19F7
331
19C0
  5
19C0
331
19FF
  5
19FF
331
1A07
  5
1A07
331
2D9A
  5
2DA1
331
2DA2
  5
2D9E
331
2CCB
  5
2CCB
331
19C8
  5
19C8
331
12A9
  5
12A9
331
12B1
  5
12B1
331
1A0F
  5
1A0F
331
19D8
  5
19D8
331
1A17
  5
1A17
331
19E0
  5
19E0
331
1A1F
  5
1A1F
331
2CEB
  5
2CEB
331
19E8
  5
19E8
331
19F0
  5
19F0
331
129A
  5
129A
331
19C1
  5
19C1
331
12A2
  5
12A2
331
1A00
  5
1A00
331
19C9
  5
19C9
331
12AA
  5
12AA
331
1A08
  5
1A08
331
19D1
  5
19D1
331
12B2
  5
12B2
331
1A10
  5
1A10
331
12BA
  5
12BA
331
1A18
  5
1A18
331
19E1
  5
19E1
331
1E55
  5
1E55
331
19E9
  5
19E9
331
19F1
  5
19F1
331
129B
  5
129B
331
19F9
  5
19F9
331
19C2
  5
19C2
331
12A3
  5
12A3
331
1A01
  5
1A01
331
2D94
  5
2D94
331
12AB
  5
12AB
331
1A09
  5
1A09
331
19D2
  5
19D2
331
12B3
  5
12B3
331
1A11
  5
1A11
331
1A19
  5
1A19
331
19E2
  5
19E2
331
2D6D
  5
2D6D
331
19EA
  5
19EA
331
1294
  5
1294
331
19F2
  5
19F2
331
19BB
  5
19BB
331
129C
  5
129C
331
19FA
  5
19FA
331
12A4
  5
12A4
331
1A02
  5
1A02
331
2CB6
  5
2CB6
331
2D95
  5
2D95
331
12AC
  5
12AC
331
1A0A
  5
1A0A
331
12B4
  5
12B4
331
1A1A
  5
1A1A
331
19E3
  5
19E3
331
19EB
  5
19EB
331
129D
  5
129D
331
19FB
  5
19FB
331
1A03
  5
1A03
331
12A5
  5
12A5
331
19C4
  5
19C4
331
2D96
  5
2D96
331
2CB7
  5
2CB7
331
2CBF
  5
2CBF
331
2D9E
  5
2D99
331
12AD
  5
12AD
331
1A0B
  5
1A0B
331
1A13
  5
1A13
331
12B5
  5
12B5
331
1A1B
  5
1A1B
331
19DC
  5
19DC
331
19E4
  5
19E4
331
19EC
  5
19EC
331
2D8
  5
2D8
331
19F4
  5
19F4
331
1296
  5
1296
331
19BD
  5
19BD
331
129E
  5
129E
331
1A21
  5
1A21
331
1A04
  5
1A04
331
19C5
  5
19C5
331
12A6
  5
12A6
331
2D97
  5
2D97
331
1A0C
  5
1A0C
331
12AE
  5
12AE
331
1A14
  5
1A14
331
19D5
  5
19D5
331
12B6
  5
12B6
331
1A1C
  5
1A1C
331
19DD
  5
19DD
331
19E5
  5
19E5
331
2D70
  5
2D70
331
19ED
  5
19ED
331
1297
  5
1297
331
129F
  5
129F
331
19FD
  5
19FD
331
1A22
  5
1A22
331
19C6
  5
19C6
331
12A7
  5
12A7
331
1A05
  5
1A05
331
2D98
  5
2D98
331
1A6A
  5
1A6A
331
12AF
  5
12AF
331
1A0D
  5
1A0D
331
19D6
  5
19D6
331
12B7
  5
12B7
331
1A15
  5
1A15
331
19DE
  5
19DE
331
1A1D
  5
1A1D
331
19E6
  5
19E6
331
2D71
  5
2D71
  0
DIMASSOC
  5
4CA5
102
{ACAD_REACTORS
330
4CA4
102
}
330
4CA4
100
AcDbDimAssoc
330
4C97
 90
        3
 70
     0
 71
     0
  1
AcDbOsnapPointRef
 72
     1
331
3C23
 73
     0
 91
        0
 40
0.0
 10
0.0
 20
0.0
 30
2.000000000000000E+50
 75
     0
  1
AcDbOsnapPointRef
 72
    13
331
3C26
 73
     0
 91
        0
 40
0.0
 10
0.0
 20
0.0
 30
2.000000000000000E+50
 75
     0
  0
DIMASSOC
  5
4CFC
102
{ACAD_REACTORS
330
4CFB
102
}
330
4CFB
100
AcDbDimAssoc
330
4CEE
 90
        1
 70
     0
 71
     0
  1
AcDbOsnapPointRef
 72
     1
331
3C29
 73
     0
 91
        0
 40
0.0
 10
0.0
 20
0.0
 30
2.000000000000000E+50
 75
     0
  0
DIMASSOC
  5
4ECC
102
{ACAD_REACTORS
330
4ECB
102
}
330
4ECB
100
AcDbDimAssoc
330
4EBE
 90
        1
 70
     0
 71
     0
  1
AcDbOsnapPointRef
 72
    13
331
3BE0
 73
     0
 91
        0
 40
0.0
 10
0.0
 20
0.0
 30
2.000000000000000E+50
 75
     0
  0
XRECORD
  5
61BA
102
{ACAD_REACTORS
330
61B9
102
}
330
61B9
100
AcDbXrecord
280
     1
102
SHADEPLOT
 70
     0
  0
XRECORD
  5
61BC
102
{ACAD_REACTORS
330
61BB
102
}
330
61BB
100
AcDbXrecord
280
     1
102
SHADEPLOT
 70
     0
  0
LAYOUT
  5
1E
102
{ACAD_XDICTIONARY
360
2F8
102
}
102
{ACAD_REACTORS
330
1A
102
}
330
1A
100
AcDbPlotSettings
  1

  2
Win2PDF
  4
A4
  6

 40
3.174999952316284
 41
3.174999952316284
 42
3.175003051757812
 43
3.17498779296875
 44
209.9944915771484
 45
296.989501953125
 46
3.797234263759264
 47
4.285754792267141
 48
0.0
 49
0.0
140
0.0
141
0.0
142
1.0
143
1.0
 70
   692
 72
     1
 73
     1
 74
     1
  7
monochrome.ctb
 75
    16
147
1.0
148
0.0207046985500483
149
0.0077113349277624
100
AcDbLayout
  1
Layout1
 70
     1
 71
     1
 10
-7.481447283785939
 20
-6.979945551003311
 11
289.5080546693391
 21
203.0145460261451
 12
0.0
 22
0.0
 32
0.0
 14
-0.0132047132058233
 24
-0.001063177497258
 34
-0.0015258207003583
 15
282.0624719825711
 25
196.0516859387771
 35
0.0000000349246037
146
0.0
 13
0.0
 23
0.0
 33
0.0
 16
1.0
 26
0.0
 36
0.0
 17
0.0
 27
1.0
 37
0.0
 76
     0
330
1B
331
2D8
1001
ACAD_PSEXT
1000
Win2PDF
1000
Win2PDF
1000
PDFFILE:
1000

1070
     0
  0
LAYOUT
  5
22
102
{ACAD_XDICTIONARY
360
61B7
102
}
102
{ACAD_REACTORS
330
1A
102
}
330
1A
100
AcDbPlotSettings
  1

  2
\\pallas\ColorLaserJet Büro
  4
A4
  6

 40
6.805083274841308
 41
5.027085304260253
 42
6.805084228515625
 43
5.027069091796875
 44
209.9733276367187
 45
296.9683227539062
 46
0.0
 47
0.0
 48
0.0
 49
0.0
140
0.0
141
0.0
142
1.0
143
1.82975238375777
 70
 11952
 72
     1
 73
     1
 74
     0
  7

 75
     0
147
0.5465220370126233
148
-1003.732693658126
149
-531.8054935907698
100
AcDbLayout
  1
Model
 70
     1
 71
     0
 10
0.0
 20
0.0
 11
12.0
 21
9.0
 12
0.0
 22
0.0
 32
0.0
 14
0.0
 24
0.0
 34
0.0
 15
0.0
 25
0.0
 35
0.0
146
0.0
 13
0.0
 23
0.0
 33
0.0
 16
1.0
 26
0.0
 36
0.0
 17
0.0
 27
1.0
 37
0.0
 76
     0
330
1F
1001
ACAD_PSEXT
1000
\\pallas\ColorLaserJet Büro
1000
HP Color LaserJet 4550 PCL
1000
Serverraum
1000
HP ColorLaserJet 4550N
1070
     0
  0
MLINESTYLE
  5
18
102
{ACAD_REACTORS
330
17
102
}
330
17
100
AcDbMlineStyle
  2
STANDARD
 70
     0
  3

 62
   256
 51
90.0
 52
90.0
 71
     2
 49
0.5
 62
   256
  6
BYLAYER
 49
-0.5
 62
   256
  6
BYLAYER
  0
ACDBPLACEHOLDER
  5
F
102
{ACAD_REACTORS
330
E
102
}
330
E
  0
TABLESTYLE
  5
11B
102
{ACAD_REACTORS
330
11A
102
}
330
11A
100
AcDbTableStyle
  3
Standard
 70
     0
 71
     0
 40
1.5
 41
1.5
280
     0
281
     0
  7
STANDARD
140
4.5
170
     2
 62
     0
 63
     7
283
     0
274
    -2
284
     1
 64
     0
275
    -2
285
     1
 65
     0
276
    -2
286
     1
 66
     0
277
    -2
287
     1
 67
     0
278
    -2
288
     1
 68
     0
279
    -2
289
     1
 69
     0
  7
STANDARD
140
6.0
170
     5
 62
     0
 63
     7
283
     0
274
    -2
284
     1
 64
     0
275
    -2
285
     1
 65
     0
276
    -2
286
     1
 66
     0
277
    -2
287
     1
 67
     0
278
    -2
288
     1
 68
     0
279
    -2
289
     1
 69
     0
  7
STANDARD
140
4.5
170
     5
 62
     0
 63
     7
283
     0
274
    -2
284
     1
 64
     0
275
    -2
285
     1
 65
     0
276
    -2
286
     1
 66
     0
277
    -2
287
     1
 67
     0
278
    -2
288
     1
 68
     0
279
    -2
289
     1
 69
     0
  0
DICTIONARYVAR
  5
138
102
{ACAD_REACTORS
330
94
102
}
330
94
100
DictionaryVariables
280
     0
  1
STANDARD
  0
DICTIONARYVAR
  5
96
102
{ACAD_REACTORS
330
94
102
}
330
94
100
DictionaryVariables
280
     0
  1
2
  0
DICTIONARYVAR
  5
95
102
{ACAD_REACTORS
330
94
102
}
330
94
100
DictionaryVariables
280
     0
  1
0
  0
DICTIONARYVAR
  5
1B03
102
{ACAD_REACTORS
330
94
102
}
330
94
100
DictionaryVariables
280
     0
  1

  0
DICTIONARY
  5
272
102
{ACAD_REACTORS
330
5B
102
}
330
5B
100
AcDbDictionary
281
     1
  0
DICTIONARY
  5
61
102
{ACAD_REACTORS
330
5B
102
}
330
5B
100
AcDbDictionary
281
     1
  0
XRECORD
  5
123
102
{ACAD_REACTORS
330
5B
102
}
330
5B
100
AcDbXrecord
280
     1
 90
-1023410169
  0
DICTIONARY
  5
2F8
330
1E
100
AcDbDictionary
280
     1
281
     1
  3
ACAD_XREC_ROUNDTRIP
360
61B6
  3
ADSK_XREC_LAYOUTTHUMBNAIL
360
2F9
  0
DICTIONARY
  5
61B7
330
22
100
AcDbDictionary
280
     1
281
     1
  3
ACAD_XREC_ROUNDTRIP
360
61B8
  0
XRECORD
  5
61B6
102
{ACAD_REACTORS
330
2F8
102
}
330
2F8
100
AcDbXrecord
280
     1
102
SHADEPLOT
 70
     0
102
SHADEPLOTRESLEVEL
 70
     2
102
SHADEPLOTCUSTOMDPI
 70
   300
  0
XRECORD
  5
2F9
102
{ACAD_REACTORS
330
2F8
102
}
330
2F8
100
AcDbXrecord
280
     1
310
28000000B40000007F00000001000800000000004C590000000000000000000000010000000000000000000000000000FFFFFF000000000000000000000000000000000000000000000000000000000000000000330000006600000099000000CC000000FF00000000330000333300006633000099330000CC330000FF3300
310
0000660000336600006666000099660000CC660000FF66000000990000339900006699000099990000CC990000FF99000000CC000033CC000066CC000099CC0000CCCC0000FFCC000000FF000033FF000066FF000099FF0000CCFF0000FFFF000000003300330033006600330099003300CC003300FF003300003333003333
310
33006633330099333300CC333300FF33330000663300336633006666330099663300CC663300FF66330000993300339933006699330099993300CC993300FF99330000CC330033CC330066CC330099CC3300CCCC3300FFCC330000FF330033FF330066FF330099FF3300CCFF3300FFFF330000006600330066006600660099
310
006600CC006600FF00660000336600333366006633660099336600CC336600FF33660000666600336666006666660099666600CC666600FF66660000996600339966006699660099996600CC996600FF99660000CC660033CC660066CC660099CC6600CCCC6600FFCC660000FF660033FF660066FF660099FF6600CCFF6600
310
FFFF660000009900330099006600990099009900CC009900FF00990000339900333399006633990099339900CC339900FF33990000669900336699006666990099669900CC669900FF66990000999900339999006699990099999900CC999900FF99990000CC990033CC990066CC990099CC9900CCCC9900FFCC990000FF99
310
0033FF990066FF990099FF9900CCFF9900FFFF99000000CC003300CC006600CC009900CC00CC00CC00FF00CC000033CC003333CC006633CC009933CC00CC33CC00FF33CC000066CC003366CC006666CC009966CC00CC66CC00FF66CC000099CC003399CC006699CC009999CC00CC99CC00FF99CC0000CCCC0033CCCC0066CC
310
CC0099CCCC00CCCCCC00FFCCCC0000FFCC0033FFCC0066FFCC0099FFCC00CCFFCC00FFFFCC000000FF003300FF006600FF009900FF00CC00FF00FF00FF000033FF003333FF006633FF009933FF00CC33FF00FF33FF000066FF003366FF006666FF009966FF00CC66FF00FF66FF000099FF003399FF006699FF009999FF00CC
310
99FF00FF99FF0000CCFF0033CCFF0066CCFF0099CCFF00CCCCFF00FFCCFF0000FFFF0033FFFF0066FFFF0099FFFF00CCFFFF00FFFFFF00000000000D0D0D001A1A1A00282828003535350043434300505050005D5D5D006B6B6B00787878008686860093939300A1A1A100AEAEAE00BBBBBB00C9C9C900D6D6D600E4E4E400
310
F1F1F100FFFFFF0000000000000000000000000000000000000000000000000000000000000000000000000000000000F5F5F5F5F5F5F5F5F5F5F5F5F5F5F5F5F5F5F5F5F5F5F5F5F5F5F5F5F5F5F5F5F5F5F5F5F5F5F5F5F5F5F5F5F5F5F5F5F5F5F5F5F5F5F5F5F5F5F5F5F5F5F5F5F5F5F5F5F5F5F5F5F5F5F5F5F5F5F5
310
F5F5F5F5F5F5F5F5F5F5F5F5F5F5F5F5F5F5F5F5F5F5F5F5F5F5F5F5F5F5F5F5F5F5F5F5F5F5F5F5F5F5F5F5F5F5F5F5F5F5F5F5F5F5F5F5F5F5F5F5F5F5F5F5F5F5F5F5F5F5F5F5F5F5F5F5F5F5F5F5F5F5F5F5F5F5F5F5F5F5F5F5F5F5F5F5F5F5F5F5F5F5E2E2E2E2E2E2E2E2E2E2E2E2E2E2E2E2E2E2E2E2E2E2E2E2E2
310
E2E2E2E2E2E2E2E2E2E2E2E2E2E2E2E2E2E2E2E2E2E2E2E2E2E2E2E2E2E2E2E2E2E2E2E2E2E2E2E2E2E2E2E2E2E2E2E2E2E2E2E2E2E2E2E2E2E2E2E2E2E2E2E2E2E2E2E2E2E2E2E2E2E2E2E2E2E2E2E2E2E2E2E2E2E2E2E2E2E2E2E2E2E2E2E2E2E2E2E2E2E2E2E2E2E2E2E2E2E2E2E2E2E2E2E2E2E2E2E2E2E2E2E2E2E2E2
310
E2E2E2E2E2E2E2E2E2E2E2E2E2E2E2E2E2E2E2E2E2E2E2E2E2F5F5F5E2F5F5F5F5F5F5F5F5E2E2E2E2E2E2E2E2E2F5F5F5F5F5F5F5F5F5F5F5F5F5F5F5F5E2E2E2E2E2E2E2E2E2F5F5F5F5F5F5F5F5F5F5F5F5F5F5F5F5E2E2E2E2E2E2E2E2E2F5F5F5F5F5F5F5F5F5F5F5F5F5F5F5F5E2E2E2E2E2E2E2E2E2F5F5F5F5F5F5
310
F5F5F5F5F5F5F5F5F5F5E2E2E2E2E2E2E2E2E2F5F5F5F5F5F5F5F5F5F5F5F5F5F5F5F5E2E2E2E2E2E2E2E2E2F5F5F5F5F5F5F5F5F5F5F5F5F5F5F5F5E2E2E2E2E2E2E2E2E2F5F5F5F5F5F5F5F5E2F5F5F5E2F5E2E2E2E2E2E2E2E2E2E2E2E2E2E2E2E2E2E2E2E2E2E2E2E2E2E2E2E2E2E2E2E2E2E2E2E2E2E2E2E2E2E2E2E2
310
E2E2E2E2E2E2E2E2E2E2E2E2E2E2E2E2E2E2E2E2E2E2E2E2E2E2E2E2E2E2E2E2E2E2E2E2E2E2E2E2E2E2E2E2E2E2E2E2E2E2E2E2E2E2E2E2E2E2E2E2E2E2E2E2E2E2E2E2E2E2E2E2E2E2E2E2E2E2E2E2E2E2E2E2E2E2E2E2E2E2E2E2E2E2E2E2E2E2E2E2E2E2E2E2E2E2E2E2E2E2E2E2E2E2E2E2E2E2E2E2E2E2E2E2E2E2E2
310
E2E2F5E2F5F5F5E2F5E2E2BEBEBEBEBEBEBEBEBEBEBEBEBEBEBEBEBEBEBEBEBEBEBEBEBEBEBEBEBEBEBEBEBEBEBEBEBEBEBEBEBEBEBEBEBEBEBEBEBEBEBEBEBEBEBEBEBEBEBEBEBEBEBEBEBEBEBEBEBEBEBEBEBEBEBEBEBEBEBEBEBEBEBEBEBEBEBEBEBEBEBEBEBEBEBEBEBEBEBEBEBEBEBEBEBEBEBEBEBEBEBEBEBEBEBEBE
310
BEBEBEBEBEBEBEBEBEBEBEBEBEBEBEBEBEBEBEBEBEBEBEBEBEBEBEBEBEBEBEBEBEBEBEBEBEBEBEBEBEBEBEBEBEBEBEBEBEBEBEBEBEE2E2F5E2F5F5F5E2F5E2E2BEE2E2E2E2E2C3E2E2E2E2E2E2E2E2E2E2E2E2E2E2E2E2E2E2E2E2E2E2E2C3E2E2E2E2E2E2E2E2E2E2E2C3E2E2E2E2E2E2E2E2C3E2E2E2E2E2E2E2E2E2E2E2
310
E2E2E2E2E2E2E2E2E2E2E2E2E2E2E2E2E2E2E2E2E2C3E2E2E2E2E2E2E2E2E2E2E2C3C3E2E2E2E2E2E2E2E2E2E2E2E2E2E2E2C3E2E2E2E2E2E2E2E2E2C3E2E2E2E2E2E2E2E2E2E2E2E2E2E2E2E2E2E2E2E2E2E2E2E2E2E2E2E2E2E2E2E2E2E2E2E2E2E2E2E2E2E2E2E2BEE2E2F5E2F5F5F5E2F5E2E2BEC3C3C3C3E2C3E2C3C3
310
C3C3C3C3C3E2C3C3C3C3E2E2E2E2E2E2E2E2E2E2C3E2C3C3C3C3C3E2E2E2E2E2C3C3C3E2C3C3C3E2E2C3E2E2E2E2E2E2E2E2E2E2E2E2E2E2E2E2E2E2E2E2E2E2E2E2E2E2E2E2E2E2E2E2C3C3C3C3C3C3E2E2C3C3C3C3C3C3E2C3C3C3C3C3C3C3C3C3C3C3E2E2E2C3E2E2C3C3C3C3C3E2E2C3E2E2E2E2E2E2E2E2E2C3C3C3C3
310
C3C3C3C3C3C3C3C3C3C3C3C3C3C3E2E2E2E2E2E2E2E2E2E2E2E2E2E2E2E2E2BEE2E2F5E2F5F5F5E2F5E2E2BEC3C3C3C3C3C3E2C3C3C3C3C3C3C3C3C3C3C3C3E2E2E2E2E2E2E2E2E2E2C3E2C3C3C3C3C3E2E2E2E2E2C3E2C3C3C3C3C3E2E2C3E2E2E2E2C3C3C3C3C3C3C3C3C3C3C3C3C3C3C3C3C3C3E2E2E2E2E2E2E2E2E2E2
310
C3C3C3C3C3C3E2E2E2C3C3C3C3C3E2C3C3C3C3C3C3C3C3C3C3C3E2E2E2C3E2E2C3C3C3C3C3E2E2C3E2E2E2E2E2E2E2E2E2C3C3C3C3C3C3C3C3C3C3C3E2C3C3C3C3C3C3E2E2E2E2E2E2E2E2E2E2E2E2E2E2E2E2E2BEE2E2F5E2F5F5F5E2F5E2E2BEC3C3C3C3C3C3C3C3C3C3C3C3C3C3C3C3C3C3C3C3C3C3C3C3C3C3C3C3C3C3
310
C3C3C3C3C3C3C3C3C3C3C3C3C3C3C3C3C3C3C3C3C3E2E2E2E2E2C3C3C3C3C3C3C3C3C3C3E2C3C3C3C3C3C3E2E2E2E2E2E2E2E2E2E2C3C3C3C3E2E2E2E2C3C3C3C3C3C3C3C3C3C3C3C3C3C3C3C3C3C3C3C3C3C3C3C3C3C3C3C3C3C3C3C3E2E2E2E2E2E2E2E2E2C3C3C3C3C3C3C3C3C3C3C3C3C3C3C3C3C3C3E2E2E2E2E2E2E2
310
E2E2E2E2E2E2E2E2E2E2BEE2E2F5E2F5F5F5E2F5E2E2BEE2E2E2E2E2C3E2E2E2E2E2E2E2E2E2E2E2E2E2E2E2E2E2E2E2E2E2E2E2C3E2E2E2E2E2E2E2E2E2E2E2C3E2E2E2E2E2E2E2E2C3E2E2E2E2C3C3C3C3C3C3C3C3C3C3C3C3C3C3C3C3C3C3E2E2E2E2E2E2E2E2E2E2C3C3C3C3E2E2E2E2E2C3C3C3C3C3C3C3C3C3E2C3E2
310
C3C3C3C3C3C3E2E2C3C3C3C3C3C3C3C3E2E2C3C3C3C3C3C3C3C3E2E2E2E2E2E2E2E2E2E2E2E2E2E2E2E2E2E2E2E2E2E2E2E2E2E2E2E2E2E2E2E2E2E2E2E2E2BEE2E2F5E2F5F5F5E2E2E2E2BEE2E2E2E2E2C3E2E2E2E2E2E2E2E2E2E2E2E2E2E2E2E2E2E2E2E2E2E2E2C3E2E2E2E2E2E2E2E2E2E2E2C3E2E2E2E2E2E2E2E2C3
310
E2E2E2E2E2E2E2E2E2E2E2E2E2E2E2E2E2E2E2E2E2E2E2E2E2E2E2E2E2E2E2E2C3C3C3C3E2E2E2E2C3C3C3C3C3C3C3C3C3C3E2C3E2E2C3E2C3C3E2E2E2C3C3C3C3C3C3C3C3E2E2C3C3C3C3C3C3C3C3E2E2E2E2E2E2E2E2E2E2E2E2E2E2E2E2E2E2E2E2E2E2E2E2E2E2E2E2E2E2E2E2E2E2E2E2E2BEE2E2E2E2F5F5F5E2E2E2
310
E2BEC3C3C3C3C3C3C3C3C3C3C3C3C3C3C3C3C3C3C3C3C3C3C3C3C3C3C3C3C3C3C3C3C3C3C3C3C3C3C3C3C3C3C3C3C3C3C3C3C3C3C3E2E2E2E2E2E2E2E2E2E2E2E2E2E2E2E2E2E2E2E2E2E2E2E2E2E2E2E2E2E2E2E2C3C3C3C3E2E2E2E2C3C3C3C3C3C3C3C3C3C3C3C3C3C3C3C3C3C3C3C3C3C3C3C3C3C3C3C3C3C3C3C3C3C3
310
C3C3C3C3C3E2E2E2E2E2E2E2E2E2E2E2E2E2E2E2E2E2E2E2E2E2E2E2E2E2E2E2E2E2E2E2E2E2E2E2E2E2BEE2E2E2E2F5F5F5E2E2E2E2BEE2E2E2E2E2C3E2E2E2E2E2E2E2E2E2E2E2E2E2E2E2E2E2E2E2E2E2E2E2C3E2E2E2E2E2E2E2E2E2E2E2C3E2E2E2E2E2E2E2E2C3E2E2E2E2E2E2E2E2E2E2E2E2E2E2E2E2E2E2E2E2E2
310
E2E2E2E2E2E2E2E2E2E2E2C3C3C3E2E2E2E2E2C3C3C3C3C3C3C3C3C3C3C3C3E2E2E2E2E2E2E2E2E2C3E2E2E2E2E2E2E2E2E2C3C3C3C3C3C3C3C3C3C3C3C3C3C3C3C3C3C3C3C3C3C3C3C3C3C3C3C3C3C3C3C3C3C3C3C3C3C3C3C3C3C3C3C3C3BEE2E2E2E2F5F5F5E2E2E2E2BEE2E2E2E2E2C3E2E2E2E2E2E2E2E2E2E2E2E2E2
310
E2E2E2E2E2E2E2E2E2E2C3E2E2E2E2E2E2E2E2E2E2E2C3E2E2E2E2E2E2E2E2C3E2E2E2E2E2E2E2E2E2E2E2E2E2E2E2E2E2E2E2E2E2E2E2E2E2E2E2E2E2E2E2E2C3C3C3E2E2E2E2E2E2C3C3C3C3C3C3C3C3C3C3C3E2E2E2E2E2E2E2E2E2C3E2E2E2E2E2E2E2E2E2C3E2E2C3C3C3C3C3C3C3E2C3E2C3C3C3E2C3E2C3C3C3C3C3
310
C3C3C3C3C3C3E2E2E2E2E2E2E2E2E2E2E2E2E2E2E2BEE2E2E2E2F5F5F5E2E2E2E2BEC3C3C3C3C3C3C3C3C3C3C3C3C3C3C3C3C3C3C3C3C3C3C3C3C3C3C3C3C3C3C3C3C3C3C3C3C3C3C3C3C3C3C3C3C3C3C3C3C3C3C3E2C3C3C3C3C3C3C3C3C3C3E2E2E2E2E2E2E2E2E2E2E2E2E2E2E2E2E2E2E2E2E2C3C3C3C3C3C3C3C3C3C3
310
C3C3C3C3C3C3C3C3C3C3C3C3C3C3C3C3C3C3C3C3C3C3C3C3C3C3C3C3C3C3E2E2C3C3C3C3C3C3C3C3C3C3C3C3C3C3C3C3E2C3C3C3C3C3E2C3C3C3C3E2E2E2E2E2E2E2E2E2E2E2E2E2E2E2BEE2E2E2E2F5F5F5E2E2E2E2BEE2E2E2E2E2C3E2E2E2E2E2E2E2E2E2E2E2E2E2E2E2E2E2E2E2E2E2E2E2C3E2E2E2E2E2E2E2E2E2E2
310
E2C3E2E2E2E2E2E2E2E2C3E2C3C3C3C3C3C3C3C3C3C3E2E2E2E2E2E2E2E2E2E2E2E2E2E2E2E2E2E2E2E2E2C3E2C3C3C3C3C3E2C3C3C3C3C3C3C3C3C3C3C3C3E2C3C3C3C3C3C3E2E2C3C3C3C3C3C3C3C3E2E2C3E2E2E2C3C3C3C3C3C3C3C3C3C3C3C3C3C3E2E2C3C3C3C3C3C3C3C3C3C3E2E2E2E2E2E2E2E2E2E2E2E2E2E2E2
310
BEE2E2E2E2F5F5F5E2E2E2E2BEE2E2E2E2E2C3E2E2E2E2E2E2E2E2E2E2E2E2E2E2E2E2E2E2E2E2E2E2E2C3E2E2E2E2E2E2E2E2E2E2E2C3E2E2E2E2E2E2E2E2C3E2C3C3C3C3C3C3C3C3C3E2E2E2E2E2E2E2E2E2E2E2E2E2E2E2E2E2E2E2E2E2E2C3E2C3C3C3C3C3E2C3C3C3C3C3C3C3C3C3C3C3C3E2C3C3C3C3C3C3E2E2C3C3
310
C3C3C3C3C3C3E2E2C3E2E2E2C3C3C3C3C3C3C3C3C3C3C3C3C3C3C3E2C3C3C3C3C3C3C3C3C3C3E2E2E2E2E2E2E2E2E2E2E2E2E2E2E2BEE2E2E2E2F5F5F5E2E2E2E2BEBEBEBEBEBEBEBEBEBEBEBEBEBEBEBEBEBEBEBEBEBEBEBEBEBEBEBEBEBEBEBEBEBEBEBEBEBEBEBEBEBEBEBEBEBEBEBEBEBEBEBEBEBEBEBEBEBEBEBEBEBE
310
BEBEBEBEBEBEBEBEBEBEBEBEBEBEBEBEBEBEBEBEBEBEBEBEBEBEBEBEBEBEBEBEBEBEBEBEBEBEBEBEBEBEBEBEBEBEBEBEBEBEBEBEBEBEBEBEBEBEBEBEBEBEBEBEBEBEBEBEBEBEBEBEBEBEBEBEBEBEBEBEBEBEBEBEBEBEBEBEBEBEBEBEBEBEBEBEBEBEBEBEBEBEBEBEBEBEBEE2E2E2E2F5F5F5E2E2E2E2BEC3C3C3C3C3C3E2C3
310
C3C3C3C3C3C3E2C3C3C3C3C3C3C3C3C3C3C3C3C3C3C3C3C3C3C3C3C3C3C3C3E2E2E2E2E2E2E2E2E2E2E2E2E2E2E2E2E2E2E2E2E2E2E2E2E2E2E2E2E2E2E2BEE2C3C3C3C3C3C3C3C3C3C3C3E2C3C3E2E2BEE2E2C3C3E2E2E2E2BEE2C3C3C3E2E2E2E2BEE2E2E2E2E2E2E2E2E2E2E2E2E2E2E2E2E2E2E2E2E2E2E2E2E2E2E2E2
310
E2E2E2E2E2E2E2E2E2E2E2E2E2E2E2E2E2E2E2E2E2E2E2E2E2E2E2E2E2E2E2E2BEE2E2E2E2F5F5F5E2F5E2E2BEC3C3C3C3C3C3E2C3C3C3C3C3C3C3E2C3C3C3E2C3C3C3C3C3C3C3C3C3C3C3C3C3C3C3C3C3C3C3C3E2E2E2E2E2E2E2E2E2E2E2E2E2E2E2E2E2E2E2E2E2E2E2E2E2E2E2E2E2E2E2BEE2C3C3C3C3C3C3C3C3C3C3
310
C3E2C3C3C3E2BEE2E2C3C3C3E2E2E2BEE2C3C3C3E2E2E2E2BEE2E2E2E2E2E2E2E2E2E2E2E2E2E2E2E2E2E2E2E2E2E2E2E2E2E2E2E2E2E2E2E2E2E2E2E2E2E2E2E2E2E2E2E2E2E2E2E2E2E2E2E2E2E2E2E2E2E2E2E2BEE2E2F5E2F5F5F5E2F5E2E2BEC3C3C3C3C3C3C3C3C3C3C3C3C3C3BEC3C3C3BEC3C3C3C3C3C3C3BEC3C3
310
C3C3C3C3C3C3C3C3C3C3BEBEBEBEBEBEBEBEBEBEBEBEBEBEBEBEBEBEBEBEBEBEBEBEBEBEBEBEBEBEBEBEBEC3C3C3C3C3C3BEC3C3C3C3BEC3C3BEBEBEBEBEBEBEBEBEBEBEBEBEBEBEBEBEBEBEBEBEE2E2E2E2C3C3C3C3C3C3C3C3C3C3C3C3C3C3C3C3C3C3C3C3C3C3C3C3C3C3C3C3C3C3C3C3E2E2E2E2E2E2E2E2E2E2E2E2C3
310
C3E2C3C3C3C3C3C3C3E2E2BEE2E2F5E2F5F5F5E2F5E2E2BEC3C3C3C3C3C3C3C3C3C3C3C3C3C3C3C3C3C3C3C3C3C3C3C3C3C3C3E2C3C3C3E2C3C3C3C3C3C3C3E2C3C3C3C3C3C3C3C3E2C3C3C3C3C3C3C3C3C3C3C3E2C3C3C3C3C3C3C3C3C3BEE2C3C3C3C3C3C3C3C3C3E2C3C3C3C3C3E2BEE2C3C3C3C3C3E2E2BEE2C3C3C3C3
310
C3E2E2BEE2E2E2E2C3E2C3E2C3E2C3C3E2C3E2C3C3E2C3E2C3C3E2C3E2C3C3C3E2C3C3C3E2E2E2C3E2E2E2E2E2E2E2E2E2E2E2E2C3C3E2C3C3C3C3C3C3C3E2E2BEE2E2F5E2F5F5F5E2F5E2E2BEC3C3C3C3C3C3C3C3C3C3C3C3C3C3C3C3C3C3C3C3C3C3C3C3C3C3C3E2C3C3C3E2C3C3C3C3C3C3C3E2C3C3C3C3C3C3C3C3E2C3
310
C3C3C3C3C3C3C3C3C3C3E2C3C3C3C3C3C3C3C3C3BEE2C3C3C3C3C3C3C3C3C3E2C3C3C3C3C3E2BEE2C3C3C3C3C3E2E2BEE2C3C3C3C3C3E2E2BEE2E2E2E2C3E2C3E2C3E2E2C3E2C3E2E2E2E2C3E2E2E2E2C3E2C3E2C3C3C3C3C3E2E2E2C3E2E2E2E2E2E2E2E2E2E2E2E2C3C3E2C3C3E2C3C3C3C3E2E2BEE2E2F5E2F5F5F5E2F5
310
E2E2BEBEBEBEBEBEBEBEBEBEBEBEBEBEBEBEBEBEBEBEBEBEBEBEBEBEBEBEBEBEBEBEBEBEBEBEBEBEBEBEBEBEBEBEBEBEBEBEBEBEBEBEBEBEBEBEBEBEBEBEBEBEBEBEBEBEBEBEBEBEBEBEBEBEBEBEBEBEBEBEBEBEBEBEBEBEC3BEBEBEBEBEBEBEBEBEBEBEBEBEBEBEBEBEBEBEBEBEE2E2E2E2C3C3C3C3C3C3C3C3C3C3C3C3C3
310
C3C3C3C3C3C3C3C3C3C3C3E2C3E2C3E2C3E2C3E2E2E2E2E2E2E2E2E2E2E2E2C3C3E2C3C3C3C3E2C3E2E2E2BEE2E2F5E2F5F5F5E2F5E2E2BEC3C3C3C3C3C3C3C3C3C3C3C3C3C3C3C3C3C3C3C3E2C3C3C3C3C3C3E2E2E2E2E2E2E2E2E2E2E2E2E2E2E2E2E2E2E2E2E2E2E2E2E2E2E2E2E2E2E2E2E2E2E2E2E2E2E2E2E2E2E2BE
310
E2E2E2E2E2E2E2E2E2BEBEBEBEBEBEE2E2BEE2E2C3C3C3C3C3E2BEE2C3C3C3C3C3C3E2BEE2E2E2E2C3E2C3E2C3E2C3C3E2C3E2C3C3E2C3E2C3C3E2C3E2C3C3C3E2C3C3C3E2C3E2C3E2E2E2E2E2E2E2E2E2E2E2E2C3C3E2C3C3C3C3E2C3C3E2E2BEE2E2F5E2F5F5F5E2F5E2E2BEC3C3C3C3C3C3C3C3C3C3C3C3C3C3C3C3C3C3
310
C3C3C3C3C3C3C3C3C3E2E2E2E2E2E2E2E2E2E2E2E2E2E2E2E2E2E2E2E2E2E2E2E2E2E2E2E2E2E2E2E2E2E2E2E2E2E2E2E2E2E2E2BEE2E2E2BEBEBEBEBEBEE2E2E2E2E2E2E2E2BEE2E2C3C3C3C3E2E2BEE2C3C3C3C3C3C3E2BEE2E2E2E2C3E2C3E2C3E2E2E2E2C3E2E2E2E2C3E2C3E2E2C3E2C3E2C3E2C3C3C3E2C3E2C3E2E2
310
E2E2E2E2E2E2E2E2E2E2C3C3E2C3C3C3C3E2C3C3E2E2BEE2E2F5E2F5F5F5E2F5E2E2BEBEBEBEBEBEBEBEBEBEBEBEBEBEBEBEBEBEBEBEBEBEBEBEBEBEBEBEBEBEBEBEBEBEBEBEBEBEBEBEBEBEBEBEBEBEBEBEBEBEBEBEBEBEBEBEBEBEBEBEBEBEBEBEBEBEBEBEBEBEBEBEBEBEBEBEBEBEBEBEBEBEBEBEBEBEBEBEBEBEBEBEBE
310
BEBEBEBEBEBEBEBEBEBEBEBEBEBEBEE2E2E2E2C3C3C3C3C3C3C3C3C3C3C3C3C3C3C3C3C3C3C3C3C3C3C3C3E2C3E2C3E2C3E2C3E2E2E2E2E2E2E2E2E2E2E2E2C3C3E2E2C3C3E2E2C3E2E2E2BEE2E2F5E2F5F5F5E2F5E2E2BEC3C3C3C3C3C3C3C3C3C3C3C3C3C3C3C3C3C3C3C3C3C3C3C3C3C3C3C3E2C3C3C3C3C3C3C3C3C3C3
310
C3C3C3C3C3C3C3C3C3C3C3C3C3C3C3C3C3C3C3C3C3C3C3C3C3C3E2E2E2E2E2BEC3C3C3C3C3C3C3C3C3C3C3C3C3C3E2C3C3BEE2C3C3C3BEC3C3E2BEE2C3C3E2BEC3C3C3BEE2E2E2E2C3E2C3E2C3E2C3C3E2C3E2C3C3E2C3E2C3C3E2C3E2C3C3C3E2C3E2C3E2C3E2C3E2E2E2E2E2E2E2E2E2E2E2E2E2C3E2E2C3C3E2E2C3E2E2
310
E2BEE2E2F5E2F5F5F5E2F5E2E2BEC3C3C3C3C3C3C3C3C3C3C3C3C3C3C3C3C3C3C3C3C3C3C3C3C3C3C3C3E2C3C3C3C3C3C3C3C3C3C3C3C3E2C3C3C3C3C3C3C3C3C3C3C3E2C3C3C3C3C3C3C3C3C3C3C3E2E2E2E2E2BEC3C3C3C3C3C3C3C3C3C3C3C3C3C3E2C3C3BEE2C3C3C3BEC3C3C3BEE2C3C3E2BEC3C3E2BEE2E2E2E2C3E2
310
C3E2C3E2E2E2E2C3E2E2C3E2C3E2C3E2E2C3E2E2E2C3E2C3E2C3E2C3E2C3E2E2E2C3C3C3E2E2E2E2E2E2E2C3E2E2C3C3E2E2C3E2E2E2BEE2E2F5E2F5F5F5E2F5E2E2BEBEBEBEBEBEBEBEBEBEBEBEBEBEBEBEBEBEBEBEBEBEBEBEBEBEBEBEBEBEBEBEBEBEBEBEBEBEBEBEBEBEBEBEBEBEBEBEBEBEBEBEBEBEBEBEBEBEBEBEBE
310
BEBEBEBEBEBEBEBEBEBEBEBEBEBEBEBEBEBEBEBEBEBEBEBEBEBEBEBEBEBEC3C3C3BEC3C3BEBEBEC3C3BEBEC3C3BEBEE2E2E2E2C3C3C3C3C3C3C3C3C3C3C3C3C3C3C3C3C3C3C3C3C3C3C3C3E2C3E2C3E2C3E2C3E2E2E2C3C3C3C3C3C3E2E2E2E2C3C3C3C3C3C3C3C3E2E2E2BEE2E2F5E2F5F5F5E2F5E2E2BEC3C3C3C3C3C3E2
310
C3C3C3C3C3C3C3C3C3C3C3E2E2C3C3C3E2C3C3C3C3E2C3C3C3C3C3E2E2C3C3C3C3C3E2E2E2E2E2E2E2E2E2E2E2E2E2E2E2E2E2E2E2E2E2E2E2E2E2E2E2E2E2BEC3C3C3C3C3C3C3C3C3C3E2C3C3C3C3C3E2BEE2C3E2E2BEC3C3E2BEE2C3C3E2BEC3C3E2BEE2E2E2E2C3E2C3E2C3E2C3C3E2C3E2C3C3E2C3E2C3C3E2C3E2C3C3
310
C3E2C3E2C3E2C3E2C3E2E2E2C3C3C3C3C3C3C3C3C3C3E2E2E2E2C3E2E2E2E2E2E2BEE2E2F5E2F5F5F5E2F5E2E2BEC3C3C3C3C3C3E2C3C3C3C3C3C3C3C3C3C3C3C3C3C3C3C3C3C3C3C3C3E2C3C3C3C3C3C3E2C3C3C3C3C3E2E2E2E2E2E2E2E2E2E2E2E2E2E2E2E2E2E2E2E2E2E2E2E2E2E2E2E2E2BEC3C3C3C3C3C3C3C3C3C3
310
E2C3C3C3C3C3E2BEE2C3E2E2BEC3C3C3BEE2C3C3E2BEC3C3C3BEE2E2E2E2C3E2C3E2C3E2E2C3E2C3E2E2C3E2C3E2E2E2E2C3E2E2E2C3E2C3E2C3E2C3E2C3E2E2E2E2E2C3E2E2E2E2E2E2C3E2E2C3C3E2C3E2E2E2E2E2BEE2E2F5E2F5F5F5E2F5E2E2BEBEBEBEBEBEBEBEBEBEBEBEBEBEBEBEBEBEBEBEBEBEBEBEBEBEBEBEBE
310
BEBEBEBEBEBEBEBEBEBEBEBEBEBEBEBEBEBEBEBEBEBEBEBEBEBEBEBEBEBEBEBEBEBEBEBEBEBEBEBEBEBEBEBEBEBEBEBEBEBEBEBEBEBEBEBEBEBEBEBEBEBEBEBEBEBEBEBEBEBEBEBEBEBEBEBEBEBEBEE2E2E2E2C3C3C3C3C3C3C3C3C3C3C3C3C3C3C3C3C3C3C3C3C3C3C3C3E2E2E2C3C3C3C3C3E2E2E2C3C3C3C3C3C3E2E2E2
310
C3E2C3E2E2E2E2C3E2E2E2E2BEE2E2F5E2F5F5F5E2F5E2E2BEC3C3C3C3C3C3C3C3C3C3C3C3C3C3C3C3C3C3C3C3C3C3C3E2C3C3C3C3C3C3C3C3C3C3C3C3C3C3C3C3C3C3C3C3C3C3C3C3C3C3C3C3C3C3C3C3C3C3C3C3C3E2E2E2E2E2E2E2E2E2BEC3C3C3C3C3C3C3C3C3C3C3C3C3E2C3C3C3BEE2E2E2E2C3C3C3C3C3C3E2E2E2
310
E2E2E2E2BEE2E2E2E2C3C3C3C3C3E2C3C3E2C3E2C3C3E2C3E2C3C3E2C3C3C3C3C3E2E2E2C3C3C3C3C3E2E2E2C3C3C3C3C3C3C3C3C3C3C3E2E2E2E2E2E2C3E2E2E2BEE2E2F5E2F5F5F5E2F5E2E2BEC3C3C3C3C3C3C3C3C3C3C3C3C3C3C3C3C3C3C3C3C3C3C3E2C3C3C3C3C3C3C3C3C3C3C3C3C3C3C3C3C3C3C3C3C3C3C3C3C3
310
C3C3C3C3C3C3C3C3C3C3C3C3E2E2E2E2E2E2E2E2E2BEC3C3C3C3C3C3C3C3C3C3C3C3C3E2C3C3C3BEE2E2E2E2C3C3C3C3C3C3E2E2E2E2E2E2E2BEE2E2E2E2C3C3C3C3C3C3C3C3C3C3C3C3C3C3C3C3C3C3C3C3C3C3C3C3C3C3C3C3C3C3C3C3E2E2E2C3C3C3C3C3C3C3C3C3C3E2C3E2E2E2E2E2C3E2E2E2BEE2E2F5E2F5F5F5E2
310
E2E2E2BEBEBEBEBEBEBEBEBEBEBEBEBEBEBEBEBEBEBEBEBEBEBEBEBEBEBEBEBEBEBEBEBEBEBEBEBEBEBEBEBEBEBEBEBEBEBEBEBEBEBEBEBEBEBEBEBEBEBEBEBEBEBEBEBEBEBEBEBEBEBEBEBEBEBEBEBEBEBEBEBEBEBEBEBEBEBEBEBEBEBEBEBEBEBEBEBEBEBEBEBEBEBEBEBEBEBEBEE2E2E2E2C3C3C3C3C3E2C3C3C3C3C3C3
310
E2C3C3C3C3C3C3C3C3C3E2C3C3C3C3E2C3C3C3E2E2E2E2C3C3C3C3C3C3E2E2E2C3E2C3E2E2E2E2C3E2E2E2E2BEE2E2E2E2F5F5F5E2E2E2E2BEC3C3C3C3C3C3C3C3C3C3C3C3C3C3E2E2E2E2E2E2E2E2E2E2E2E2E2E2E2BEE2E2E2E2E2E2E2E2E2E2E2E2E2C3C3C3C3C3C3C3C3C3C3C3E2E2E2E2E2E2E2E2E2E2E2E2E2E2E2E2
310
BEE2E2E2E2E2E2E2E2E2E2E2E2E2E2E2E2E2E2E2E2E2E2E2E2E2E2E2E2E2E2E2E2E2E2E2BEE2E2E2E2C3C3C3C3C3E2C3C3C3C3C3C3E2C3C3C3C3C3C3C3C3C3E2C3C3C3C3E2C3C3C3E2E2E2E2E2C3C3E2E2E2E2E2E2C3E2E2C3E2E2C3E2E2E2E2E2BEE2E2E2E2F5F5F5E2E2E2E2BEC3C3C3C3C3C3C3C3C3C3C3C3C3C3E2E2E2
310
E2E2E2E2E2E2E2E2E2E2E2E2BEE2E2E2E2E2E2E2E2E2E2E2E2E2C3C3C3C3C3C3C3C3C3C3C3E2E2E2E2E2E2E2E2E2E2E2E2E2E2E2E2BEE2E2E2E2E2E2E2E2E2E2E228E2E2E2E2E228E2E2E2E2E2E2E2E2E2E2E2E2E2E2E2E2E2BEE2E2E2E2C3C3C3C3C3E2C3C3C3C3C3C3E2C3C3C3C3C3C3C3C3C3E2C3C3C3C3E2C3C3C3E2E2
310
E2E2C3C3C3C3C3C3C3C3C3C3E2E2E2C3C3E2E2E2E2E2E2BEE2E2E2E2F5F5F5E2E2E2E2BEBEBEBEBEBEBEBEBEBEBEBEBEBEBEBEBEBEBEBEBEBEBEBEBEBEBEBEBEBEBEBEBEBEBEBEBEBEBEBEBEBEBEBEBEBEBEBEC3C3BEBEBEC3C3BEBEBEBEBEBEBEBEBEBEBEBEBEBEBEBEBEE2E2E2E2E2E2E2E2E2E2E2282828C3282828E2E2
310
E2E2E2E2E2E2E2E2E2E2E2E2E2E2E2BEE2E2E2E2C3C3C3C3C3C3C3C3C3E2C3C3E2C3C3C3C3C3C3E2C3C3C3E2E2E2E2E2E2E2E2E2E2E2E2C3C3C3C3C3C3C3E2E2E2E2E2E2E2E2E2E2E2E2E2E2BEE2E2E2E2F5F5F5E2E2E2E2BEC3C3C3C3C3C3C3C3C3C3C3C3C3C3C3E2C3C3C3E2C3C3E2C3C3C3E2E2E2BEE2E2E2E2E2E2E2E2
310
E2E2E2C3C3C3C3C3C3C3E2C3C3C3C3C3C3E2E2E2E2E2E2E2E2E2E2E2E2E2E2E2BEE2E2E2E2E2E2E2E2E2E2E228E2E2C3E2E228E2E2E2E2E2E2E2E2E2E2E2E2E2E2E2E2E2BEE2E2E2E2C3C3C3C3E2C3C3C3C3C3C3C3E2C3C3C3C3C3C3C3C3C3E2E2E2E2E2E2E2E2E2E2E2E2E2E2C3C3C3C3C3C3C3C3C3C3C3C3C3E2E2E2E2E2
310
E2E2BEE2E2E2E2F5F5F5E2E2E2E2BEC3C3C3C3C3C3C3C3C3C3C3C3C3C3C3C3C3C3C3E2C3C3C3C3C3C3E2E2E2BEE2E2E2E2E2E2E2E2E2E2E2C3C3C3C3C3C3C3C3C3C3C3C3C3C3E2E2E2E2E2E2E2E2E2E2E2E2E2E2E2BEE2E2E2E2E2E2E2E2E2E2E228E2E2E2E2E2BEBEBEBEBEBEBEBEBEBEBEBEBEE2E2E2E2E2BEE2E2E2E2C3
310
C3C3C3E2C3C3C3C3C3C3C3E2C3C3C3C3C3C3E2C3E2E2E2E2E2E2E2E2E2E2E2E2E2E2E2C3C3C3C3C3C3C3C3C3C3C3C3C3E2E2E2E2E2E2E2BEE2E2E2E2F5F5F5E2E2E2E2BEC3C3C3C3C3BEC3C3C3C3C3C3BEC3C3BEBEC3C3BEC3C3BEC3C3C3BEBEBEBEBEBEBEBEBEBEBEBEBEBEBEBEBEBEBEBEBEC3C3C3C3BEBEBEC3BEBEBEBE
310
BEBEBEBEBEBEBEBEBEBEBEBEE2E2E2E2E2E2E2E2E2E2E228E2E2E2E2E2BEE2E2E2E2E2E2E2E2E2E2E2BEE2E2E2E2E2BEE2E2E2E2E2E2E2E2E2E2E2E2E2E2E2E2E2E2E2E2E2E2E2E2E2E2E2E2E2E2E2E2E2E2E2E2E2E2E2E2C3C3C3C3C3C3C3C3C3C3C3C3C3E2E2E2E2E2E2E2BEE2E2E2E2F5F5F5E2E2E2E2BEC3C3C3C3C3C3
310
C3C3C3C3C3C3C3C3C3C3C3C3C3C3C3C3C3C3C3E2E2E2E2BEE2E2E2E2E2E2E2E2E2E2E2E2E2E2E2E2C3C3C3C3E2E2E2E2E2E2E2E2E2E2E2E2E2E2E2E2E2E2E2E2BEE2E2E2E2E2E2E2E2E2E2E228E2E2E2E2E2BEE2E2E2E2E2E2E2E2E2E2E2BEE2E2E2E2E2BEE2E2E2E2DCDCDCDCDCDCDCDCDCDCDCDCDCDCDCDCDCDCDCDCDCDC
310
DCDCDCDCDCDCDCDCDCDCDCDCDCDCDCDCDCDCDCDCDCDCDCDCDCDCDCDCDCDCE2E2E2E2BEE2E2E2E2F5F5F5E2F5E2E2BEC3C3C3C3E2C3C3C3C3C3C3C3C3C3C3C3C3C3C3C3C3C3C3C3C3E2E2E2E2BEE2E2E2E2E2E2E2E2E2E2E2E2E2E2E2E2C3C3C3C3E2E2E2E2E2E2E2E2E2E2E2E2E2E2E2E2E2E2E2E2BEE2E2E2E2E2E2E2E2E2
310
E2E228E2E2E2E2BEBEE2E2E2E2E2E2E2E2E2E2E2BEE2E2E2E2E2BEE2E2E2E2DCDCDCE2DCDCDCDCE2E2E2E2E2E2E2DCDCDCDCDCDCDCE2DCDCDCDCDCDCDCE2DCE2DCDCDCE2E2E2E2E2DCE2E2E2DCDCDCDCDCE2DCE2E2E2E2BEE2E2F5E2F5F5F5E2F5E2E2BEBEBEBEBEBEBEBEBEBEBEBEBEBEBEBEBEBEBEBEBEBEBEBEBEBEBEBE
310
BEBEBEBEBEBEBEBEBEBEBEBEBEBEBEBEBEBEBEBEBEBEBEBEBEBEBEBEBEBEBEBEBEBEBEBEBEBEBEBEBEBEBEBEE2E2E2E2E2E2E2E2E2E2E228E2E2E2E2BEBEE2E2E2E2E2E2E2E2E2E2E2BEE2E2E2E2E2BEE2E2E2E2DCDCE2E2E2E2E2DCE2E2E2E2E2E2E2DCDCDCE2E2E2E2E2DCDCDCE2E2DCE2E2DCDCDCDCDCDCDCDCDCDCDCE2
310
E2E2DCDCDCDCE2E2DCE2E2E2E2BEE2E2F5E2F5F5F5E2F5E2E2BEC3C3C3C3C3C3C3C3C3C3C3C3C3E2E2E2E2E2E2E2E2E2E2E2E2E2E2E2E2BEE2E2E2E2E2E2E2E2E2E2E2E2E2E2E2E2C3C3C3E2E2E2E2E2E2E2E2E2E2E2E2E2E2E2E2E2E2E2E2E2BEE2E2E2E2E2E2E2E2E2E2E228E2E2E2E2BEBEE2E2E2E2E2E2E2E2E2E2E2BE
310
E2E2E2E2E2BEE2E2E2E2DCDCDCDCE2DCDCDCE2E2E2E2E2E2E2DCE2E2E2E2DCDCE2DCE2E2E2DCDCDCE2DCE2DCDCDCDCDCDCDCE2DCE2E2E2DCDCE2E2E2E2DCE2E2E2E2BEE2E2F5E2F5F5F5E2F5E2E2BEC3C3C3C3E2C3C3C3C3C3C3C3C3E2E2E2E2E2E2E2E2E2E2E2E2E2E2E2E2BEE2E2E2E2E2E2E2E2E2E2E2E2E2E2E2E2C3C3
310
C3E2E2E2E2E2E2E2E2E2E2E2E2E2E2E2E2E2E2E2E2E2BEE2E2E2E2E2E2E2E2E2E2E228E2E2E2E2BEBEE2E2E2E2E2E2E2E2E2E2E2BEE2E2E2E2E2BEE2E2E2E2DCDCDCDCDCDCE2DCE2E2E2E2E2E2E2DCE2E2E2E2DCE2E2DCE2E2E2DCDCE2E2DCDCDCDCDCDCDCDCDCDCDCE2DCDCDCDCE2E2E2E2DCE2E2E2E2BEE2E2F5E2F5F5F5
310
E2F5E2E2BEBEBEBEBEBEBEBEBEBEBEBEBEBEBEBEBEBEBEBEBEBEBEBEBEBEBEBEBEBEBEBEBEBEBEBEBEBEBEBEBEBEBEBEBEBEBEBEBEBEBEBEBEBEBEBEBEBEBEBEBEBEBEBEBEBEBEBEBEBEBEBEE2E2E2E2E2E2E2E2E2E2E228E2E2E2E2BEBEBEBEE2E2E2E2E2E2BEBEBEBEE2E2E2E2E2BEE2E2E2E2DCDCDCDCE2DCE2DCE2E2E2
310
E2E2E2E2DCE2E2E2E2DCE2E2DCE2E2E2DCDCE2E2DCE2DCDCDCDCDCDCDCE2DCE2DCDCDCDCE2E2E2E2DCE2E2E2E2BEE2E2F5E2F5F5F5E2F5E2E2BEC3C3C3C3C3C3E2C3C3C3C3C3C3C3C3C3C3C3C3C3C3C3C3C3E2E2E2E2E2BEE2E2E2E2E2E2E2E2E2E2C3C3C3C3C3C3C3C3C3C3C3C3E2E2E2E2E2E2E2E2E2E2E2E2E2E2E2E2E2
310
E2BEE2E2E2E2E2E2E2E2E2E2E228E2E2E2E2BEBEE2BEE2E2E2E2E2E2BEE2BEBEE2E2E2E2E2BEE2E2E2E2DCE2E2E2E2DCDCDCE2DCE2DCDCDCDCDCE2E2E2E2DCDCE2DCE2E2E2DCDCDCE2DCE2DCDCDCDCDCDCDCDCDCE2E2E2DCDCE2E2E2E2DCE2E2E2E2BEE2E2F5E2F5F5F5E2F5E2E2BEC3C3C3C3C3C3C3C3C3C3C3C3C3C3C3C3
310
C3C3C3C3C3C3C3C3E2E2E2E2E2BEE2E2E2E2E2E2E2E2E2E2C3C3C3C3C3C3C3C3C3C3C3C3E2E2E2E2E2E2E2E2E2E2E2E2E2E2E2E2E2E2BEE2E2E2E228E2E228E2E2BEBEBEBEBEBEBEBEBEBEE2E2E2E2E2E2BEBEBEBEBEBEBEBEBEBEE2E2E2E2DCDCE2E2E2E2E2DCE2DCE2E2E2E2E2DCDCDCE2E2E2E2E2DCDCDCE2DCE2E2E2DC
310
DCDCDCDCDCDCDCDCDCDCE2E2E2DCDCDCDCE2E2DCE2E2E2E2BEE2E2F5E2F5F5F5E2F5E2E2BEBEBEBEBEBEBEBEBEBEBEBEBEBEBEBEBEBEBEBEBEBEBEBEBEBEBEBEBEBEBEBEBEBEBEBEBEBEBEBEBEC3C3C3C3C3C3C3C3C3C3C3C3BEBEBEBEBEBEBEBEBEBEBEBEBEBEBEBEBEBEBEE2E228282828282828ECBEECECECECECBEBEEC
310
BEECECECECECECBEECBEBEECECECECECBEE2E2E2E2DCDCE2E2DCDCDCDCE2E2E2DCDCDCDCDCDCDCDCDCDCDCE2DCDCDCDCDCDCDCE2DCE2DCDCDCDCE2E2E2E2DCE2DCDCDCDCDCDCE2E2DCE2E2E2E2BEE2E2F5E2F5F5F5E2F5E2E2BEC3C3C3C3C3C3C3C3C3C3C3C3C3C3C3C3C3C3C3C3C3C3C3C3C3E2E2E2E2BEE2C3C3C3C3C3C3
310
C3C3C3C3C3E2E2E2BEE2C3C3C3C3C3C3C3C3C3E2E2BEE2C3C3C3E2C3C3C3C3C3E2BEE2E2E2E2C3C3C3E2E2E2BEBEBEBEBEBEBEBEBEBEE2E2E2E2E2E2BEBEBEBEBEBEBEBEBEBEE2E2E2E2DCDCDCE2E2E2E2DCE2E2E2E2E2E2E2DCDCDCDCE2E2E2E2DCDCDCDCE2E2E2E2DCDCDCDCDCDCDCDCDCDCDCE2E2E2E2E2E2E2DCE2DCE2
310
E2E2E2BEE2E2F5E2F5F5F5E2F5E2E2BEC3C3C3C3C3C3C3C3C3C3C3C3C3C3C3C3C3C3C3C3C3C3C3C3C3E2E2E2E2BEE2C3C3C3C3C3C3C3C3C3C3C3E2E2E2BEE2C3E2C3C3C3C3C3C3C3E2E2BEC3C3C3C3E2C3C3C3C3C3E2BEE2E2E2E2C3C3E2E2E2E2E22828E2E2E2BEBE28BEE2E2E2E2E2E2BE28BEBEE2E2E2E2E2BEE2E2E2E2
310
DCDCDCE2DCDCDCDCE2E2E2E2E2E2E2DCDCDCDCDCDCDCE2DCDCDCDCDCDCDCE2DCE2DCDCDCE2E2E2E2E2DCE2DCDCDCDCDCDCDCE2DCE2E2E2E2BEE2E2F5E2F5F5F5E2F5E2E2BEBEBEBEBEBEBEBEBEBEBEBEBEBEBEBEBEBEBEBEBEBEBEBEBEBEBEBEBEBEBEBEBEBEBEBEBEBEBEBEBEBEBEBEBEBEBEBEBEBEBEBEC3BEBEBEC3BEBE
310
BEBEBEBEBEBEC3BEBEBEC3BEBEE2E2E2E2E2E2E2E2E2E2E22828E2E2E2BEBEBE28E2E2E2E2E2E2282828BEE2E2E2E2E2BEE2E2E2E2DCDCE2E2E2E2E2DCE2E2E2E2E2E2E2DCDCDCE2E2E2E2E2DCDCDCE2E2DCE2E2DCDCDCDCDCDCDCDCDCDCDCE2E2E2DCDCE2DCE2E2DCE2E2E2E2BEE2E2F5E2F5F5F5E2F5E2E2BEC3C3C3C3C3
310
C3C3C3C3C3C3C3C3C3C3C3C3C3C3C3E2C3C3C3C3C3E2E2E2BEE2C3C3C3C3C3C3C3E2E2E2E2E2E2E2BEE2C3C3C3C3C3C3C3C3E2E2E2BEC3C3C3C3C3C3C3C3E2E2E2BEE2E2E2E2E2E2E2E2E2E2E228C3C3E2E2BEBEE22828E2E2E2E2E228E2E22828E2E2E2E2BEE2E2E2E2DCE2E2E2E2E2E2DCE2E2E2E2E2E2E2DCE2E2E2E2E2
310
E2E2DCE2E2E2E2DCE2E2DCE2DCDCDCE2DCDCDCE2DCE2E2E2DCDCE2DCE2E2DCE2E2E2E2BEE2E2F5E2F5F5F5E2F5E2E2BEC3C3C3C3C3C3C3C3C3C3C3C3C3C3C3C3C3C3C3C3E2C3C3C3C3C3E2E2E2BEE2C3C3C3C3C3C3C3E2E2E2E2E2E2E2BEE2C3C3C3C3C3C3C3C3E2E2E2BEC3C3C3C3C3C3C3C3E2E2E2BEE2E2E2E2E2E2E2E2
310
E2E2E228C3C3E2E2BEBEE2E228E2E2E2E228E2E2E2BE28E2E2E2E2BEE2E2E2E2DCDCDCDCE2DCDCDCE2E2E2E2E2E2E2DCE2E2E2E2DCDCE2DCE2E2E2DCDCDCE2DCE2DCDCDCE2DCDCDCDCDCE2DCDCDCDCE2E2E2E2DCE2E2E2E2BEE2E2F5E2F5F5F5E2F5E2E2BEBEBEBEBEBEBEBEBEBEBEBEBEBEBEBEBEBEBEBEBEBEBEBEBEBEBE
310
BEBEBEBEBEBEBEBEBEBEBEBEBEBEBEBEBEBEBEBEBEBEBEBEBEBEBEBEBEBEBEBEBEBEBEBEBEBEBEBEBEBEBEBEBEE2E2E2E2E2E2E2E2E2E2E228C3C3E2E2BEBEE2E2E228E2E228E2E2E2E2BE28E2E2E2E2BEE2E2E2E2DCDCDCDCDCDCE2DCE2E2E2E2E2E2E2DCE2E2E2E2DCE2E2DCE2E2E2DCDCE2E2DCDCDCDCDCDCDCDCDCDCDC
310
E2DCDCDCDCE2E2E2E2DCE2E2E2E2BEE2E2F5E2F5F5F5E2F5E2E2BEC3C3C3C3C3C3C3C3C3C3C3C3C3C3C3E2E2C3C3C3C3C3C3C3C3C3C3E2E2BEE2C3C3C3C3C3C3C3E2E2E2E2E2E2E2BEE2C3C3C3C3C3C3C3E2E2E2E2BEE2C3C3C3C3C3C3C3E2E2E2BEE2E2E2E2E2E2E2E2E2E2E228E2E2E2E2E2BEE2E2E2C3C3C3C3C3C3E2E2
310
BEE228E2E2E2BEE2E2E2E2DCE2E2E2E2DCDCDCE2DCE2DCDCDCDCDCE2E2E2E2DCDCE2DCE2E2E2DCDCDCE2DCE2DCDCDCDCDCDCDCE2DCE2E2E2DCDCE2E2E2E2DCE2E2E2E2BEE2E2F5E2F5F5F5E2F5E2E2BEC3C3C3C3C3C3C3C3C3E2C3C3C3C3C3E2E2C3C3C3C3C3C3C3C3C3C3E2E2BEE2C3C3C3C3C3C3C3E2E2E2E2E2E2E2BEE2
310
C3E2C3C3C3C3C3E2E2E2E2BEC3C3C3C3C3C3C3C3E2E2E2BEE2282828282828282828282828E2E2E2E2BEE2E2E2C3C3C3C3C3C3E2E2BEE2E228E2E2BEE2E2E2E2DCDCE2E2E2E2E2DCE2DCE2E2E2E2E2DCDCDCE2E2E2E2E2DCDCDCE2DCE2E2E2DCDCDCDCDCDCDCDCDCDCDCE2E2E2DCDCDCDCE2E2DCE2E2E2E2BEE2E2F5E2F5F5
310
F5E2E2E2E2BEBEBEBEBEBEBEBEBEBEBEBEBEBEBEBEBEBEBEBEBEBEBEBEBEBEBEBEBEBEBEBEBEBEBEBEBEBEBEBEBEBEBEBEBEBEBEBEBEBEBEBEBEBEBEBEBEBEBEBEBEBEBEBEBEBEBEBEBEBEBEBEE2C3C3C3C3C3C3C3C3C3C3C3C3E2E2E2E2BEBEBEBEBEBEBEBEBEBEBEBEBEE2E2E228E2BEE2E2E2E2DCDCE2E2DCDCDCDCE2DC
310
E2DCDCDCDCDCDCDCDCDCDCDCE2DCDCDCDCDCDCDCE2DCE2DCDCDCDCE2E2E2E2DCE2E2E2DCDCDCDCE2E2DCE2E2E2E2BEE2E2E2E2F5F5F5E2E2E2E2BEC3C3C3C3C3C3C3C3C3C3E2E2E2E2E2E2E2E2E2E2E2E2E2E2E2E2E2E2E2BEE2C3C3C3E2E2E2E2E2E2E2E2E2E2E2BEE2C3C3C3C3E2E2E2E2E2E2E2BEC3C3C3C3E2E2E2E2E2
310
E2E2BEE2C3C3C3C3C3C3C3C3C3C3C3C3E2E2E2E2E2E2E2E2E2E2E2E2C3C3C3C3C3C3E2E228E2BEE2E2E2E2DCDCDCDCDCDCDCDCDCDCDCDCDCDCDCDCDCDCDCDCDCDCDCDCDCDCDCDCDCDCDCDCDCDCDCDCDCDCDCDCDCDCDCDCDCDCDCDCDCDCDCDCE2E2E2E2BEE2E2E2E2F5F5F5E2E2E2E2BEC3C3C3C3C3C3C3C3C3C3E2E2E2E2E2
310
E2E2E2E2E2E2E2E2E2E2E2E2E2E2BEE2C3C3C3E2E2E2E2E2E2E2E2E2E2E2BEE2C3C3C3C3E2E2E2E2E2E2E2BEC3C3C3C3E2E2E2E2E2E2E2BEE2C3C3C3C3C3C3C3C3C3E2E2E2E2E2E2E2E2E2E2E2E2E2E2E2C3C3C3C3C3C3E2282828BEE2E2E2E2DCE2E2E2E2E2E2DCDCDCDCDCDCDCDCDCDCDCDCDCDCDCE2DCDCDCDCDCDCDCDC
310
DCE2E2E2E2E2E2E2E2E2DCE2E2E2E2E2E2E2E2E2DCE2E2E2E2BEE2E2E2E2F5F5F5E2E2E2E2BEBEBEBEBEBEBEBEBEBEBEBEBEBEBEBEBEBEBEBEBEBEBEBEBEBEBEBEBEBEBEBEBEBEBEBEBEBEBEBEBEBEBEBEBEBEBEBEBEBEBEBEBEBEBEBEBEBEBEBEBEBEBEBEBEBEBEBEBEBEBEBEE2C3C3C3C3C3C3C3C3C3E2E2E2E2E2E2E2E2
310
E2E2E2E2E2E2E2C3C3C3C3C3C3E2E2E2E2BEE2E2E2E2DCDCDCDCDCDCDCDCDCDCDCDCDCDCDCDCDCDCDCDCDCE2E2DCDCDCDCDCDCDCDCDCE2DCDCDCDCDCE2E2E2DCE2DCDCDCDCDCDCE2E2DCE2E2E2E2BEE2E2E2E2F5F5F5E2E2E2E2BEC3C3C3C3C3C3C3C3C3C3C3C3E2E2E2E2E2E2E2E2E2E2E2E2E2E2E2E2E2BEE2C3C3C3E2E2
310
E2E2E2E2E2E2E2E2E2BEE2C3C3C3C3E2E2E2E2E2E2E2BEC3C3C3C3E2E2E2E2E2E2E2BEE2C3C3C3C3C3C3C3C3C3C3C3C3E2E2E2E2E2E2E2E2E2E2E2E2E2C3C3C3C3C3E2E2E2E2BEE2E2E2E2DCDCDCDCDCDCDCDCDCDCDCDCDCDCDCDCDCDCDCDCDCDCDCDCDCDCDCDCDCDCDCDCE2DCDCDCDCDCE2E2E2DCE2DCDCDCDCDCDCE2E2DC
310
E2E2E2E2BEE2E2E2E2F5F5F5E2E2E2E2BEC3C3C3C3C3C3C3C3C3C3C3C3E2E2E2E2E2E2E2E2E2E2E2E2E2E2E2E2E2BEE2C3C3C3E2E2E2E2E2E2E2E2E2E2E2BEE2C3C3C3C3E2E2E2E2E2E2E2BEC3C3C3C3E2E2E2E2E2E2E2BEE2C3C3C3C3C3C3C3C3C3C3C3E2E2E2E2E2E2E2E2E2E2E2E2E2E2C3C3C3C3C3E2E2E2E2BEE2E2E2
310
E2DCE2E2E2E2E2E2DCE2E2E2E2E2E2E2E2DCDCDCDCDCDCE2E2E2E2E2E2E2E2E2DCE2E2E2E2E2E2E2E2E2DCE2E2E2E2E2E2E2E2E2DCE2E2E2E2BEE2E2E2E2F5F5F5E2E2E2E2BEBEBEBEBEBEBEBEBEBEBEBEBEBEBEBEBEBEBEBEBEBEBEBEBEBEBEBEBEBEBEBEBEBEBEBEBEBEBEBEBEBEBEBEBEBEBEBEBEBEBEBEBEBEBEBEBEBE
310
BEBEBEBEBEBEBEBEBEBEBEBEBEBEE2E2E2E2E2E2E2E2E2E2E2E2E2E2E2E2E2E2E2E2E2E2E2E2E2E2E2E2E2E2E2E2E2E2E2BEE2E2E2E2DCDCDCDCDCDCDCDCDCDCDCDCDCDCDCDCDCDCDCDCDCDCDCDCDCDCDCDCDCDCDCDCDCDCDCDCDCDCDCDCDCDCDCDCDCDCDCDCDCDCDCDCE2E2E2E2BEE2E2E2E2F5F5F5E2E2E2E2BEC3C3C3C3
310
C3C3C3C3C3C3C3E2E2E2E2E2E2E2E2E2E2E2BEBEBEBEBEE2E2BEC3C3C3C3C3C3C3C3E2C3C3C3C3C3C3BEE2E2E2C3C3C3C3C3C3E2E2E2BEE2E2E2C3C3C3C3C3C3C3E2BEE2E2E2E2E2E2E2E2E2E2E2E2E2E2E2E2E2E2E2E2E2E2E2E2E2E2E2E2E2E2E2E2E2E2E2BEE2E2E2E2DCE2E2E2E2E2E2E2E2E2E2E2E2E2E2E2E2E2E2E2
310
E2DCE2E2E2E2E2DCE2E2E2DCE2E2E2E2E2E2E2E2E2E2E2E2E2E2E2E2E2E2E2DCE2E2E2E2BEE2E2E2E2F5F5F5E2E2E2E2BEC3C3C3C3C3C3C3C3C3C3C3E2E2E2E2E2E2BEBEBEBEBEE2E2E2E2E2E2E2BEC3C3C3C3C3C3E2C3C3C3C3C3C3C3C3BEE2E2E2C3C3C3C3C3E2E2E2E2BEE2E2E2C3C3C3C3C3C3C3E2BEE2C3C3C3C3C3C3
310
C3C3C3C3C3C3E2C3C3C3C3C3C3C3C3C3C3C3C3C3E2C3C3C3C3C3C3E2BEE2E2E2E2DCE2E2E2E2DCDCDCDCDCDCDCDCDCDCDCDCDCDCDCDCDCDCDCDCDCDCDCE2E2E2DCE2E2E2E2E2E2E2E2DCDCDCDCDCDCE2E2E2E2E2DCE2E2E2E2BEE2E2E2E2F5F5F5E2F5E2E2BEC3C3C3C3C3C3C3C3C3C3C3E2BEBEBEBEBEE2E2E2E2E2E2E2E2
310
E2E2E2E2BEE2E2E2E2E2E2E2E2E2E2E2E2E2E2E2BEBEBEBEBEBEBEBEBEBEBEBEBEBEBEBEBEBEBEBEBEBEBEBEBEBEE2C3C3C3C3C3C3C3C3C3C3C3C3E2C3C3C3C3C3C3C3C3C3C3C3C3E2E2C3C3C3C3C3C3E2BEE2E2E2E2DCE2E2E2DCDCDCDCDCDCDCDCDCDCDCDCDCDCDCDCDCDCDCDCDCDCDCDCE2E2E2DCE2E2E2E2E2E2E2E2DC
310
DCDCDCDCDCE2E2E2E2E2DCE2E2E2E2BEE2E2F5E2F5F5F5E2F5E2E2BEE2E2E2E2E2E2E2BEBEBEBEBEE2E2E2E2E2E2C3C3C3C3C3C3C3C3C3C3E2BEE2C3C3C3C3C3C3C3C3C3C3C3E2E2E2BEE2E2E2E2E2E2E2E2C3C3C3C3C3C3C3E2E2E2E2E2E2E2E2E2BEE2C3C3C3C3C3C3C3C3C3C3C3C3E2C3C3C3C3C3C3E2C3C3C3C3C3E2E2
310
C3C3C3C3C3C3E2BEE2E2E2E2DCE2E2E2E2E2E2E2E2E2E2E2E2E2E2E2E2E2E2E2E2E2E2E2E2E2E2E2E2E2E2DCE2E2E2E2E2E2E2E2E2E2E2E2E2E2E2E2E2E2E2DCE2E2E2E2BEE2E2F5E2F5F5F5E2F5E2E2BEE2E2BEBEBEBEBEE2E2E2E2E2E2E2E2E2E2E2C3C3C3C3C3C3C3C3C3C3E2BEE2C3C3C3C3C3C3C3C3C3C3C3E2E2E2BE
310
E2E2E2E2E2E2E2E2C3C3C3C3C3C3C3E2E2E2E2E2E2E2E2E2BEE2E2E2E2E2E2E2E2E2E2E2E2E2E2E2E2E2E2E2E2E2E2E2E2E2E2E2E2E2E2E2E2E2E2E2BEE2E2E2E2DCDCDCDCDCDCDCDCDCDCDCDCDCDCDCDCDCDCDCDCDCDCDCDCDCDCDCDCDCDCDCDCDCDCDCDCDCDCDCDCDCDCDCDCDCDCDCDCDCDCDCDCE2E2E2E2BEE2E2F5E2F5
310
F5F5E2F5E2E2BEBEBEBEBEBEBEBEBEBEBEBEBEBEBEBEBEBEBEBEBEBEBEBEBEBEBEBEBEBEBEBEBEBEBEBEBEBEBEBEBEBEBEBEBEBEBEBEBEBEBEBEBEBEBEBEBEBEBEBEBEBEBEBEBEBEBEBEBEBEBEBEBEBEBEBEBEBEBEBEBEBEBEBEBEBEBEBEBEBEBEBEBEBEBEBEBEBEBEBEBEBEBEBEBEBEBEBEBEBEBEBEBEBEBEBEBEBEBEBEBE
310
BEBEBEBEBEBEBEBEBEBEBEBEBEBEBEBEBEBEBEBEBEBEBEBEBEBEBEBEBEBEBEBEBEBEBEBEBEBEBEBEBEBEBEBEBEBEBEBEE2E2F5E2F5F5F5E2F5E2E2BEE2E2E2E2E2E2E2E2E2E2E2E2E2E2E2E2E2E2E2E2E2E2E2E2E2E2E2E2E2E2E2E2E2E2E2E2E2E2E2E2E2E2E2E2E2E2E2E2E2E2E2E2E2E2E2E2E2E2E2E2E2E2E2E2E2E2E2
310
E2E2E2E2E2E2E2E2E2E2E2E2E2E2E2E2E2E2E2E2E2E2E2E2E2E2E2E2E2E2E2E2E2E2E2E2E2E2E2E2E2E2E2E2E2E2E2E2E2E2E2E2E2E2E2E2E2E2E2E2E2E2E2E2E2E2E2E2E2E2E2E2E2E2E2E2E2E2E2E2E2E2E2E2E2E2E2E2E2E2E2E2E2E2E2E2E2E2E2E2BEE2E2F5E2F5F5F5E2F5E2E2BEE2E2E2E2E2E2E2E2E2E2E2E2E2E2
310
E2E2E2E2E2E2E2E2E2E2E2E2E2E2E2E2E2E2E2E2E2E2E2E2E2E2E2E2E2E2E2E2E2E2E2E2E2E2E2E2E2E2E2E2E2E2E2E2E2E2E2E2E2E2E2E2E2E2E2E2E2E2E2E2E2E2E2E2E2E2E2E2E2E2E2E2E2E2E2E2E2E2E2E2E2E2E2E2E2E2E2E2E2E2E2E2E2E2E2E2E2E2E2E2E2E2E2E2E2E2E2E2E2E2E2E2E2E2E2E2E2E2E2E2E2E2E2
310
E2E2E2E2E2E2E2E2E2E2E2E2E2E2E2E2E2E2E2E2E2E2E2E2E2E2BEE2E2F5E2F5F5F5E2F5E2E2BEE2E2E2E2E2E2E2E2E2E2E2E2E2E2E2E2E2E2E2E2E2E2E2E2E2E2E2E2E2E2E2E2E2E2E2E2E2E2E2E2E2E2E2E2E2E2E2E2E2E2E2E2E2E2E2E2E2E2E2E2E2E2E2E2E2E2E2E2E2E2E2E2E2E2E2E2E2E2E2E2E2E2E2E2E2E2E2E2
310
E2E2E2E2E2E2E2E2E2E2E2E2E2E2E2E2E2E2E2E2E2E2E2E2E2E2E2E2E2E2E2E2E2E2E2E2E2E2E2E2E2E2E2E2E2E2E2E2E2E2E2E2E2E2E2E2E2E2E2E2E2E2E2E2E2E2E2E2E2E2E2E2E2E2E2E2E2E2E2BEE2E2F5E2F5F5F5E2F5E2E2BEE2E2E2E2E2E2E2E2E2E2E2E2E2E2E2E2E2E2E2E2E2E2E2E2E2E2E2E2E2E2E2E2E2E2E2
310
E2E2E2E2E2E2E2E2E2E2E2E2E2E2E2E2E2E2E2E2E2E2E2E2E2E2E2E2E2E2E2E2E2E2E2E2E2E2E2E2E2E2E2E2E2E2E2E2E2E2E2E2E2E2E2282828E2E2E2E2E2E2E2E2E2E2E2E2E2E2E2E2E2E2E2E2E2E2E2E2E2E2E2E2E2E2E2E2E2E2E2E2E2E2E2E2E2E2E2E2E2E2E2E2E2E2E2E2E2E2E2E2E2E2E2E2E2E2E2E2E2E2E2E2E2
310
E2E2E2E2E2BEE2E2F5E2F5F5F5E2F5E2E2BEE2E2E2E2E2E2E2E2E2E2E2E2E2E2E2E2E2E2E2E2E2E2E2E2E2E2E2E2E2E2E2E2E2E2E2E2E2E2E2E2E2E2E2E2E2E2E2E2E2E2E2E2E2E2E2E2E2E2E2E2E2E2E2E2E2E2E2E2E2E2E2E2E2E2E2E2E2E2E2E2E2E2E2E2E2E2E2E2E2E2282828E2E2E2E2E2E2E2E2E2E2E2E2E2E2E2E2
310
E2E2E2E2E2E2E2E2E2E2E2E2E2E2E2E2E2E2E2E2E2E2E2E2E2E2E2E2E2E2E2E2E2E2E2E2E2E2E2E2E2E2E2E2E2E2E2E2E2E2E2E2E2E2E2E2E2E2BEE2E2F5E2F5F5F5E2F5E2E2BEE2E2E2E2E2E2E2E2E2E2E2E2E2E2E2E2E2E2E2E2E2E2E2E2E2E2E2E2E2E2E2E2E2E2E2E2E2E2E2E2E2E2E2E2E2E2E2E2E2E2E2E2E2E2E2E2
310
E2E2E2E2E2E2E2E2E2E2E2E2E2E2E2E2E2E2E2E22828282828282828282828E2E2E2282828E2E2E2E2E2E2E2E2E2E2E2E2E2E2E2E2E2E2E2E2E2E2E2E2E2E2E2E2E2E2E2E2E2E2E2E2E2E2E2E2E2E2E2E2E2E2E2E2E2E2E2E2E2E2E2E2E2E2E2E2E2E2E2E2E2E2E2E2E2E2E2E2E2E2BEE2E2F5E2F5F5F5E2F5E2E2BEE2E2E2
310
E2E2E2E2E2E2E2E2E2E2E2E2E2E2E2E2E2E2E2E2E2E2E2E2E2E2E2E2E2E2E2E2E2E2E2E2E2E2E2E2E2E2E2E2E2E2E2E2E2E2E2E2E2E2E2E2E2E2E2E2E2E2E2E2E2E2E2E2E2E2E2E2E2C3C3C3C3C3C3C3C3C3E2E228E2E2282828E2E2E2E2E2E2E2E2E2E2E2E2E2E2E2E2E2E2E2E2E2E2E2E2E2E2E2E2E2E2E2E2E2E2E2E2E2
310
E2E2E2E2E2E2E2E2E2E2E2E2E2E2E2E2E2E2E2E2E2E2E2E2E2E2E2E2E2E2E2E2E2E2E2E2E2BEE2E2F5E2F5F5F5E2F5E2E2BEE2E2E2E2E2E2E2E2E2E2E2E2E2E2E2E2E2E2E2E2E2E2E2E2E2E2E2E2E2E2E2E2E2E2E2E2E2E2E2E2E2E2E2E2E2E2E2E2E2E2E2E2E2E2E2E2E2E2E2E2E2E2E2E2E2E2E2E2E2E2E2E2E2E2E2E2C3
310
C3C3C3C3C3C3C3C3E2E2E228E2282828E2E2E2E2E2E2E2E2E2E2E2E2E2E2E2E2E2E2E2E2E2E2E2E2E2E2E2E2E2E2E2E2E2E2E2E2E2E2E2E2E2E2E2E2E2E2E2E2E2E2E2E2E2E2E2E2E2E2E2E2E2E2E2E2E2E2E2E2E2E2E2E2E2E2BEE2E2F5E2F5F5F5E2F5E2E2BEE2E2E2E2E2E2E2E2E2E2E2E2E2E2E2E2E2E2E2E2E2E2E2E2
310
E2E2E2E2E2E2E2E2E2E2E2E2E2E2E2E2E2E2E2E2E2E2E2E2E2E2E2E2E2E2E2E2E2E2E2E2E2E2E2E2E2E2E2E2E2E2E2E2E2E2E2E2E2E2E2E2E2E2E2E2E2E2E2E2E228282828E2E2E2E2E2C3C3C3C3C3C3C3E2E2E2E2E2E2E2E2E2E2E2E2E2E2E2E2E2E2E2E2E2E2E2E2E2E2E2E2E2E2E2E2E2E2E2E2E2E2E2E2E2E2E2E2E2E2
310
E2E2E2E2E2E2E2E2E2E2E2E2E2E2E2E2BEE2E2F5E2F5F5F5E2F5E2E2BEE2E2E2E2E2E2E2E2E2E2E2E2E2E2E2E2E2E2E2E2E2E2E2E2E2E2E2E2E2E2E2E2E2E2E2E2E2E2E2E2E2E2E2E2E2E2E2E2E2E2E2E2E2E2E2E2E2282828E2282828E2E2E2E2E2E2E2E2E2E2E2E2E2E2E2E2E2E2E2E2E2E2E2E2E2E2282828E2E2E2E2E2
310
C3C3C3C3C3C3C3C3C3C3C3E2E2E2E2E2E2E2E2E2E2E2E2E2E2E2E2E2E2E2E2E2E2E2E2E2E2E2E2E2E2E2E2E2E2E2E2E2E2E2E2E2E2E2E2E2E2E2E2E2E2E2E2E2E2E2E2E2E2BEE2E2F5E2F5F5F5E2F5E2E2BEE2E2E2E2E2E2E2E2E2E2E2E2E2E2E2E2E2E2E2E2E2E2E2E2E2E2E2E2E2E2E2E2E2E2E2E2E2E2E2E2E2E2E2E2E2
310
E2E2E2E2E2E2E2E2E2E2E2E228C328E228E228E2E2E2E2E2E2E2E2E2E2E2E2E2E2E2E2E2E2E2E2E2E2E2E2E2E2282828E2E2E2E2E2C3C3C3C3C3C3C3C3C3C3C3282828E2E2E2E2E2E2E2E2E2E2E2E2E2E2E2E2E2E2E2E2E2E2E2E2E2E2E2E2E2E2E2E2E2E2E2E2E2E2E2E2E2E2E2E2E2E2E2E2E2E2E2E2E2E2E2BEE2E2F5E2
310
F5F5F5E2F5E2E2BEE2E2E2E2E2E2E2E2E2E2E2E2E2E2E2E2E2E2E2E2E2E2E2E2E2E2E2E2E2E2E2E2E2E2E2E2E2E2E2E2E2E2E2E2E2E2E2E2E2E2E2E2E2E2E2E2E228C328E228C328E2E2E2E2E2E2E2E2E2E2E2E2E2E2E2E2E2E2E2E2E2E2E2E2E2E2282828E2E2E2E2E2C3C3C3C3C3C3C3C3C3C3E2E2E2E228E2E2E2E2E2E2
310
E2E2E2E2E2E2E2E2E2E2E2E2E2E2E2E2E2E2E2E2E2E2E2E2E2E2E2E2E2E2E2E2E2E2E2E2E2E2E2E2E2E2E2E2E2E2E2E2BEE2E2F5E2F5F5F5E2E2E2E2BEE2E2E2E2E2E2E2E2E2E2E2E2E2E2E2E2E2E2E2E2E2E2E2E2E2E2E2E2E2E2E2E2E2E2E2E2E2E2E2E2E2282828E2E2E2E2E2E2E2E2E2E2E2E2E228C328E228C328E2E2
310
E2E2E2E2E2E2E2E2E2E2E2E2E2E2E2E2E2E2E2E2E2E2E2E2282828E2E2E2E2E2C3C3C3C3C3C3C3C3E2E2E2E2E2E228E2E2E2E2E2E2282828E2E2E2E2E2E2E2E2E2E2E2E2E2E2E2E2E2E2E2E2E2E2E2E2E2E2E2E2E2E2E2E2E2E2E2E2E2E2E2E2E2E2E2E2E2BEE2E2E2E2F5F5F5E2E2E2E2BEE2E2E2E2E2E2E2E2E2E2E2E2E2
310
E2E2E2E2E2E2E2E2E2E2E2E2E2E2E2E2E2E2E2E2E2E2E2E2E2E2E2E2282828E2E2E2E2E2E2E2E2E2E2E2E2E228C328E228C328E2E2E2E2E2E228E228282828282828E2E2E2E2E2E2E2E2E2E2E2282828E2E2E22828C3C3C3C3C3C3C3C3E2E2E2E2E2E228E2E2E2E2E2E2282828E2E2E2E2E2E2E2E2E2E2E2E2E2E2E2E2E2E2
310
E2E2E2E2E2E2E2E2E2E2E2E2E2E2E2E2E2E2E2E2E2E2E2E2E2E2E2BEE2E2E2E2F5F5F5E2E2E2E2BEE2E2E2E2E2E2E2E2E2E2E2E2E2E2E2E2E2E2E2E2E2E2E2E2E2E2E2E2E2E2E2E228C3C3C32828E2E2E2282828E2E2E2E2E2E2E2E2E2E2E2E2E228C328E228C328E2E2E2E2E2E2282828C328C3E2C328E2E2E2E2E2E2E2E2
310
E2E2E2282828E2E2E228E2E2E2E2E2E2E2E2E2E2E2E2E2E2E2E228E2E2E2E2E2282828E2E2E2E2E2E2E2E2E2E2E2E2E2E2E2E2E2E2E2E2E2E2E2E2E2E2E2E2E2E2E2E2E2E2E2E2E2E2E2E2E2E2E2E2E2BEE2E2E2E2F5F5F5E2E2E2E2BEE2E2E2E2E2E2E2E2E2E2E2E2E2E2E2E2E2E2E2E2E2E2E2E2E2E2E2E2E2E2E2E2E228
310
E2E2E2E2E2E2E2282828E2E2E2E2E2E2E2E2E2E2E2E2E228C328E2282828E2E2E2E2E2E228E228282828282828E2E2E2E2E2E2E2E2E2E2E2282828E2E2E228E2E2E2E2E2E2E2E2E2E2E2E2E2E2E2E228E2E2E2E2E2282828E2E2E2E2E2E2E2E2E2E2E2E2E2E2E2E2E2E2E2E2E2E2E2E2E2E2E2E2E2E2E2E2E2E2E2E2E2E2E2
310
E2E2E2E2E2E2BEE2E2E2E2F5F5F5E2E2E2E2BEE2E2E2E2E2E2E2E2E2E2E2E2E2E2E2E2E2E2E2E2E2E2E2E2E2E2E2E2E2E2E2E2E2E228BEBEBEBEBEBEBEBEBEBEBEBEBEBEBEBEE2E2E2E2E2E228E228E228E2E2E2E2282828E228BEBEBEBEE2E2E2E2E2E2E2E2E2E2E2E2BEBEBE282828282828282828282828282828E2E2E2
310
E2E2E2E2BEBEBEBEBEBEBEBEBEBEBEBEBEBEBEBEBEBEE2E2E2E2E2E2E2E2E2E2E2E2E2E2E2E2E2E2E2E2E2E2E2E2E2E2E2E2E2E2E2E2E2E2E2E2E2BEE2E2E2E2F5F5F5E2E2E2E2BEE2E2E2E2E2E2E2E2E2E2E2E2E2E2E2E2E2E2E2E2E2E2E2E2E2E2E2E2E2E2E2E2E2E2BE28BEE2E2E2E2E2ECE2E2E2E2E2E2BEBEBEE2E2E2
310
E2E2282828E228E2E2E2E228C328E2BEBEE2E2BEBEBEBEBEBEBEBEBEBEBEBEBEBEE2E2E2E2BEE2E2E228E2E2E2E2E2E22828E2E2E2E2E2E2E2BEBEBEE2E2BEBEE2ECE2BEBEBEE2E2BEBEBEE2E2E2E2E2E2E2E2E2E2E2E2E2E2E2E2E2E2E2E2E2E2E2E2E2E2E2E2E2E2E2E2E2E2E2E2E2BEE2E2E2E2F5F5F5E2E2E2E2BEE2E2
310
E2E2E2E2E2E2E2E2E2E2E2E2E2E2E2E2E2E2E2E2E2E2E2E2E2E2E2E2E2E2E2E2BEBEBEECE2E2E2E2ECE2E2E2E2ECBEBEBEECE2E2E2E2E228E2E2E228E2E2E2E2282828E2BEBEE2E2BEE2E2E2E2E2E2E2E2E2E2E2E2BEE2E2E2E2BEE2E228E2E2E2E2E2E2E228E2E2E2E2E2E2E2E2BEBEBEBEBEE2E2E2ECE2E2E2E2BEECBEBE
310
BEE2E2E2E2E2E2E2E2E2E2E2E2E2E2E2E2E2E2E2E2E2E2E2E2E2E2E2E2E2E2E2E2E2E2E2E2E2BEE2E2E2E2F5F5F5E2E2E2E2BEE2E2E2E2E2E2E2E2E2E2E2E2E2E2E2E2E2E2E2E2E2E2E2E2E2E2E2E2E2E2E2E2E2E2BEECBEBEBEECE2BEBEBEE2E2ECBEBEECE2BEE2E2E2E2E228282828282828282828282828BEBEE2E2BEE2
310
E2E2E2E2E2E2E2E2E2E2E2BEE2E2E2E2BEE2E228E2E2E2E2E2E2E228E2E2E2E2E2E2E2E2BEECBE28E2E2E2E2ECE2E2E2E2E2BEECE2BEE2E2E2E2E2E2E2E2E2E2E2E2E2E2E2E2E2E2E2E2E2E2E2E2E2E2E2E2E2E2E2E2E2E2E2E2E2BEE2E2E2E2F5F5F5E2F5E2E2BEE2E2E2E2E2E2E2E2E2E2E2E2E2E2E2E2E2E2E2E2E2E2E2
310
E2E2E2E2E2E2E2E2E2E2E2BEE2BEBEBEBEBEE2ECE2BEBEE2BEBEE2E2BEE2E2E2E2E228E2E2E228E2E2E2E2E228E2BEBEBEE2E2BEE2E2E2E2E2E2E2E2E2E2E2E2BEE2E2E2E2BEE2E228E2E2E2E2E2E2E228E2E2E2E2E2E2E2E2BEE2BE28E2E2E2E2ECE2E2E2E2E2E2BEE2BEE2E2E2E2E2E2E2E2E2E2E2E2E2E2E2E2E2E2E2E2
310
E2E2E2E2E2E2E2E2E2E2E2E2E2E2E2E2E2BEE2E2F5E2F5F5F5E2F5E2E2BEE2E2E2E2E2E2E2E2E2E2E2E2E2E2E2E2E2E2E2E2E2E2E2E2E2E2E2E2E2E2E2E2E2E2BEE2E2ECBEE2E2E2ECE2E2E2BEECE2E2E2BEE2E2E2E2C328E2E2E228E2E2E2E2E228E2BEBEBEE2E2BEE2E2E2E2E2E2E2E2E2E2E2E2BEE2E2E2E2BEE2E228E2
310
E2E2E2E2E2E228E2E2E2E2E2E2E2E2BEBEE228E2E2E2E2ECE2E2E2E2E2E2E2BEBEE2E2E2E2E2E2E2E2E2E2E2E2E2E2E2E2E2E2E2E2E2E2E2E2E2E2E2E2E2E2E2E2E2E2E2E2E2BEE2E2F5E2F5F5F5E2F5E2E2BEE2E2E2E2E2E2E2E2E2E2E2E2E2E2E2E2E2E2E2E2E2E2E2E2E2E2E2E2E2E2E2E2E2E2BEE2E2BEE2E2E2E2ECE2
310
E2E2E2BEE2E2E2BEE2E2E2E2C328E2E2E228E2E2E2E2E228E2BEBEBEE2E2BEE2E2E2E2E2E2E2E2E2E2E2E2BEE2E2E2E2BEE2E228E2E2E2E228E2E228E2E2E2E2E2E2E2E2BEBEE2E228E2E2ECECECECE2E2E2E2E2BEBEE2E2E2E2E2E2E2E2E2E2E2E2E2E2E2E2E2E2E2E2E2E2E2E2E2E2E2E2E2E2E2E2E2E2E2E2E2BEE2E2F5
310
E2F5F5F5E2F5E2E2BEE2E2E2E2E2E2E2E2E2E2E2E2E2E2E2E2E2E2E2E2E2E2E2E2E2E2E2E2E2E2E2E2E2E2BEE2E2BEE2E2E2E2ECE2E2E2E2BEE2E2E2BEE2E2E2E2C328E2E2E228E2E2E2E2E228E2BEBEBEE2E2BEE2E2E2E2E2E2E2E2E2E2E2E2BEE2E2E2E2BEE2E228E2E2E2E22828C328E2E2E2E2E2E2E2E2BEBEE2E228E2
310
ECECECE2ECECE2E2E2E2E2BEE2E2E2E2E2E2E2E2E2E2E2E2E2E2E2E2E2E2E2E2E2E2E2E2E2E2E2E2E2E2E2E2E2E2E2E2E2BEE2E2F5E2F5F5F5E2F5E2E2BEE2E2E2E2E2E2E2E2E2E2E2E2E2E2E2E2E2E2E2E2E2E2E2E2E2E2E2E2E2E2E2E2E2E2BEE2E2BEE2E2E2BEBEBEE2E2E2E2BEE2E2BEE2E2E2E2C328E2E2E2282828BE
310
BEBEBEBEBEBEBEE2E2BEE2E2E2E2E2E2E2E2E2E2E2E2BEE2E2E2E2BEBE2828282828282828C328E2E2E2E2E2E2E2E2BEE2E2E22828BEE2BEBEE2BEE2E2E2E2E2BEE2E2E2E2E2E2E2E2E2E2E2E2E2E2E2E2E2E2E2E2E2E2E2E2E2E2E2E2E2E2E2E2E2E2E2E2E2BEE2E2F5E2F5F5F5E2F5E2E2BEE2E2E2E2E2E2E2E2E2E2E2E2
310
E2E2E2E2E2E2E2E2E2E2E2E2E2E2E2E2E2E2E2E2E2ECBEECECBEECECECBEECBEECECECECBEECECBEE2E2E2E2C328E2E2E228E2ECBEECECECECECBEBEECECECECECECECECECECECECECECECBEECECECECECEC28ECBEECE2E228E2C328E2E2E2E2E2E2E2ECBEECECECECBE28BEBEBEEC2828ECECECECBEE2E2E2E2E2E2E2E2E2
310
E2E2E2E2E2E2E2E2E2E2E2E2E2E2E2E2E2E2E2E2E2E2E2E2E2E2E2E2BEE2E2F5E2F5F5F5E2F5E2E2BEE2E2E2E2E2E2E2E2E2E2E2E2E2E2E2E2E2E2E2E2E2E2E2E2E2E2E2E2E2E2E2E2E2E2BEE2E2BEE2E2E2E2BEE2E2E2E2E2BEE2E2BEE2E2E2E2C328E2E2E228282828BEBEBEBEBEBEBEE2E2BEE2E2E2E2E2E2E2E2E2E2E2
310
E2BEE2E2E2E2BEBEBEBE282828282828E228E2E2E2E2E2E2E2E2BEE2E2E2E2E228E2BEE2E22828E2E2E2E2BEE2E2E2E2E2E2E2E2E2E2E2E2E2E2E2E2E2E2E2E2E2E2E2E2E2E2E2E2E2E2E2E2E2E2E2E2E2BEE2E2F5E2F5F5F5E2F5E2E2BEE2E2E2E2E2E2E2E2E2E2E2E2E2E2E2E2E2E2E2E2E2E2E2E2E2E2E2E2E2E2E2E2E2
310
E2BEE2E2BEE2E2E2E2ECE2E2E2E2BEE2E2E2BEE2E2E2E2C328E2E2E228E2E228E2E2E2E2BEBEBEE2E2BEE2E2E2E2E2E2E2E2E2E2E2E2BEE2E2E2E2BEE2E2E228E2E2E228E2E228E2E2E2E2E2E2E2E2BEBEE2E2E2E228ECECECEC2828E2E2E2BEBEE2E2E2E2E2E2E2E2E2E2E2E2E2E2E2E2E2E2E2E2E2E2E2E2E2E2E2E2E2E2
310
E2E2E2E2E2E2E2BEE2E2F5E2F5F5F5E2F5E2E2BEE2E2E2E2E2E2E2E2E2E2E2E2E2E2E2E2E2E2E2E2E2E2E2E2E2E2E2E2E2E2E2E2E2E2BEE2E2ECBEE2E2E2ECE2E2E2BEECE2E2E2BEE2E2E2E2E228E2E2E228E2E228E2E2E2E2BEBEBEE2E2BEE2E2E2E2E2E2E2E2E2E2E2E2BEE2E2E2E2BEE2E2E228E2E2E228E2E228E2E2E2
310
E2E2E2E2E2BEBEE2E2E2E228E2ECE2E228E228E2E2BEBEE2E2E2E2E2E2E2E2E2E2E2E2E2E2E2E2E2E2E2E2E2E2E2E2E2E2E2E2E2E2E2E2E2E2E2E2E2BEE2E2F5E2F5F5F5E2F5E2E2BEE2E2E2E2E2E2E2E2E2E2E2E2E2E2E2E2E2E2E2E2E2E2E2E2E2E2E2E2E2E2E2E2E2E2BEE2BEBEBEE2E2E2ECE2E2E2BEBEBEE2E2BEE2E2
310
E2E2E228E2E2E228E2E228E2E2E2E2BEBEBEE2E2BEE2E2E2E2E2E2E2E2E2E2E2E2BEE2E2E2E2BEE2E2E228E2E2E228E2E228E2E2E2E2E2E2E2E2BEBEE2E2E2E228E2ECE2E228E228E2BEE2BEE2E2E2E2E2E2E2E2E2E2E2E2E2E2E2E2E2E2E2E2E2E2E2E2E2E2E2E2E2E2E2E2E2E2E2E2E2BEE2E2F5E2F5F5F5E2F5E2E2BEE2
310
E2E2E2E2E2E2E2E2E2E2E2E2E2E2E2E2E2E2E2E2E2E2E2E2E2E2E2E2E2E2E2E2E2BEECBEBEBEECBEBEBEBEBEBEECBEBEECE2BEE2E2E2E2E228282828282828282828282828BEBEE2E2BEE2E2E2E2E2E2E2E2E2E2E2E2BEE2E2E2E2BEE2E2E228E2E2E228E2E228E2E2E2E2E2E2E2E2BEE2BEE2E2E228E2ECE2E228E2E228BE
310
E2BEE2E2E2E2E2E2E2E2E2E2E2E2E2E2E2E2E2E2E2E2E2E2E2E2E2E2E2E2E2E2E2E2E2E2E2E2E2BEE2E2F5E2F5F5F5E2F5E2E2BEE2E2E2E2E2E2E2E2E2E2E2E2E2E2E2E2E2E2E2E2E2E2E2E2E2E2E2E2E2E2E2E2E2E2BEBEBEBEBEE2E2E2ECE2E2E2E2BEBEBEBEBEE2E2E2E2E2E2E2C3C328E2E228E2E2E2E228BEBEE2E2BE
310
E2E2E2E2E2E2E2E2E2E2E2E2BEE2E2E2E2BEE2E2E228E2E2E228E2E228E2E2E2E2E2E2E2E2BEBEBEBEE2E228E2ECE2E228E2E2BEBEBEBEE2E2E2E2E2E2E2E2E2E2E2E2E2E2E2E2E2E2E2E2E2E2E2E2E2E2E2E2E2E2E2E2E2E2E2E2E2BEE2E2F5E2F5F5F5E2F5E2E2BEE2E2E2E2E2E2E2E2E2E2E2E2E2E2E2E2E2E2E2E2E2E2
310
E2E2E2E2E2E2E2E2E2E2E2E2BEBEBEECE2E2E2E2ECE2E2E2E2ECBEBEBE28E2E2E2E2E2E2E2C3C328E2E228E2E2E2E228BEBEE2E2BEE2E2E2E2E2E2E2E2E2E2E2E2BEE2E2E2E2BEE2E2E228E2E2E228E2E22828E2E2E2E2E2E2E2BEBEBEE2BEBEBEE2ECE2E2BEBEBEECBEBEBEE2E2E2E2E2E2E2E2E2E2E2E2E2E2E2E2E2E2E2
310
E2E2E2E2E2E2E2E2E2E2E2E2E2E2E2E2E2E2BEE2E2F5E2F5F5F5E2F5E2E2BEE2E2E2E2E2E2E2E2E2E2E2E2E2E2E2E2E2E2E2E2E2E2E2E2E2E2E2E2E2E2E2E2E2E22828BEBEBEBEBEBEBEBEBEBEBEBEBE28BE28E2E2E2E2E2E2E2C3C328E2E228E2E2E2E2282828BEBEBEBEBEBEBEBEBEBEBEBEBEBEBEBEBEBEBEBE28282828
310
282828282828282828E2E2E2E2E2E2E2BEBEBEBEBEBE28BEBEBEBE28BEBEBE28BEBEE2E2E2E2E2E2E2E2E2E2E2E2E2E2E2E2E2E2E2E2E2E2E2E2E2E2E2E2E2E2E2E2E2E2E2E2E2BEE2E2F5E2F5F5F5E2F5E2E2BEE2E2E2E2E2E2E2E2E2E2E2E2E2E2E2E2E2E2E2E2E2E2E2E2E2E2E2E2E2E2E2E2E2E22828E2E2E2E2E2E2EC
310
E2E2E2E2E2E228E228E2E2E2E2E2E2E2C3C328E2E228E2E2E2E2282828E2C3C3E2E2E2E2E2E2E2E2E2E2E2E2E2E2E2E2E228E2E2E228E2E2C328E2E2E2E2E2E2E2E2E2E2E2E2E2E2E2E2E228E2ECE2E228E2E2E2E228E2E2E2E2E2E2E2E2E2E2E2E2E2E2E2E2E2E2E2E2E2E2E2E2E2E2E2E2E2E2E2E2E2E2E2E2E2E2BEE2E2
310
F5E2F5F5F5E2F5E2E2BEE2E2E2E2E2E2E2E2E2E2E2E2E2E2E2E2E2E2E2E2E2E2E2E2E2E2E2E2E2E2E2E2E2E22828282828C3C3C3C3C3C32828282828E228E2E2E2E2E2E2E2C3C328E2E228E2C3282828282828C3C3E2E2E2E2E2E2E2E2E2E2E2E2E2E2E2E2E228E2E2E228E2E2C328E2E2E2E2E2E2E2E2E2E2E2E2E2E2E2E2
310
E228C3C3C32828E2E2E2E22828282828E2E2E2E2E2E2E2E2E2E2E2E2E2E2E2E2E2E2E2E2E2E2E2E2E2E2E2E2E2E2E2E2E2E2BEE2E2F5E2F5F5F5E2E2E2E2BEE2E2E2E2E2E2E2E2E2E2E2E2E2E2E2E2E2E2E2E2E2E2E2E2E2E2E2E2E2E2E2E2E2E228E2E2E2E2C3C3C3C3E2E2E2E2E2E2E2E228E2E2E2E2E2E2E2E2C328E2E2
310
28E2C3E2E2E228E2E2E2E2E2E2E2E2E2E2E2E2E2E2E2E2E2E2E2E2E228E2E2E228E2E2C328E2E2E2E2E2E2E2E2E2E2E2E2E2E2E2E2E2E2C3C3C3E2E2E2E2E2E2E2E2E2E2E2E2E2E2E2E2E2E2E2E2E2E2E2E2E2E2E2E2E2E2E2E2E2E2E2E2E2E2E2E2E2E2E2E2E2BEE2E2E2E2F5F5F5E2E2E2E2BEE2E2E2E2E2E2E2E2E2E2E2
310
E2E2E2E2E2E2E2E2E2E2E2E2E2E2E2E2E2E2E2E2E2E2E228282828282828C3C3C32828282828282828E2E2E2E2E2E2E2E2C328E2E228C3C3C3C3282828282828282828C3C3C3C32828282828282828282828C3C3C328E2C3C328E2E2E2E2E2E2E2E2E2E2E2E2E2E2E2E2E2E2E2E2E2E2E2E2E2E2E2E2E2E2E2E2E2E2E2E2E2
310
E2E2E2E2E2E2E2E2E2E2E2E2E2E2E2E2E2E2E2E2E2E2E2E2E2E2E2E2E2BEE2E2E2E2F5F5F5E2E2E2E2BEE2E2E2E2E2E2E2E2E2E2E2E2E2E2E2E2E2E2E2E2E2E2E2E2E2E2E2E2E2E2E2E2E2E228E2E2E2E2E2C3C3C3C3E2E2E2E2E2E2E228E2E2E2E2E2E2E2E2E228E2E2E2C3C3C3C3E2E2E2E2E2E2E2E2E2C3C3C3C3E2E2E2
310
E2E2E2E2E2E2E228C3C3C328E2E2C328E2E2E2E2E2E2E2E2E2E2E2E2E2E2E2E2E2E2E2E2E2E2E2E2E2E2E2E2E2E2E2E2E2E2E2E2E2E2E2E2E2E2E2E2E2E2E2E2E2E2E2E2E2E2E2E2E2E2E2E2E2E2E2E2E2E2BEE2E2E2E2F5F5F5E2E2E2E2BEE2E2E2E2E2E2E2E2E2E2E2E2E2E2E2E2E2E2E2E2E2E2E2E2E2E2E2E2E2E2E2E2
310
E2E2E2E2E2E2E2E2E2E2E2E2E2E2E2E2E2E2E2E2E2E2E2E2E2E2E2E2E2E2E2E2E2E2E2E2E2E2E2E2E2E2E2E2E2E2E2E2E2E2E2E2E2E2E2E2E2E2E2E2E2E2E2E2E2E2E2C328E2E2E2E2E2E2E2E2E2E2E2E2E2E2E2E2E2E2E2E2E2E2E2E2E2E2E2E2E2E2E2E2E2E2E2E2E2E2E2E2E2E2E2E2E2E2E2E2E2E2E2E2E2E2E2E2E2E2
310
E2E2E2E2E2E2E2E2BEE2E2E2E2F5F5F5E2E2E2E2BEE2E2E2E2E2E2E2E2E2E2E2E2E2E2E2E2E2E2E2E2E2E2E2E2E2E2E2E2E2E2E2E2E2E2E2E2E2E2E2E2E2E2E2E2E2E2E2E2E2E2E2E2E2E2E2E2E2E2E2E2E2E2E2E2E2E2E2E2E2E2E2E2E2E2E2E2E2E2E2E2E2E2E2E2E2E2E2E2E2E2E2E2E2E2E2E2E2E2E2E228E2E2E2E2E2
310
E2E2E2E2E2E2E2E2E2E2E2E2E2E2E2E2E2E2E2E2E2E2E2E2E2E2E2E2E2E2E2E2E2E2E2E2E2E2E2E2E2E2E2E2E2E2E2E2E2E2E2E2E2E2E2E2E2E2E2E2E2BEE2E2E2E2F5F5F5E2E2E2E2BEE2E2E2E2E2E2E2E2E2E2E2E2E2E2E2E2E2E2E2E2E2E2E2E2E2E2E2E2E2E2E2E2E22828282828282828282828282828282828282828
310
E2E2E2E2E2E2E2E2E2E2E2E2E2E2E2E2E2E2E2E2E2E2E2E2E2E2E2E2E2E22828282828282828E2E2E2E2E2E2E2E2E2E2E2E2E2E2E2E2E2E2E2E2E2E2E2E2E2E22828282828282828E2E2E2E2E2E2E2E2E2E2E2E2E2E2E2E2E2E2E2E2E2E2E2E2E2E2E2E2E2E2E2E2E2E2E2E2E2E2E2E2E2E2BEE2E2E2E2F5F5F5E2E2E2E2BE
310
E2E2E2E2E2E2E2E2E2E2E2E2E2E2E2E2E2E2E2E2E2E2E2E2E2E2E2E2E2E2E2E2E22828282828282828282828282828282828282828E2E2E2E2E2E2E2E2E2E2E2E2E2E2E2E2E2E2E2E2E2E2E2E2E2E2E2E2E2E22828282828282828E2E2E2E2E2E2E2E2E2E2E2E2E2E2E2E2E2E2E2E2E2E2E2E2E2E22828282828282828E2E2
310
E2E2E2E2E2E2E2E2E2E2E2E2E2E2E2E2E2E2E2E2E2E2E2E2E2E2E2E2E2E2E2E2E2E2E2E2E2E2E2E2BEE2E2E2E2F5F5F5E2E2E2E2BEE2E2E2E2E2E2E2E2E2E2E2E2E2E2E2E2E2E2E2E2E2E2E2E2E2E2E2E2E2E2E2E2E2E2E2E2E2E2E2E2E2E2E2E2E2E2E2E2E2E2E2E2E2E2E2E2E2E2E2E2E2E2E2E2E2E2E2E2E2E2E2E2E2E2
310
E2E2E2E2E2E2E2E2E2E2E2E2E2E2E2E2E2E2E2E2E2E2E2E2E2E2E2E2E2E2E2E2E2E2E2E2E2E2E2E2E2E2E2E2E2E2E2E2E2E2E2E2E2E2E2E2E2E2E2E2E2E2E2E2E2E2E2E2E2E2E2E2E2E2E2E2E2E2E2E2E2E2E2E2E2E2E2E2E2E2E2E2E2BEE2E2E2E2F5F5F5E2E2E2E2BEE2E2E2E2E2E2E2E2E2E2E2E2E2E2E2E2E2E2E2E2E2
310
E2E2E2E2E2E2E2E2E2E2E2E2E2E2E2E2E2E2E2E2E2E2E2E2E2E2E2E2E2E2E2E2E2E2E2E2E2E2E2E2E2E2E2E2E2E2E2E2E2E2E2E2E2E2E2E2E2E2E2E2E2E2E2E2E2E2E2E2E2E2E2E2E2E2E2E2E2E2E2E2E2E2E2E2E2E2E2E2E2E2E2E2E2E2E2E2E2E2E2E2E2E2E2E2E2E2E2E2E2E2E2E2E2E2E2E2E2E2E2E2E2E2E2E2E2E2E2
310
E2E2E2E2E2E2E2E2E2E2E2E2E2E2E2E2E2E2E2BEE2E2E2E2F5F5F5E2F5E2E2BEE2E2E2E2E2E2E2E2E2E2E2E2E2E2E2E2E2E2E2E2E2E2E2E2E2E2E2E2E2E2E2E2E2E2E2E2E2E2E2E2E2E2E2E2E2E2E2E2E2E2E2E2E2E2E2E2E2E2E2E2E2E2E2E2E2E2E2E2E2E2E2E2E2E2E2E2E2E2E2E2E2E2E2E2E2E2E2E2E2E2E2E2E2E2E2
310
E2E2E2E2E2E2E2E2E2E2E2E2E2E2E2E2E2E2E2E2E2E2E2E2E2E2E2E2E2E2E2E2E2E2E2E2E2E2E2E2E2E2E2E2E2E2E2E2E2E2E2E2E2E2E2E2E2E2E2E2E2E2E2E2E2E2E2E2E2E2E2E2BEE2E2F5E2F5F5F5E2F5E2E2BEE2E2E2E2E2E2E2E2E2E2E2E2E2E2E2E2E2E2E2E2E2E2E2E2E2E2E2E2E2E2E2E2E2E2E2E2E2E2E2E2E2E2
310
E2E2E2E2E2E2E2E2E2E2E2E2E2E2E2E2E2E2E2E2E2E2E2E2E2E2E2E2E2E2E2E2E2E2E2E2E2E2E2E2E2E2E2E2E2E2E2E2E2E2E2E2E2E2E2E2E2E2E2E2E2E2E2E2E2E2E2E2E2E2E2E2E2E2E2E2E2E2E2E2E2E2E2E2E2E2E2E2E2E2E2E2E2E2E2E2E2E2E2E2E2E2E2E2E2E2E2E2E2E2E2E2E2E2E2E2E2E2E2E2E2E2E2E2E2BEE2
310
E2F5E2F5F5F5E2F5E2E2BEE2E2E2E2E2E2E2E2E2E2E2E2E2E2E2E2E2E2E2E2E2E2E2E2E2E2E2E2E2E2E2E2E2E2E2E2E2E2E2E2E2E2E2E2E2E2E2E2E2E2E2E2E2E2E2E2E2E2E2E2E2E2E2E2E2E2E2E2E2E2E2E2E2E2E2E2E2E2E2E2E2E2E2E2E2E2E2E2E2E2E2E2E2E2E2E2E2E2E2E2E2E2E2E2E2E2E2E2E2E2E2E2E2E2E2E2
310
E2E2E2E2E2E2E2E2E2E2E2E2E2E2E2E2E2E2E2E2E2E2E2E2E2E2E2E2E2E2E2E2E2E2E2E2E2E2E2E2E2E2E2E2E2E2E2E2E2E2E2BEE2E2F5E2F5F5F5E2F5E2E2BEE2E2E2E2E2E2E2E2E2E2E2E2E2E2E2E2E2E2E2E2E2E2E2E2E2E2E2E2E2E2E2E2E2E2E2E2E2E2E2E2E2E2E2E2E2E2E2E2E2E2E2E2E2E2E2E2E2E2E2E2E2E2E2
310
E2E2E2E2E2E2E2E2E2E2E2E2E2E2E2E2E2E2E2E2E2E2E2E2E2E2E2E2E2E2E2E2E2E2E2E2E2E2E2E2E2E2E2E2E2E2E2E2E2E2E2E2E2E2E2E2E2E2E2E2E2E2E2E2E2E2E2E2E2E2E2E2E2E2E2E2E2E2E2E2E2E2E2E2E2E2E2E2E2E2E2E2E2E2E2E2E2E2E2E2E2E2E2E2BEE2E2F5E2F5F5F5E2F5E2E2BEE2E2E2E2E2E2E2E2E2E2
310
E2E2E2E2E2E2E2E2E2E2E2E2E2E2E2E2E2E2E2E2E2E2E2E2E2E2E2E2E2E2E2E2E2E2E2E2E2E2E2E2E2E2E2E2E2E2E2E2E2E2E2E2E2E2E2E2E2E2E2E2E2E2E2E2E2E2E2E2E2E2E2E2E2E2E2E2E2E2E2E2E2E2E2E2E2E2E2E2E2E2E2E2E2E2E2E2E2E2E2E2E2E2E2E2E2E2E2E2E2E2E2E2E2E2E2E2E2E2E2E2E2E2E2E2E2E2E2
310
E2E2E2E2E2E2E2E2E2E2E2E2E2E2E2E2E2E2E2E2E2E2E2E2E2E2E2E2E2E2BEE2E2F5E2F5F5F5E2F5E2E2BEBEBEBEBEBEBEBEBEBEBEBEBEBEBEBEBEBEBEBEBEBEBEBEBEBEBEBEBEBEBEBEBEBEBEBEBEBEBEBEBEBEBEBEBEBEBEBEBEBEBEBEBEBEBEBEBEBEBEBEBEBEBEBEBEBEBEBEBEBEBEBEBEBEBEBEBEBEBEBEBEBEBEBEBE
310
BEBEBEBEBEBEBEBEBEBEBEBEBEBEBEBEBEBEBEBEBEBEBEBEBEBEBEBEBEBEBEBEBEBEBEBEBEBEBEBEBEBEBEBEBEBEBEBEBEBEBEBEBEBEBEBEBEBEBEBEBEBEBEBEBEBEBEBEBEBEBEBEBEBEBEBEBEBEBEBEBEBEBEBEE2E2F5E2F5F5F5E2F5E2E2E2E2E2E2E2E2E2E2E2E2E2E2E2E2E2E2E2E2E2E2E2E2E2E2E2E2E2E2E2E2E2E2
310
E2E2E2E2E2E2E2E2E2E2E2E2E2E2E2E2E2E2E2E2E2E2E2E2E2E2E2E2E2E2E2E2E2E2E2E2E2E2E2E2E2E2E2E2E2E2E2E2E2E2E2E2E2E2E2E2E2E2E2E2E2E2E2E2E2E2E2E2E2E2E2E2E2E2E2E2E2E2E2E2E2E2E2E2E2E2E2E2E2E2E2E2E2E2E2E2E2E2E2E2E2E2E2E2E2E2E2E2E2E2E2E2E2E2E2E2E2E2E2E2E2E2E2E2E2E2E2
310
E2E2E2E2E2E2E2E2E2E2E2E2F5E2F5F5F5E2F5F5F5F5F5F5F5F5E2E2E2E2E2E2E2E2E2F5F5F5F5F5F5F5F5F5F5F5F5F5F5F5F5E2E2E2E2E2E2E2E2E2F5F5F5F5F5F5F5F5F5F5F5F5F5F5F5F5E2E2E2E2E2E2E2E2E2F5F5F5F5F5F5F5F5F5F5F5F5F5F5F5F5E2E2E2E2E2E2E2E2E2F5F5F5F5F5F5F5F5F5F5F5F5F5F5F5F5E2
310
E2E2E2E2E2E2E2E2F5F5F5F5F5F5F5F5F5F5F5F5F5F5F5F5E2E2E2E2E2E2E2E2E2F5F5F5F5F5F5F5F5F5F5F5F5F5F5F5F5E2E2E2E2E2E2E2E2E2F5F5F5F5F5F5F5F5E2F5F5F5E2E2E2E2E2E2E2E2E2E2E2E2E2E2E2E2E2E2E2E2E2E2E2E2E2E2E2E2E2E2E2E2E2E2E2E2E2E2E2E2E2E2E2E2E2E2E2E2E2E2E2E2E2E2E2E2E2
310
E2E2E2E2E2E2E2E2E2E2E2E2E2E2E2E2E2E2E2E2E2E2E2E2E2E2E2E2E2E2E2E2E2E2E2E2E2E2E2E2E2E2E2E2E2E2E2E2E2E2E2E2E2E2E2E2E2E2E2E2E2E2E2E2E2E2E2E2E2E2E2E2E2E2E2E2E2E2E2E2E2E2E2E2E2E2E2E2E2E2E2E2E2E2E2E2E2E2E2E2E2E2E2E2E2E2E2E2E2E2E2E2E2E2E2E2E2E2E2E2F5EFF5F5F5F5F5
310
F5F5F5F5F5F5F5F5F5F5F5F5F5F5F5F5F5F5F5F5F5F5F5F5F5F5F5F5F5F5F5F5F5F5F5F5F5F5F5F5F5F5F5F5F5F5F5F5F5F5F5F5F5F5F5F5F5F5F5F5F5F5F5F5F5F5F5F5F5F5F5F5F5F5F5F5F5F5F5F5F5F5F5F5F5F5F5F5F5F5F5F5F5F5F5F5F5F5F5F5F5F5F5F5F5F5F5F5F5F5F5F5F5F5F5F5F5F5F5F5F5F5F5F5F5F5F5
310
F5F5F5F5F5F5F5F5F5F5F5F5F5F5F5F5F5F5F5F5F5F5F5F5F5F5F5F5F5F5F5F5F5F5F5F5F5F5F5F5F5F5F5F5F5F5F5EF
  0
XRECORD
  5
61B8
102
{ACAD_REACTORS
330
61B7
102
}
330
61B7
100
AcDbXrecord
280
     1
102
SHADEPLOT
 70
     0
102
SHADEPLOTRESLEVEL
 70
     2
102
SHADEPLOTCUSTOMDPI
 70
   300
  0
ENDSEC
  0
EOF
