  0
SECTION
  2
HEADER
  9
$ACADVER
  1
AC1015
  9
$ACADMAINTVER
 70
    20
  9
$DWGCODEPAGE
  3
ANSI_1252
  9
$INSBASE
 10
0.0
 20
0.0
 30
0.0
  9
$EXTMIN
 10
807.6786505359962
 20
539.5644988166011
 30
0.0
  9
$EXTMAX
 10
1092.772504031188
 20
647.2503160604852
 30
0.0
  9
$LIMMIN
 10
0.0
 20
0.0
  9
$LIMMAX
 10
420.0
 20
297.0
  9
$ORTHOMODE
 70
     1
  9
$REGENMODE
 70
     1
  9
$FILLMODE
 70
     1
  9
$QTEXTMODE
 70
     0
  9
$MIRRTEXT
 70
     1
  9
$LTSCALE
 40
1.0
  9
$ATTMODE
 70
     1
  9
$TEXTSIZE
 40
2.399999999999999
  9
$TRACEWID
 40
1.0
  9
$TEXTSTYLE
  7
STANDARD
  9
$CLAYER
  8
SPEC
  9
$CELTYPE
  6
ByLayer
  9
$CECOLOR
 62
   256
  9
$CELTSCALE
 40
1.0
  9
$DISPSILH
 70
     0
  9
$DIMSCALE
 40
1.0
  9
$DIMASZ
 40
3.0
  9
$DIMEXO
 40
1.0
  9
$DIMDLI
 40
1.0
  9
$DIMRND
 40
0.0
  9
$DIMDLE
 40
0.0
  9
$DIMEXE
 40
1.0
  9
$DIMTP
 40
0.2
  9
$DIMTM
 40
-0.2
  9
$DIMTXT
 40
3.0
  9
$DIMCEN
 40
-0.05
  9
$DIMTSZ
 40
0.0
  9
$DIMTOL
 70
     0
  9
$DIMLIM
 70
     0
  9
$DIMTIH
 70
     0
  9
$DIMTOH
 70
     0
  9
$DIMSE1
 70
     0
  9
$DIMSE2
 70
     0
  9
$DIMTAD
 70
     1
  9
$DIMZIN
 70
     8
  9
$DIMBLK
  1

  9
$DIMASO
 70
     1
  9
$DIMSHO
 70
     1
  9
$DIMPOST
  1

  9
$DIMAPOST
  1

  9
$DIMALT
 70
     0
  9
$DIMALTD
 70
     2
  9
$DIMALTF
 40
25.4
  9
$DIMLFAC
 40
1.0
  9
$DIMTOFL
 70
     1
  9
$DIMTVP
 40
5.0
  9
$DIMTIX
 70
     0
  9
$DIMSOXD
 70
     0
  9
$DIMSAH
 70
     0
  9
$DIMBLK1
  1

  9
$DIMBLK2
  1

  9
$DIMSTYLE
  2
STANDARD
  9
$DIMCLRD
 70
     3
  9
$DIMCLRE
 70
     3
  9
$DIMCLRT
 70
     6
  9
$DIMTFAC
 40
0.8
  9
$DIMGAP
 40
1.0
  9
$DIMJUST
 70
     0
  9
$DIMSD1
 70
     0
  9
$DIMSD2
 70
     0
  9
$DIMTOLJ
 70
     1
  9
$DIMTZIN
 70
     8
  9
$DIMALTZ
 70
     0
  9
$DIMALTTZ
 70
     0
  9
$DIMUPT
 70
     0
  9
$DIMDEC
 70
     2
  9
$DIMTDEC
 70
     1
  9
$DIMALTU
 70
     2
  9
$DIMALTTD
 70
     2
  9
$DIMTXSTY
  7
STANDARD
  9
$DIMAUNIT
 70
     0
  9
$DIMADEC
 70
     0
  9
$DIMALTRND
 40
0.0
  9
$DIMAZIN
 70
     0
  9
$DIMDSEP
 70
    46
  9
$DIMATFIT
 70
     3
  9
$DIMFRAC
 70
     0
  9
$DIMLDRBLK
  1

  9
$DIMLUNIT
 70
     2
  9
$DIMLWD
 70
    -1
  9
$DIMLWE
 70
    -2
  9
$DIMTMOVE
 70
     0
  9
$LUNITS
 70
     2
  9
$LUPREC
 70
     2
  9
$SKETCHINC
 40
1.0
  9
$FILLETRAD
 40
5.0
  9
$AUNITS
 70
     0
  9
$AUPREC
 70
     0
  9
$MENU
  1
.
  9
$ELEVATION
 40
0.0
  9
$PELEVATION
 40
0.0
  9
$THICKNESS
 40
0.0
  9
$LIMCHECK
 70
     0
  9
$CHAMFERA
 40
3.0
  9
$CHAMFERB
 40
3.0
  9
$CHAMFERC
 40
3.5
  9
$CHAMFERD
 40
0.7853981633974483
  9
$SKPOLY
 70
     0
  9
$TDCREATE
 40
2453787.436149942
  9
$TDUCREATE
 40
2453787.352816609
  9
$TDUPDATE
 40
2453945.401461586
  9
$TDUUPDATE
 40
2453945.318128253
  9
$TDINDWG
 40
1.8164392245
  9
$TDUSRTIMER
 40
1.8155871412
  9
$USRTIMER
 70
     1
  9
$ANGBASE
 50
0.0
  9
$ANGDIR
 70
     0
  9
$PDMODE
 70
     0
  9
$PDSIZE
 40
0.0
  9
$PLINEWID
 40
0.0
  9
$SPLFRAME
 70
     0
  9
$SPLINETYPE
 70
     6
  9
$SPLINESEGS
 70
     8
  9
$HANDSEED
  5
65D5
  9
$SURFTAB1
 70
     6
  9
$SURFTAB2
 70
     6
  9
$SURFTYPE
 70
     6
  9
$SURFU
 70
     6
  9
$SURFV
 70
     6
  9
$UCSBASE
  2

  9
$UCSNAME
  2

  9
$UCSORG
 10
0.0
 20
0.0
 30
0.0
  9
$UCSXDIR
 10
1.0
 20
0.0
 30
0.0
  9
$UCSYDIR
 10
0.0
 20
1.0
 30
0.0
  9
$UCSORTHOREF
  2

  9
$UCSORTHOVIEW
 70
     0
  9
$UCSORGTOP
 10
0.0
 20
0.0
 30
0.0
  9
$UCSORGBOTTOM
 10
0.0
 20
0.0
 30
0.0
  9
$UCSORGLEFT
 10
0.0
 20
0.0
 30
0.0
  9
$UCSORGRIGHT
 10
0.0
 20
0.0
 30
0.0
  9
$UCSORGFRONT
 10
0.0
 20
0.0
 30
0.0
  9
$UCSORGBACK
 10
0.0
 20
0.0
 30
0.0
  9
$PUCSBASE
  2

  9
$PUCSNAME
  2

  9
$PUCSORG
 10
0.0
 20
0.0
 30
0.0
  9
$PUCSXDIR
 10
1.0
 20
0.0
 30
0.0
  9
$PUCSYDIR
 10
0.0
 20
1.0
 30
0.0
  9
$PUCSORTHOREF
  2

  9
$PUCSORTHOVIEW
 70
     0
  9
$PUCSORGTOP
 10
0.0
 20
0.0
 30
0.0
  9
$PUCSORGBOTTOM
 10
0.0
 20
0.0
 30
0.0
  9
$PUCSORGLEFT
 10
0.0
 20
0.0
 30
0.0
  9
$PUCSORGRIGHT
 10
0.0
 20
0.0
 30
0.0
  9
$PUCSORGFRONT
 10
0.0
 20
0.0
 30
0.0
  9
$PUCSORGBACK
 10
0.0
 20
0.0
 30
0.0
  9
$USERI1
 70
     0
  9
$USERI2
 70
     0
  9
$USERI3
 70
     0
  9
$USERI4
 70
     0
  9
$USERI5
 70
     0
  9
$USERR1
 40
0.0
  9
$USERR2
 40
0.0
  9
$USERR3
 40
0.0
  9
$USERR4
 40
0.0
  9
$USERR5
 40
0.0
  9
$WORLDVIEW
 70
     1
  9
$SHADEDGE
 70
     3
  9
$SHADEDIF
 70
    70
  9
$TILEMODE
 70
     0
  9
$MAXACTVP
 70
    64
  9
$PINSBASE
 10
0.0
 20
0.0
 30
0.0
  9
$PLIMCHECK
 70
     0
  9
$PEXTMIN
 10
-0.0035503062384805
 20
-0.0079124889571744
 30
-0.0015258207003583
  9
$PEXTMAX
 10
280.0102028124818
 20
196.2531136348917
 30
0.0000000349246037
  9
$PLIMMIN
 10
-8.491425414923412
 20
-6.874645704538465
  9
$PLIMMAX
 10
288.4980765382016
 20
203.11984587261
  9
$UNITMODE
 70
     0
  9
$VISRETAIN
 70
     1
  9
$PLINEGEN
 70
     0
  9
$PSLTSCALE
 70
     1
  9
$TREEDEPTH
 70
  3020
  9
$CMLSTYLE
  2
Standard
  9
$CMLJUST
 70
     0
  9
$CMLSCALE
 40
20.0
  9
$PROXYGRAPHICS
 70
     1
  9
$MEASUREMENT
 70
     1
  9
$CELWEIGHT
370
    -1
  9
$ENDCAPS
280
     0
  9
$JOINSTYLE
280
     0
  9
$LWDISPLAY
290
     0
  9
$INSUNITS
 70
     4
  9
$HYPERLINKBASE
  1

  9
$STYLESHEET
  1

  9
$XEDIT
290
     1
  9
$CEPSNTYPE
380
     0
  9
$PSTYLEMODE
290
     1
  9
$FINGERPRINTGUID
  2
{65A8C6A1-B973-4B90-93E8-5CEEA7DDEAA7}
  9
$VERSIONGUID
  2
{317E7333-A95F-4ADE-B59E-19DFE6519596}
  9
$EXTNAMES
290
     1
  9
$PSVPSCALE
 40
1.0
  9
$OLESTARTUP
290
     0
  0
ENDSEC
  0
SECTION
  2
CLASSES
  0
CLASS
  1
ACDBDICTIONARYWDFLT
  2
AcDbDictionaryWithDefault
  3
ObjectDBX Classes
 90
        0
280
     0
281
     0
  0
CLASS
  1
ACDBPLACEHOLDER
  2
AcDbPlaceHolder
  3
ObjectDBX Classes
 90
        0
280
     0
281
     0
  0
CLASS
  1
LAYOUT
  2
AcDbLayout
  3
ObjectDBX Classes
 90
        0
280
     0
281
     0
  0
CLASS
  1
ACME_DOCUMENT
  2
AcMeDbDoc
  3
AcMeServices
 90
        0
280
     0
281
     0
  0
CLASS
  1
AMGSETTINGSOBJ
  2
AmgSettingsObj
  3
"AcadM|Product Description: AutoCAD Mechanical 2000|Company: Autodesk"
 90
        0
280
     0
281
     0
  0
CLASS
  1
ACMESCOPE
  2
AcMeScope
  3
AcMeServices
 90
        0
280
     0
281
     0
  0
CLASS
  1
ACMECOMMANDHISTORY
  2
AcMeCommandHistory
  3
AcMeServices
 90
        0
280
     0
281
     0
  0
CLASS
  1
ACIMSYSVARMAN
  2
AcImSysVarManager
  3
AcMeServices
 90
        0
280
     0
281
     0
  0
CLASS
  1
ACIMREALSYSVAR
  2
AcImRealSysVar
  3
AcMeServices
 90
        0
280
     0
281
     0
  0
CLASS
  1
ACIMINTSYSVAR
  2
AcImIntSysVar
  3
AcMeServices
 90
        0
280
     0
281
     0
  0
CLASS
  1
ACMEDRAWINGMAN
  2
AcMeDrawingMan
  3
AcMeServices
 90
        0
280
     0
281
     0
  0
CLASS
  1
ACMEVIEW
  2
AcMeView
  3
AcMeServices
 90
        0
280
     0
281
     0
  0
CLASS
  1
ACDBENTITYCACHE
  2
AcMeEntityCache
  3
AcMeServices
 90
        0
280
     0
281
     0
  0
CLASS
  1
GSMANAGER
  2
AcMeGSManager
  3
AcMeServices
 90
        0
280
     0
281
     0
  0
CLASS
  1
AMDTINTERNALREACTOR
  2
AmdtInternalReactor
  3
AcMeServices
 90
        0
280
     0
281
     0
  0
CLASS
  1
ACMESTATEMGR
  2
AcMeStateMgr
  3
AcMeServices
 90
        0
280
     0
281
     0
  0
CLASS
  1
ACGREFMASTER
  2
AcGrefMaster
  3
AcAttribServices
 90
        0
280
     0
281
     0
  0
CLASS
  1
ACME_DATABASE
  2
AcMeDbDatabase
  3
AcMeServices
 90
        0
280
     0
281
     0
  0
CLASS
  1
ACRFINSADJUSTERMGR
  2
AcRfInsAdjusterMgr
  3
AcMeServices
 90
        0
280
     0
281
     0
  0
CLASS
  1
ACGREFACADMASTER
  2
AcGrefacadMaster
  3
AcGrefServices
 90
        0
280
     0
281
     0
  0
CLASS
  1
AMIMASTER
  2
AmiMaster
  3
AmiServices
 90
        0
280
     0
281
     0
  0
CLASS
  1
ACMDATADICTIONARY
  2
AcmDataDictionary
  3
"AcmSymBB|Product Description: AutoCAD Mechanical 2004 DX|Company: Autodesk"
 90
        0
280
     0
281
     0
  0
CLASS
  1
ACMDATAENTRYBLOCK
  2
AcmDataEntryBlock
  3
"AcmSymBB|Product Description: AutoCAD Mechanical 2004 DX|Company: Autodesk"
 90
        0
280
     0
281
     0
  0
CLASS
  1
ACIMSTRSYSVAR
  2
AcImStrSysVar
  3
AcMeServices
 90
        0
280
     0
281
     0
  0
CLASS
  1
ACMSTANDARDISO
  2
AcmStandardISO
  3
"Amdt_StdImp|Product Description: AutoCAD Mechanical 2004 DX|Company: Autodesk"
 90
        0
280
     0
281
     0
  0
CLASS
  1
AMGOBJPROPCFG
  2
AmgObjPropCfg
  3
"AmgLay|Product Description: AutoCAD Mechanical 2000|Company: Autodesk"
 90
        1
280
     0
281
     0
  0
CLASS
  1
AMDTEDGESTANDARDISO
  2
AmdtEdgeStdISO
  3
"Amdt_StdImp|Product Description: AutoCAD Mechanical 2004 DX|Company: Autodesk"
 90
        0
280
     0
281
     0
  0
CLASS
  1
ACMSURFSTANDARDISO
  2
AcmSurfTextStdISO
  3
"Amdt_StdImp|Product Description: AutoCAD Mechanical 2004 DX|Company: Autodesk"
 90
        0
280
     0
281
     0
  0
CLASS
  1
ACMFCFSTANDARDISO
  2
AcmFCFStdISO
  3
"Amdt_StdImp|Product Description: AutoCAD Mechanical 2004 DX|Company: Autodesk"
 90
        0
280
     0
281
     0
  0
CLASS
  1
ACMWELDSTANDARDISO
  2
AcmWeldingStdISO
  3
"Amdt_StdImp|Product Description: AutoCAD Mechanical 2004 DX|Company: Autodesk"
 90
        0
280
     0
281
     0
  0
CLASS
  1
ACMIDSTANDARDISO
  2
AcmIdStdISO
  3
"Amdt_StdImp|Product Description: AutoCAD Mechanical 2004 DX|Company: Autodesk"
 90
        0
280
     0
281
     0
  0
CLASS
  1
ACMDATUMSTANDARDISO
  2
AcmDatumStdISO
  3
"Amdt_StdImp|Product Description: AutoCAD Mechanical 2004 DX|Company: Autodesk"
 90
        0
280
     0
281
     0
  0
CLASS
  1
ACMBOMSTANDARDISO
  2
AcmBOMStdISO
  3
"Amdt_StdImp|Product Description: AutoCAD Mechanical 2004 DX|Company: Autodesk"
 90
        0
280
     0
281
     0
  0
CLASS
  1
ACMDETAILSTANDARDISO
  2
AmdtDetailSymStdISO
  3
"Amdt_StdImp|Product Description: AutoCAD Mechanical 2004 DX|Company: Autodesk"
 90
        0
280
     0
281
     0
  0
CLASS
  1
ACMSECTIONSTANDARDISO
  2
AmdtSectionSymStdISO
  3
"Amdt_StdImp|Product Description: AutoCAD Mechanical 2004 DX|Company: Autodesk"
 90
        0
280
     0
281
     0
  0
CLASS
  1
ACMCENTERLINESTANDARDISO
  2
AmdtCenterLineStdISO
  3
"Amdt_StdImp|Product Description: AutoCAD Mechanical 2004 DX|Company: Autodesk"
 90
        0
280
     0
281
     0
  0
CLASS
  1
ACMNOTESTANDARDISO
  2
AmdtNoteStdISO
  3
"Amdt_StdImp|Product Description: AutoCAD Mechanical 2004 DX|Company: Autodesk"
 90
        0
280
     0
281
     0
  0
CLASS
  1
ACAMGLAYSTD
  2
AcAmgLayStd
  3
"AcAmgLayStd|Product Description: AutoCAD Mechanical 2000|Company: Autodesk"
 90
        0
280
     0
281
     0
  0
CLASS
  1
ACAMGDIMSTD
  2
AcAmgDimStd
  3
"AcAmgDimStd|Product Description: AutoCAD Mechanical 2000|Company: Autodesk"
 90
        0
280
     0
281
     0
  0
CLASS
  1
ACAMGHOLECHARTSTDISO
  2
AcAmgHoleChartStdISO
  3
ACMSYMBB_MODULE_NAME
 90
        0
280
     0
281
     0
  0
CLASS
  1
ACAMGTITLESTD
  2
AcAmgTitleStd
  3
"TITLEAPP"
 90
        0
280
     0
281
     0
  0
CLASS
  1
LAYER_INDEX
  2
AcDbLayerIndex
  3
ObjectDBX Classes
 90
    32768
280
     0
281
     0
  0
CLASS
  1
IDBUFFER
  2
AcDbIdBuffer
  3
ObjectDBX Classes
 90
    32768
280
     0
281
     0
  0
CLASS
  1
DICTIONARYVAR
  2
AcDbDictionaryVar
  3
ObjectDBX Classes
 90
        0
280
     0
281
     0
  0
CLASS
  1
AM_DRAWING_MGR
  2
AcDmDwgMgr
  3
AcMechDwgViewMgmt
 90
        0
280
     0
281
     0
  0
CLASS
  1
AM_DWG_DOCUMENT
  2
AcDmDwgDocument
  3
AcMechDwgViewMgmt
 90
        0
280
     0
281
     0
  0
CLASS
  1
AM_DWG_SHEET
  2
AcDmSheet
  3
AcMechDwgViewMgmt
 90
        0
280
     0
281
     0
  0
CLASS
  1
AM_VIEWDIMPARMAP
  2
AcDmViewDimParMap
  3
AcMechDwgViewMgmt
 90
        0
280
     0
281
     0
  0
CLASS
  1
AM_DWGMGR_NAME
  2
AcDmDwgMgrName
  3
AcMechDwgViewMgmt
 90
        0
280
     0
281
     0
  0
CLASS
  1
AMDTMENUSTATEMGR
  2
AmdtMenuStateMgr
  3
McadcomServices
 90
        0
280
     0
281
     0
  0
CLASS
  1
AMDTMCOMMENUSTATE
  2
AmdtMcomMenuState
  3
McadcomServices
 90
        0
280
     0
281
     0
  0
CLASS
  1
MAPIAMMOUDLE
  2
MApiAmModule
  3
MApiAmServices
 90
        0
280
     0
281
     0
  0
CLASS
  1
AMDTADMENUSTATE
  2
AmdtAdMenuState
  3
DesignerServices
 90
        0
280
     0
281
     0
  0
CLASS
  1
ADAPPL
  2
AcAdAppl
  3
DesignerServices
 90
        0
280
     0
281
     0
  0
CLASS
  1
DEPMGR
  2
AcAdDepMgr
  3
DesignerServices
 90
        0
280
     0
281
     0
  0
CLASS
  1
PARAMMGR
  2
AcAdParamMgr
  3
DesignerServices
 90
        0
280
     0
281
     0
  0
CLASS
  1
PARAMSCOPE
  2
AcAdParamScope
  3
DesignerServices
 90
        0
280
     0
281
     0
  0
CLASS
  1
NAMEDAPPL
  2
AcAdNamedAppl
  3
DesignerServices
 90
        0
280
     0
281
     0
  0
CLASS
  1
AMDTDMMENUSTATE
  2
AmdtDmMenuState
  3
AcMechDwgViewMgmt
 90
        0
280
     0
281
     0
  0
CLASS
  1
AMDTAMMENUSTATE
  2
AmdtAmMenuState
  3
DesignerAssemblies
 90
        0
280
     0
281
     0
  0
CLASS
  1
ACAMPROJECT
  2
AcAmProject
  3
DesignerAssemblies
 90
        0
280
     0
281
     0
  0
CLASS
  1
ACAMGRCOMPDEF
  2
AcAmGrCompDef
  3
DesignerAssemblies
 90
        0
280
     0
281
     0
  0
CLASS
  1
ACCMCONTEXT
  2
AcCmContext
  3
DesignerAssemblies
 90
        0
280
     0
281
     0
  0
CLASS
  1
ACAMCOMPDEF
  2
AcAmCompDef
  3
DesignerAssemblies
 90
        0
280
     0
281
     0
  0
CLASS
  1
ACAMCOMPDEFMGR
  2
AcAmCompDefMgr
  3
DesignerAssemblies
 90
        0
280
     0
281
     0
  0
CLASS
  1
AMCONTEXTMGR
  2
AcAmContextMgr
  3
DesignerAssemblies
 90
        0
280
     0
281
     0
  0
CLASS
  1
ACAMCONTEXTMODELER
  2
AcAmContextModeler
  3
DesignerAssemblies
 90
        0
280
     0
281
     0
  0
CLASS
  1
ACMTHREADLINESTANDARDISO
  2
AmdtThreadLineStdISO
  3
"Amdt_StdImp|Product Description: AutoCAD Mechanical 2004 DX|Company: Autodesk"
 90
        0
280
     0
281
     0
  0
CLASS
  1
CATALOGSTATE
  2
AcAmCatalogState
  3
DesignerAssemblies
 90
        0
280
     0
281
     0
  0
CLASS
  1
ACAMGRCOMPDEFSET
  2
AcAmGrCompDefSet
  3
DesignerAssemblies
 90
        0
280
     0
281
     0
  0
CLASS
  1
AMDTBROWSERDBTAB
  2
AmdtBrowserDbTab
  3
McadcomServices
 90
        0
280
     0
281
     0
  0
CLASS
  1
CBROWSERAPPOBJECT
  2
CBrowserAppObject
  3
McadcomServices
 90
        0
280
     0
281
     0
  0
CLASS
  1
DM_PLACEHOLDER
  2
AcDmSelsetPlaceholder
  3
AcMechDwgViewMgmt
 90
        0
280
     0
281
     0
  0
CLASS
  1
TABLESTYLE
  2
AcDbTableStyle
  3
ObjectDBX Classes
 90
     2047
280
     0
281
     0
  0
CLASS
  1
VAACXREFPANELOBJECT
  2
VaAcXREFPanelObject
  3
VAAC_ADDIN
 90
    32768
280
     0
281
     0
  0
CLASS
  1
VAACIMAGEINVENTORY
  2
VaAcImageInventory
  3
VAAC_ADDIN
 90
    32768
280
     0
281
     0
  0
CLASS
  1
AMDTNOTETEMPLATEDB
  2
AmdtNoteTemplateDB
  3
AMDT_STDIMP_MODULE_NAME
 90
        0
280
     0
281
     0
  0
CLASS
  1
ACAMGFILTERDAT
  2
AcAmgFilterDat
  3
"AcadM|Product Description: AutoCAD Mechanical 2000|Company: Autodesk"
 90
        0
280
     0
281
     0
  0
CLASS
  1
ACMBOM
  2
AcmBom
  3
"AcmSymBB|Product Description: AutoCAD Mechanical 2004 DX|Company: Autodesk"
 90
    32768
280
     0
281
     0
  0
CLASS
  1
AMDTFORMULAUPDATEDISPATCHER
  2
AmdtFormulaUpdateDispatcher
  3
AcMeServices
 90
    32768
280
     0
281
     0
  0
CLASS
  1
DIMASSOC
  2
AcDbDimAssoc
  3
"AcDbDimAssoc|Product Desc:     AcDim ARX App For Dimension|Company:          Autodesk, Inc.|WEB Address:      www.autodesk.com"
 90
        0
280
     0
281
     0
  0
CLASS
  1
SORTENTSTABLE
  2
AcDbSortentsTable
  3
ObjectDBX Classes
 90
        0
280
     0
281
     0
  0
CLASS
  1
ACRFATTGENMGR
  2
AcRfAttGeneralMgr
  3
AcAttribServices
 90
        0
280
     0
281
     0
  0
ENDSEC
  0
SECTION
  2
TABLES
  0
TABLE
  2
VPORT
  5
8
330
0
100
AcDbSymbolTable
 70
     2
  0
VPORT
  5
65AE
330
8
100
AcDbSymbolTableRecord
100
AcDbViewportTableRecord
  2
*Active
 70
     0
 10
0.0
 20
0.0
 11
1.0
 21
1.0
 12
1011.876932794724
 22
608.5276994178173
 13
0.0
 23
0.0
 14
2.5
 24
2.5
 15
10.0
 25
10.0
 16
0.0
 26
0.0
 36
1.0
 17
0.0
 27
0.0
 37
0.0
 40
331.9275513424293
 41
1.577075098814229
 42
50.0
 43
0.0
 44
0.0
 50
0.0
 51
0.0
 71
     0
 72
   100
 73
     1
 74
     3
 75
     0
 76
     1
 77
     0
 78
     0
281
     0
 65
     1
110
0.0
120
0.0
130
0.0
111
1.0
121
0.0
131
0.0
112
0.0
122
1.0
132
0.0
 79
     0
146
0.0
  0
ENDTAB
  0
TABLE
  2
LTYPE
  5
5
330
0
100
AcDbSymbolTable
 70
    16
  0
LTYPE
  5
14
330
5
100
AcDbSymbolTableRecord
100
AcDbLinetypeTableRecord
  2
ByBlock
 70
     0
  3

 72
    65
 73
     0
 40
0.0
  0
LTYPE
  5
15
330
5
100
AcDbSymbolTableRecord
100
AcDbLinetypeTableRecord
  2
ByLayer
 70
     0
  3

 72
    65
 73
     0
 40
0.0
  0
LTYPE
  5
16
330
5
100
AcDbSymbolTableRecord
100
AcDbLinetypeTableRecord
  2
Continuous
 70
     0
  3
Solid line
 72
    65
 73
     0
 40
0.0
  0
LTYPE
  5
64
330
5
100
AcDbSymbolTableRecord
100
AcDbLinetypeTableRecord
  2
AM_ISO02W050
 70
     0
  3
__ __ __ __ __ __ __ __ __ __ __ __ __ __ __
 72
    65
 73
     2
 40
7.5
 49
6.0
 74
     0
 49
-1.5
 74
     0
  0
LTYPE
  5
65
330
5
100
AcDbSymbolTableRecord
100
AcDbLinetypeTableRecord
  2
AM_ISO08W050
 70
     0
  3
____ . ____ . ____ . ____ . ____ . ____ . ____
 72
    65
 73
     4
 40
18.0
 49
12.0
 74
     0
 49
-1.5
 74
     0
 49
3.0
 74
     0
 49
-1.5
 74
     0
  0
LTYPE
  5
66
330
5
100
AcDbSymbolTableRecord
100
AcDbLinetypeTableRecord
  2
AM_ISO09W050
 70
     0
  3
_____ . . _____ . . _____ . . ____ .. ____
 72
    65
 73
     6
 40
22.5
 49
12.0
 74
     0
 49
-1.5
 74
     0
 49
3.0
 74
     0
 49
-1.5
 74
     0
 49
3.0
 74
     0
 49
-1.5
 74
     0
  0
LTYPE
  5
67
330
5
100
AcDbSymbolTableRecord
100
AcDbLinetypeTableRecord
  2
Amconstr
 70
     0
  3
_______________________
 72
    65
 73
     2
 40
9999.0
 49
9999.0
 74
     0
 49
0.0
 74
     0
  0
LTYPE
  5
68
330
5
100
AcDbSymbolTableRecord
100
AcDbLinetypeTableRecord
  2
AM_ISO08W050x2
 70
     0
  3
__ . __ . __ . __ . __ . __
 72
    65
 73
     4
 40
9.0
 49
6.0
 74
     0
 49
-0.75
 74
     0
 49
1.5
 74
     0
 49
-0.75
 74
     0
  0
LTYPE
  5
69
330
5
100
AcDbSymbolTableRecord
100
AcDbLinetypeTableRecord
  2
AM_ISO02W050x2
 70
     0
  3
 _ _ _ _ _ _ _ _ _ _ _ _
 72
    65
 73
     2
 40
3.75
 49
3.0
 74
     0
 49
-0.75
 74
     0
  0
LTYPE
  5
6C
330
5
100
AcDbSymbolTableRecord
100
AcDbLinetypeTableRecord
  2
Amzigzag
 70
     0
  3
/\/-/\/-/\/-/\/-/\/-/\/
 72
    65
 73
     2
 40
11.0001
 49
0.0001
 74
     4
 75
   136
340
22C
 46
0.04
 50
0.0
 44
0.0
 45
0.0
 49
-11.0
 74
     0
  0
LTYPE
  5
7A
330
5
100
AcDbSymbolTableRecord
100
AcDbLinetypeTableRecord
  2
ACISOWELD
 70
     0
  3
_ _ _ _ _
 72
    65
 73
     2
 40
2.0
 49
2.0
 74
     0
 49
-1.0
 74
     0
  0
LTYPE
  5
7B
330
5
100
AcDbSymbolTableRecord
100
AcDbLinetypeTableRecord
  2
ACISOTGB
 70
     0
  3
__ . . __ . .
 72
    65
 73
     6
 40
9.0
 49
4.0
 74
     0
 49
-1.0
 74
     0
 49
1.0
 74
     0
 49
-1.0
 74
     0
 49
1.0
 74
     0
 49
-1.0
 74
     0
  0
LTYPE
  5
7C
330
5
100
AcDbSymbolTableRecord
100
AcDbLinetypeTableRecord
  2
ACISOTGL
 70
     0
  3
_ _ _ _ _
 72
    65
 73
     2
 40
3.0
 49
2.0
 74
     0
 49
-1.0
 74
     0
  0
LTYPE
  5
7E
330
5
100
AcDbSymbolTableRecord
100
AcDbLinetypeTableRecord
  2
CENTER
 70
     0
  3
__ . __
 72
    65
 73
     4
 40
7.0
 49
4.0
 74
     0
 49
-1.0
 74
     0
 49
1.0
 74
     0
 49
-1.0
 74
     0
  0
LTYPE
  5
D8
330
5
100
AcDbSymbolTableRecord
100
AcDbLinetypeTableRecord
  2
HIDDEN
 70
     0
  3
Hidden __ __ __ __ __ __ __ __ __ __ __ __ __ _
 72
    65
 73
     2
 40
9.524999999999998
 49
6.349999999999999
 74
     0
 49
-3.174999999999999
 74
     0
  0
LTYPE
  5
D9
330
5
100
AcDbSymbolTableRecord
100
AcDbLinetypeTableRecord
  2
PHANTOM2
 70
     0
  3
Phantom (.5x) ___ _ _ ___ _ _ ___ _ _ ___ _ _
 72
    65
 73
     6
 40
31.75
 49
15.875
 74
     0
 49
-3.174999999999999
 74
     0
 49
3.174999999999999
 74
     0
 49
-3.174999999999999
 74
     0
 49
3.174999999999999
 74
     0
 49
-3.174999999999999
 74
     0
  0
LTYPE
  5
3BD
330
5
100
AcDbSymbolTableRecord
100
AcDbLinetypeTableRecord
  2
CENTER2
 70
     0
  3
___ _ ___ _ ___ _ ___ _ ___ _ ___ _ ___ _ ___ _
 72
    65
 73
     4
 40
1.125
 49
0.75
 74
     0
 49
-0.125
 74
     0
 49
0.125
 74
     0
 49
-0.125
 74
     0
  0
ENDTAB
  0
TABLE
  2
LAYER
  5
2
102
{ACAD_XDICTIONARY
360
2F5
102
}
330
0
100
AcDbSymbolTable
 70
    13
  0
LAYER
  5
10
330
2
100
AcDbSymbolTableRecord
100
AcDbLayerTableRecord
  2
0
 70
     0
 62
     7
  6
Continuous
370
    -3
390
F
  0
LAYER
  5
3BE
330
2
100
AcDbSymbolTableRecord
100
AcDbLayerTableRecord
  2
SPEC
 70
     0
 62
     1
  6
Continuous
370
    -3
390
F
  0
LAYER
  5
3BF
330
2
100
AcDbSymbolTableRecord
100
AcDbLayerTableRecord
  2
CENTER
 70
     0
 62
   252
  6
CENTER2
370
    -3
390
F
  0
LAYER
  5
3C0
330
2
100
AcDbSymbolTableRecord
100
AcDbLayerTableRecord
  2
DATA
 70
     0
 62
     6
  6
Continuous
370
    -3
390
F
  0
LAYER
  5
3C1
330
2
100
AcDbSymbolTableRecord
100
AcDbLayerTableRecord
  2
DIM
 70
     0
 62
     3
  6
Continuous
370
    -3
390
F
  0
LAYER
  5
3C2
330
2
100
AcDbSymbolTableRecord
100
AcDbLayerTableRecord
  2
Defpoints
 70
     0
 62
     7
  6
Continuous
290
     0
370
    -3
390
F
  0
LAYER
  5
3C3
330
2
100
AcDbSymbolTableRecord
100
AcDbLayerTableRecord
  2
FRAME
 70
     0
 62
     1
  6
Continuous
370
    -3
390
F
  0
LAYER
  5
3C4
330
2
100
AcDbSymbolTableRecord
100
AcDbLayerTableRecord
  2
CONNECTOR
 70
     0
 62
     2
  6
Continuous
370
    -3
390
F
  0
LAYER
  5
3C5
330
2
100
AcDbSymbolTableRecord
100
AcDbLayerTableRecord
  2
SCHRIFT
 70
     0
 62
     1
  6
Continuous
370
    -3
390
F
  0
LAYER
  5
3E62
330
2
100
AcDbSymbolTableRecord
100
AcDbLayerTableRecord
  2
AM_VIEWS
 70
     0
 62
     1
  6
Continuous
370
    25
390
F
1001
AcAecLayerStandard
1000

1000

  0
LAYER
  5
41F0
330
2
100
AcDbSymbolTableRecord
100
AcDbLayerTableRecord
  2
AM_5
 70
     0
 62
     3
  6
Continuous
370
    25
390
F
1001
AcAecLayerStandard
1000

1000

  0
LAYER
  5
5549
330
2
100
AcDbSymbolTableRecord
100
AcDbLayerTableRecord
  2
AM_0
 70
     0
 62
     7
  6
Continuous
370
    50
390
F
1001
AcAecLayerStandard
1000

1000

  0
LAYER
  5
554B
330
2
100
AcDbSymbolTableRecord
100
AcDbLayerTableRecord
  2
AM_3
 70
     0
 62
     6
  6
AM_ISO02W050
370
    25
390
F
1001
AcAecLayerStandard
1000

1000

  0
ENDTAB
  0
TABLE
  2
STYLE
  5
3
330
0
100
AcDbSymbolTable
 70
    11
  0
STYLE
  5
11
330
3
100
AcDbSymbolTableRecord
100
AcDbTextStyleTableRecord
  2
STANDARD
 70
     0
 40
0.0
 41
1.0
 50
0.0
 71
     0
 42
2.399999999999999
  3
ARIAL.TTF
  4

1001
ACAD
1000
Arial
1071
       34
  0
STYLE
  5
6B
330
3
100
AcDbSymbolTableRecord
100
AcDbTextStyleTableRecord
  2

 70
     1
 40
0.0
 41
1.0
 50
0.0
 71
     0
 42
2.5
  3
ltypeshp.shx
  4

  0
STYLE
  5
6D
330
3
100
AcDbSymbolTableRecord
100
AcDbTextStyleTableRecord
  2
ACISOTS
 70
     0
 40
1.0
 41
1.0
 50
0.0
 71
     0
 42
2.5
  3
isocp.shx
  4
bigfont.shx
  0
STYLE
  5
79
330
3
100
AcDbSymbolTableRecord
100
AcDbTextStyleTableRecord
  2
ACISOGDT
 70
     0
 40
0.0
 41
1.0
 50
0.0
 71
     0
 42
2.5
  3
AMGDT
  4
bigfont.shx
  0
STYLE
  5
1ED
330
3
100
AcDbSymbolTableRecord
100
AcDbTextStyleTableRecord
  2
USER1
 70
     0
 40
0.0
 41
1.0
 50
0.0
 71
     0
 42
2.5
  3
TXT.SHX
  4
bigfont.shx
  0
STYLE
  5
1EE
330
3
100
AcDbSymbolTableRecord
100
AcDbTextStyleTableRecord
  2
USER2
 70
     0
 40
0.0
 41
1.0
 50
0.0
 71
     0
 42
2.5
  3
SIMPLEX.SHX
  4
bigfont.shx
  0
STYLE
  5
1EF
330
3
100
AcDbSymbolTableRecord
100
AcDbTextStyleTableRecord
  2
USER3
 70
     0
 40
0.0
 41
1.0
 50
0.0
 71
     0
 42
2.5
  3
ITALIC.SHX
  4
bigfont.shx
  0
STYLE
  5
22C
330
3
100
AcDbSymbolTableRecord
100
AcDbTextStyleTableRecord
  2

 70
     1
 40
0.0
 41
1.0
 50
0.0
 71
     0
 42
2.5
  3
genltshp.shx
  4

  0
STYLE
  5
3C6
330
3
100
AcDbSymbolTableRecord
100
AcDbTextStyleTableRecord
  2
ITALICT
 70
     0
 40
2.0
 41
1.0
 50
0.0
 71
     0
 42
2.0
  3
ITALICT.shx
  4

  0
STYLE
  5
3C7
330
3
100
AcDbSymbolTableRecord
100
AcDbTextStyleTableRecord
  2
ROMANS
 70
     0
 40
0.0
 41
0.8
 50
0.0
 71
     0
 42
3.0
  3
romans.shx
  4

  0
ENDTAB
  0
TABLE
  2
VIEW
  5
6
330
0
100
AcDbSymbolTable
 70
     3
  0
ENDTAB
  0
TABLE
  2
UCS
  5
7
330
0
100
AcDbSymbolTable
 70
     0
  0
ENDTAB
  0
TABLE
  2
APPID
  5
9
330
0
100
AcDbSymbolTable
 70
    27
  0
APPID
  5
12
330
9
100
AcDbSymbolTableRecord
100
AcDbRegAppTableRecord
  2
ACAD
 70
     0
  0
APPID
  5
46
330
9
100
AcDbSymbolTableRecord
100
AcDbRegAppTableRecord
  2
MCAD_NO_VIS
 70
     0
  0
APPID
  5
47
330
9
100
AcDbSymbolTableRecord
100
AcDbRegAppTableRecord
  2
ACAD_TEMP_GRAPHIC
 70
     0
  0
APPID
  5
58
330
9
100
AcDbSymbolTableRecord
100
AcDbRegAppTableRecord
  2
ACATTRIBSERVICES
 70
     0
  0
APPID
  5
EE
330
9
100
AcDbSymbolTableRecord
100
AcDbRegAppTableRecord
  2
AD_DRAW
 70
     0
  0
APPID
  5
10C
330
9
100
AcDbSymbolTableRecord
100
AcDbRegAppTableRecord
  2
DESIGNERASSEMBLIES
 70
     0
  0
APPID
  5
111
330
9
100
AcDbSymbolTableRecord
100
AcDbRegAppTableRecord
  2
ACADM_DIM_EDIT
 70
     0
  0
APPID
  5
112
330
9
100
AcDbSymbolTableRecord
100
AcDbRegAppTableRecord
  2
AMDT_DM_ADJ
 70
     0
  0
APPID
  5
1A3
330
9
100
AcDbSymbolTableRecord
100
AcDbRegAppTableRecord
  2
ACAD_DSTYLE_DIMARC_LENGTH_SYMBOL
 70
     0
  0
APPID
  5
1A4
330
9
100
AcDbSymbolTableRecord
100
AcDbRegAppTableRecord
  2
ACAD_DSTYLE_DIMJOGGED_JOGANGLE_SYMBOL
 70
     0
  0
APPID
  5
2D9
330
9
100
AcDbSymbolTableRecord
100
AcDbRegAppTableRecord
  2
ACAD_PSEXT
 70
     0
  0
APPID
  5
9AB
330
9
100
AcDbSymbolTableRecord
100
AcDbRegAppTableRecord
  2
ACAD_EXEMPT_FROM_CAD_STANDARDS
 70
     0
  0
APPID
  5
218E
330
9
100
AcDbSymbolTableRecord
100
AcDbRegAppTableRecord
  2
ACAD_DSTYLE_DIMTEXT_FILL
 70
     0
  0
APPID
  5
218F
330
9
100
AcDbSymbolTableRecord
100
AcDbRegAppTableRecord
  2
ACAD_DSTYLE_DIMEXT_LENGTH
 70
     0
  0
APPID
  5
2190
330
9
100
AcDbSymbolTableRecord
100
AcDbRegAppTableRecord
  2
ACAD_DSTYLE_DIMEXT_ENABLED
 70
     0
  0
APPID
  5
2191
330
9
100
AcDbSymbolTableRecord
100
AcDbRegAppTableRecord
  2
ACAD_DSTYLE_DIM_LINETYPE
 70
     0
  0
APPID
  5
2192
330
9
100
AcDbSymbolTableRecord
100
AcDbRegAppTableRecord
  2
ACAD_DSTYLE_DIM_EXT1_LINETYPE
 70
     0
  0
APPID
  5
2193
330
9
100
AcDbSymbolTableRecord
100
AcDbRegAppTableRecord
  2
ACAD_DSTYLE_DIM_EXT2_LINETYPE
 70
     0
  0
APPID
  5
3E63
330
9
100
AcDbSymbolTableRecord
100
AcDbRegAppTableRecord
  2
AcAecLayerStandard
 70
     0
  0
APPID
  5
3E64
330
9
100
AcDbSymbolTableRecord
100
AcDbRegAppTableRecord
  2
GENIUS_GENSCREG_15
 70
     0
  0
APPID
  5
3E65
330
9
100
AcDbSymbolTableRecord
100
AcDbRegAppTableRecord
  2
GENIUS_GENOBJ-N-SDF_13
 70
     0
  0
APPID
  5
3E66
330
9
100
AcDbSymbolTableRecord
100
AcDbRegAppTableRecord
  2
GENIUS_GENODEF_13
 70
     0
  0
APPID
  5
4E53
330
9
100
AcDbSymbolTableRecord
100
AcDbRegAppTableRecord
  2
GENIUS_GENREC_14
 70
     0
  0
APPID
  5
4E54
330
9
100
AcDbSymbolTableRecord
100
AcDbRegAppTableRecord
  2
GENIUS_GENOBJ-N-REC_13
 70
     0
  0
APPID
  5
4EB8
330
9
100
AcDbSymbolTableRecord
100
AcDbRegAppTableRecord
  2
GENIUS_GENDTOL_13
 70
     0
  0
APPID
  5
53A4
330
9
100
AcDbSymbolTableRecord
100
AcDbRegAppTableRecord
  2
GENIUS_GENFIL_13
 70
     0
  0
APPID
  5
53A5
330
9
100
AcDbSymbolTableRecord
100
AcDbRegAppTableRecord
  2
GENIUS_GENOBJ-N-CHA_13
 70
     0
  0
ENDTAB
  0
TABLE
  2
DIMSTYLE
  5
A
330
0
100
AcDbSymbolTable
 70
    12
100
AcDbDimStyleTable
 71
     4
340
3C8
340
8B
340
86
340
81
  0
DIMSTYLE
105
81
330
A
100
AcDbSymbolTableRecord
100
AcDbDimStyleTableRecord
  2
AM_ISO
 70
     0
  4
"
 41
2.5
 42
1.0
 43
10.0
 44
1.0
 47
0.1
 48
0.1
 73
     0
 74
     0
 77
     1
 78
     8
 79
     2
140
3.5
141
0.0
143
0.0393701
146
0.71
147
1.5
172
     1
176
   256
177
   256
178
     2
271
     2
272
     3
274
     4
283
     0
284
     8
340
11
371
    -1
372
    -1
1001
ACAD_DSTYLE_DIMARC_LENGTH_SYMBOL
1070
   379
1070
     1
1001
ACAD_DSTYLE_DIMJOGGED_JOGANGLE_SYMBOL
1070
   384
1040
0.7853981633974483
  0
DIMSTYLE
105
82
330
A
100
AcDbSymbolTableRecord
100
AcDbDimStyleTableRecord
  2
AM_ISO$3
 70
     0
  4
"
 41
2.5
 42
1.0
 43
10.0
 44
1.0
 47
0.1
 48
0.1
 73
     0
 77
     1
 78
     8
 79
     2
140
3.5
141
0.0
143
0.0393701
146
0.71
147
1.5
176
   256
177
   256
178
     2
271
     2
272
     3
274
     4
283
     0
284
     8
288
     1
289
     0
340
11
371
    -1
372
    -1
1001
ACAD_DSTYLE_DIMARC_LENGTH_SYMBOL
1070
   379
1070
     1
1001
ACAD_DSTYLE_DIMJOGGED_JOGANGLE_SYMBOL
1070
   384
1040
0.7853981633974483
  0
DIMSTYLE
105
83
330
A
100
AcDbSymbolTableRecord
100
AcDbDimStyleTableRecord
  2
AM_ISO$4
 70
     0
  4
"
 41
2.5
 42
1.0
 43
10.0
 44
1.0
 47
0.1
 48
0.1
 73
     0
 77
     1
 78
     8
 79
     2
140
3.5
141
0.0
143
0.0393701
146
0.71
147
1.5
176
   256
177
   256
178
     2
271
     2
272
     3
274
     4
283
     0
284
     8
288
     1
289
     0
340
11
371
    -1
372
    -1
1001
ACAD_DSTYLE_DIMARC_LENGTH_SYMBOL
1070
   379
1070
     1
1001
ACAD_DSTYLE_DIMJOGGED_JOGANGLE_SYMBOL
1070
   384
1040
0.7853981633974483
  0
DIMSTYLE
105
84
330
A
100
AcDbSymbolTableRecord
100
AcDbDimStyleTableRecord
  2
AM_ISO$6
 70
     0
  4
"
 41
2.5
 42
1.0
 43
10.0
 44
1.0
 47
0.1
 48
0.1
 73
     0
 74
     0
 78
     8
 79
     2
140
3.5
141
0.0
143
0.0393701
146
0.71
147
1.5
172
     1
176
   256
177
   256
178
     2
271
     2
272
     3
274
     4
283
     0
284
     8
340
11
371
    -1
372
    -1
1001
ACAD_DSTYLE_DIMARC_LENGTH_SYMBOL
1070
   379
1070
     1
1001
ACAD_DSTYLE_DIMJOGGED_JOGANGLE_SYMBOL
1070
   384
1040
0.7853981633974483
  0
DIMSTYLE
105
85
330
A
100
AcDbSymbolTableRecord
100
AcDbDimStyleTableRecord
  2
AM_ISO$7
 70
     0
  4
"
 41
2.5
 42
1.0
 43
10.0
 44
1.0
 47
0.1
 48
0.1
 73
     0
 74
     0
 77
     1
 78
     8
 79
     2
140
5.0
141
0.0
143
0.0393701
146
0.71
147
1.5
172
     1
176
   256
177
   256
178
     2
271
     2
272
     3
274
     4
283
     0
284
     8
340
11
371
    -1
372
    -1
1001
ACAD_DSTYLE_DIMARC_LENGTH_SYMBOL
1070
   379
1070
     1
1001
ACAD_DSTYLE_DIMJOGGED_JOGANGLE_SYMBOL
1070
   384
1040
0.7853981633974483
  0
DIMSTYLE
105
86
330
A
100
AcDbSymbolTableRecord
100
AcDbDimStyleTableRecord
  2
AM_ISO$SF
 70
     0
  4
"
 41
2.5
 42
1.0
 43
10.0
 44
1.0
 47
0.1
 48
0.1
 73
     0
 74
     0
 75
     1
 76
     1
 77
     1
 78
     8
 79
     2
140
3.5
141
0.0
143
0.0393701
146
0.71
147
1.5
172
     1
176
   256
177
   256
178
     2
271
     2
272
     3
274
     4
283
     0
284
     8
340
11
371
    -1
372
    -1
1001
ACAD_DSTYLE_DIMARC_LENGTH_SYMBOL
1070
   379
1070
     1
1001
ACAD_DSTYLE_DIMJOGGED_JOGANGLE_SYMBOL
1070
   384
1040
0.7853981633974483
  0
DIMSTYLE
105
8B
330
A
100
AcDbSymbolTableRecord
100
AcDbDimStyleTableRecord
  2
AM_ISO$SH
 70
     0
  4
"
 41
2.5
 42
1.0
 43
10.0
 44
1.0
 47
0.1
 48
0.1
 73
     0
 74
     0
 75
     1
 76
     1
 77
     1
 78
     8
 79
     2
140
3.5
141
0.0
143
0.0393701
144
2.0
146
0.71
147
1.5
172
     1
173
     1
176
   256
177
   256
178
     2
271
     2
272
     3
274
     4
283
     0
284
     8
340
11
343
87
371
    -1
372
    -1
1001
ACAD_DSTYLE_DIMARC_LENGTH_SYMBOL
1070
   379
1070
     1
1001
ACAD_DSTYLE_DIMJOGGED_JOGANGLE_SYMBOL
1070
   384
1040
0.7853981633974483
  0
DIMSTYLE
105
3C8
102
{ACAD_REACTORS
330
19C9
330
19F4
330
2E07
330
2E09
330
2E0A
330
2E5C
330
6339
330
6350
330
6353
330
6354
330
6368
330
6384
330
6385
330
6386
102
}
330
A
100
AcDbSymbolTableRecord
100
AcDbDimStyleTableRecord
  2
STANDARD
 70
     0
 41
3.0
 42
1.0
 43
1.0
 44
1.0
 48
0.000000001
 73
     0
 74
     0
 77
     1
 78
     8
140
3.0
141
-0.05
145
5.0
146
0.8
147
1.0
172
     1
176
     3
177
     3
178
     6
271
     2
272
     2
284
     8
340
11
371
    -1
1001
ACAD_DSTYLE_DIMEXT_LENGTH
1070
   378
1040
1.0
1001
ACAD_DSTYLE_DIMEXT_ENABLED
1070
   383
1070
     0
1001
ACAD_DSTYLE_DIMARC_LENGTH_SYMBOL
1070
   379
1070
     0
1001
ACAD_DSTYLE_DIMJOGGED_JOGANGLE_SYMBOL
1070
   384
1040
1.570796326794896
  0
DIMSTYLE
105
4DBB
102
{ACAD_REACTORS
330
19C9
330
59F5
330
63AB
330
63AE
102
}
330
A
100
AcDbSymbolTableRecord
100
AcDbDimStyleTableRecord
  2
STANDARD$0
 70
     0
 41
3.0
 42
1.0
 43
1.0
 44
1.0
 48
0.000000001
 73
     0
 74
     0
 77
     1
 78
     8
140
3.0
141
-0.05
145
5.0
146
0.8
147
1.0
172
     1
176
     3
177
     3
178
     6
271
     2
272
     2
284
     8
340
11
371
    -1
1001
ACAD_DSTYLE_DIMEXT_LENGTH
1070
   378
1040
1.0
1001
ACAD_DSTYLE_DIMEXT_ENABLED
1070
   383
1070
     0
1001
ACAD_DSTYLE_DIMARC_LENGTH_SYMBOL
1070
   379
1070
     0
1001
ACAD_DSTYLE_DIMJOGGED_JOGANGLE_SYMBOL
1070
   384
1040
1.570796326794896
  0
DIMSTYLE
105
5CA2
330
A
100
AcDbSymbolTableRecord
100
AcDbDimStyleTableRecord
  2
STANDARD$2
 70
     0
 41
3.0
 42
1.0
 43
1.0
 44
1.0
 48
0.000000001
 73
     0
 74
     0
 77
     1
 78
     8
140
3.0
141
-0.05
145
5.0
146
0.8
147
1.0
172
     1
176
     3
177
     3
178
     6
271
     2
272
     2
284
     8
340
11
371
    -1
1001
ACAD_DSTYLE_DIMEXT_LENGTH
1070
   378
1040
1.0
1001
ACAD_DSTYLE_DIMEXT_ENABLED
1070
   383
1070
     0
1001
ACAD_DSTYLE_DIMARC_LENGTH_SYMBOL
1070
   379
1070
     0
1001
ACAD_DSTYLE_DIMJOGGED_JOGANGLE_SYMBOL
1070
   384
1040
1.570796326794896
  0
ENDTAB
  0
TABLE
  2
BLOCK_RECORD
  5
1
330
0
100
AcDbSymbolTable
 70
    20
  0
BLOCK_RECORD
  5
1F
102
{ACAD_XDICTIONARY
360
8F
102
}
330
1
100
AcDbSymbolTableRecord
100
AcDbBlockTableRecord
  2
*Model_Space
340
22
  0
BLOCK_RECORD
  5
1B
102
{ACAD_XDICTIONARY
360
2D9F
102
}
330
1
100
AcDbSymbolTableRecord
100
AcDbBlockTableRecord
  2
*Paper_Space
340
1E
  0
BLOCK_RECORD
  5
87
330
1
100
AcDbSymbolTableRecord
100
AcDbBlockTableRecord
  2
GENAXEH
340
0
  0
BLOCK_RECORD
  5
2FB
330
1
100
AcDbSymbolTableRecord
100
AcDbBlockTableRecord
  2
_DatumFilled
340
0
  0
BLOCK_RECORD
  5
2FF
330
1
100
AcDbSymbolTableRecord
100
AcDbBlockTableRecord
  2
_None
340
0
  0
BLOCK_RECORD
  5
125D
102
{ACAD_XDICTIONARY
360
128A
102
}
330
1
100
AcDbSymbolTableRecord
100
AcDbBlockTableRecord
  2
A$C75C560CA
340
0
1001
ACAD
1000
DesignCenter Data
1002
{
1070
     1
1070
     4
1002
}
  0
BLOCK_RECORD
  5
1A4C
330
1
100
AcDbSymbolTableRecord
100
AcDbBlockTableRecord
  2
*D5
340
0
  0
BLOCK_RECORD
  5
2CC0
102
{ACAD_XDICTIONARY
360
2CC2
102
}
330
1
100
AcDbSymbolTableRecord
100
AcDbBlockTableRecord
  2
A$C718C4946
340
0
1001
ACAD
1000
DesignCenter Data
1002
{
1070
     1
1070
     4
1002
}
  0
BLOCK_RECORD
  5
59F6
330
1
100
AcDbSymbolTableRecord
100
AcDbBlockTableRecord
  2
*D7
340
0
  0
BLOCK_RECORD
  5
63EC
330
1
100
AcDbSymbolTableRecord
100
AcDbBlockTableRecord
  2
*D8
340
0
  0
BLOCK_RECORD
  5
63F8
330
1
100
AcDbSymbolTableRecord
100
AcDbBlockTableRecord
  2
*D9
340
0
  0
BLOCK_RECORD
  5
6406
330
1
100
AcDbSymbolTableRecord
100
AcDbBlockTableRecord
  2
*D10
340
0
  0
BLOCK_RECORD
  5
6412
330
1
100
AcDbSymbolTableRecord
100
AcDbBlockTableRecord
  2
*D11
340
0
  0
BLOCK_RECORD
  5
641F
330
1
100
AcDbSymbolTableRecord
100
AcDbBlockTableRecord
  2
*D12
340
0
  0
BLOCK_RECORD
  5
642D
330
1
100
AcDbSymbolTableRecord
100
AcDbBlockTableRecord
  2
*D13
340
0
  0
BLOCK_RECORD
  5
6439
330
1
100
AcDbSymbolTableRecord
100
AcDbBlockTableRecord
  2
*D14
340
0
  0
BLOCK_RECORD
  5
6445
330
1
100
AcDbSymbolTableRecord
100
AcDbBlockTableRecord
  2
*D15
340
0
  0
BLOCK_RECORD
  5
6453
330
1
100
AcDbSymbolTableRecord
100
AcDbBlockTableRecord
  2
*D16
340
0
  0
BLOCK_RECORD
  5
64AE
330
1
100
AcDbSymbolTableRecord
100
AcDbBlockTableRecord
  2
*D17
340
0
  0
ENDTAB
  0
ENDSEC
  0
SECTION
  2
BLOCKS
  0
BLOCK
  5
20
330
1F
100
AcDbEntity
  8
0
100
AcDbBlockBegin
  2
*Model_Space
 70
     0
 10
0.0
 20
0.0
 30
0.0
  3
*Model_Space
  1

  0
ENDBLK
  5
21
330
1F
100
AcDbEntity
  8
0
100
AcDbBlockEnd
  0
BLOCK
  5
1C
330
1B
100
AcDbEntity
 67
     1
  8
0
100
AcDbBlockBegin
  2
*Paper_Space
 70
     0
 10
0.0
 20
0.0
 30
0.0
  3
*Paper_Space
  1

  0
ENDBLK
  5
1D
330
1B
100
AcDbEntity
 67
     1
  8
0
100
AcDbBlockEnd
  0
BLOCK
  5
89
330
87
100
AcDbEntity
  8
0
100
AcDbBlockBegin
  2
GENAXEH
 70
     0
 10
0.0
 20
0.0
 30
0.0
  3
GENAXEH
  1

  0
LINE
  5
88
330
87
100
AcDbEntity
  8
0
100
AcDbLine
 10
-1.0
 20
0.0
 30
0.0
 11
1.0
 21
0.0
 31
0.0
  0
ENDBLK
  5
8A
330
87
100
AcDbEntity
  8
0
100
AcDbBlockEnd
  0
BLOCK
  5
2FC
330
2FB
100
AcDbEntity
  8
0
100
AcDbBlockBegin
  2
_DatumFilled
 70
     0
 10
0.0
 20
0.0
 30
0.0
  3
_DatumFilled
  1

  0
SOLID
  5
2FD
330
2FB
100
AcDbEntity
  8
0
  6
ByBlock
 62
     0
100
AcDbTrace
 10
0.0
 20
0.5773502700000001
 30
0.0
 11
-1.0
 21
0.0
 31
0.0
 12
0.0
 22
-0.5773502700000001
 32
0.0
 13
0.0
 23
-0.5773502700000001
 33
0.0
  0
ENDBLK
  5
2FE
330
2FB
100
AcDbEntity
  8
0
100
AcDbBlockEnd
  0
BLOCK
  5
300
330
2FF
100
AcDbEntity
  8
0
100
AcDbBlockBegin
  2
_None
 70
     0
 10
0.0
 20
0.0
 30
0.0
  3
_None
  1

  0
ENDBLK
  5
301
330
2FF
100
AcDbEntity
  8
0
100
AcDbBlockEnd
  0
BLOCK
  5
128B
330
125D
100
AcDbEntity
  8
0
100
AcDbBlockBegin
  2
A$C75C560CA
 70
     0
 10
0.0
 20
0.0
 30
0.0
  3
A$C75C560CA
  1

  0
TEXT
  5
125E
330
125D
100
AcDbEntity
  8
FRAME
100
AcDbText
 10
198.0618690923416
 20
18.19796331725411
 30
0.0
 40
2.6
  1
M 1:1.5
 41
0.7
  7
ROMANS
100
AcDbText
  0
MTEXT
  5
125F
330
125D
100
AcDbEntity
  8
DIM
100
AcDbMText
 10
147.8052230115329
 20
14.75214036007798
 30
0.0
 40
2.0
 41
25.0
 71
     1
 72
     5
  1
X       %%p0.5\P1PL     %%p0.2\P2PL     %%p0.1\PANGLE   %%p30'
  7
ROMANS
 73
     1
 44
1.0
1001
ACAD
1000
MTEXTBEGIN
1070
    73
1070
     1
1070
    44
1040
1.0
1070
    74
1070
     0
1000
MTEXTEND
  0
LWPOLYLINE
  5
1260
330
125D
100
AcDbEntity
  8
SPEC
100
AcDbPolyline
 90
        2
 70
     0
 43
0.0
 10
46.10857599724545
 20
22.43272629327407
 10
107.7609609669623
 20
22.43272629327407
  0
LINE
  5
1261
330
125D
100
AcDbEntity
  8
SPEC
  6
HIDDEN
100
AcDbLine
 10
95.76650416238317
 20
4.962468073120362
 30
0.0
 11
130.435771777227
 21
4.962468073120362
 31
0.0
  0
TEXT
  5
1262
330
125D
100
AcDbEntity
  8
DATA
 62
     1
100
AcDbText
 10
93.21139064254088
 20
5.812552698566491
 30
0.0
 40
4.0
  1
(ST4018M0406-B)
 41
0.7
  7
ROMANS
100
AcDbText
  0
TEXT
  5
1263
330
125D
100
AcDbEntity
  8
DATA
 62
     1
100
AcDbText
 10
231.317878293991
 20
2.415962237127928
 30
0.0
 40
4.0
  1
ST4018M0406
 41
0.7
  7
ROMANS
100
AcDbText
  0
TEXT
  5
1264
330
125D
100
AcDbEntity
  8
DATA
 62
     1
100
AcDbText
 10
93.38807665210561
 20
11.87217307676974
 30
0.0
 40
4.0
  1
ST4018M0406-A
 41
0.7
  7
ROMANS
100
AcDbText
  0
LWPOLYLINE
  5
1265
330
125D
100
AcDbEntity
  8
SPEC
100
AcDbPolyline
 90
        2
 70
     0
 43
0.0
 10
0.0
 20
22.43272629327407
 10
46.20410858955392
 20
22.43272629327407
  0
LINE
  5
1266
330
125D
100
AcDbEntity
  8
DIM
100
AcDbLine
 10
146.5280168612521
 20
16.58038901312318
 30
0.0
 11
213.8442914438065
 21
16.58038901312318
 31
0.0
  0
LINE
  5
1267
330
125D
100
AcDbEntity
  8
DIM
100
AcDbLine
 10
228.8020370376457
 20
12.55466422304016
 30
0.0
 11
228.8020370376457
 21
0.466065179059342
 31
0.0
  0
LINE
  5
1268
330
125D
100
AcDbEntity
  8
DIM
100
AcDbLine
 10
195.7433482585834
 20
22.43272629327407
 30
0.0
 11
195.7433482585834
 21
0.0
 31
0.0
  0
LINE
  5
1269
330
125D
100
AcDbEntity
  8
DIM
100
AcDbLine
 10
178.9743605596215
 20
22.40187586043203
 30
0.0
 11
178.9743605596215
 21
6.730972725647461
 31
0.0
  0
LINE
  5
126A
330
125D
100
AcDbEntity
  8
DIM
100
AcDbLine
 10
167.6954380838244
 20
0.0
 30
0.0
 11
167.6954380838244
 21
22.32683486367228
 31
0.0
  0
LINE
  5
126B
330
125D
100
AcDbEntity
  8
DIM
100
AcDbLine
 10
167.9351755979376
 20
22.43272629327407
 30
0.0
 11
167.9351755979376
 21
0.0
 31
0.0
  0
LINE
  5
126C
330
125D
100
AcDbEntity
  8
DIM
100
AcDbLine
 10
213.8442921475325
 20
22.43272629327407
 30
0.0
 11
213.8442921475325
 21
0.0
 31
0.0
  0
LINE
  5
126D
330
125D
100
AcDbEntity
  8
DIM
100
AcDbLine
 10
74.01093817688343
 20
22.44942325395482
 30
0.0
 11
74.01093817688343
 21
0.0031114061869175
 31
0.0
  0
LINE
  5
126E
330
125D
100
AcDbEntity
  8
DIM
100
AcDbLine
 10
89.1300425376794
 20
22.44942325395482
 30
0.0
 11
89.1300425376794
 21
-0.0380746962764533
 31
0.0
  0
LINE
  5
126F
330
125D
100
AcDbEntity
  8
DIM
100
AcDbLine
 10
52.48454273927814
 20
22.43272629327407
 30
0.0
 11
52.48454273927814
 21
-0.0273489207340845
 31
0.0
  0
LINE
  5
1270
330
125D
100
AcDbEntity
  8
DIM
100
AcDbLine
 10
0.0
 20
22.43272629327407
 30
0.0
 11
292.2263229886494
 21
22.43272629327407
 31
0.0
  0
LINE
  5
1271
330
125D
100
AcDbEntity
  8
DIM
100
AcDbLine
 10
89.1300425376794
 20
17.17069886361321
 30
0.0
 11
0.1625959174562013
 21
17.17069886361321
 31
0.0
  0
LINE
  5
1272
330
125D
100
AcDbEntity
  8
DIM
100
AcDbLine
 10
0.1625959174562013
 20
11.90867143395235
 30
0.0
 11
89.1300425376794
 21
11.90867143395235
 31
0.0
  0
LINE
  5
1273
330
125D
100
AcDbEntity
  8
DIM
100
AcDbLine
 10
0.3324718815085816
 20
6.646644004291488
 30
0.0
 11
89.1300425376794
 21
6.646644004291488
 31
0.0
  0
LINE
  5
1274
330
125D
100
AcDbEntity
  8
DIM
100
AcDbLine
 10
11.37444121259409
 20
22.43272629327407
 30
0.0
 11
11.37444121259409
 21
0.0
 31
0.0
  0
LINE
  5
1275
330
125D
100
AcDbEntity
  8
DIM
100
AcDbLine
 10
213.8442921475325
 20
6.719875644631542
 30
0.0
 11
167.6954380838244
 21
6.719875644631542
 31
0.0
  0
LINE
  5
1276
330
125D
100
AcDbEntity
  8
DIM
100
AcDbLine
 10
167.6954380838244
 20
11.60070934481985
 30
0.0
 11
213.8442921475325
 21
11.60070934481985
 31
0.0
  0
TEXT
  5
1277
330
125D
100
AcDbEntity
  8
DIM
100
AcDbText
 10
149.3843128235895
 20
18.01141814143534
 30
0.0
 40
2.5
  1
SCALE FREE
 41
0.7
  7
ROMANS
 72
     2
 11
165.3009794902561
 21
18.01141814143534
 31
0.0
100
AcDbText
  0
LINE
  5
1278
330
125D
100
AcDbEntity
  8
DIM
100
AcDbLine
 10
146.5280168612521
 20
22.43272629327407
 30
0.0
 11
146.5280168612521
 21
0.0
 31
0.0
  0
TEXT
  5
1279
330
125D
100
AcDbEntity
  8
DIM
100
AcDbText
 10
75.4322038344294
 20
2.370654514404577
 30
0.0
 40
3.0
  1
APVD
 41
0.7
  7
ROMANS
100
AcDbText
  0
TEXT
  5
127A
330
125D
100
AcDbEntity
  8
DIM
100
AcDbText
 10
55.94274150779165
 20
2.370654514404577
 30
0.0
 40
3.0
  1
DATE
 41
0.7
  7
ROMANS
100
AcDbText
  0
TEXT
  5
127B
330
125D
100
AcDbEntity
  8
DIM
100
AcDbText
 10
14.2016707071748
 20
2.370654514404577
 30
0.0
 40
3.0
  1
DESCRIPTION
 41
0.7
  7
ROMANS
100
AcDbText
  0
TEXT
  5
127C
330
125D
100
AcDbEntity
  8
DIM
100
AcDbText
 10
2.706016815254362
 20
2.370654514404577
 30
0.0
 40
3.0
  1
REV
 41
0.7
  7
ROMANS
 72
     2
 11
8.406016815254361
 21
2.370654514404577
 31
0.0
100
AcDbText
  0
TEXT
  5
127D
330
125D
100
AcDbEntity
  8
DIM
100
AcDbText
 10
169.8977377686171
 20
17.46653611070155
 30
0.0
 40
3.0
  1
APVD
 41
0.7
  7
ROMANS
 72
     2
 11
177.3977377686171
 21
17.46653611070155
 31
0.0
100
AcDbText
  0
TEXT
  5
127E
330
125D
100
AcDbEntity
  8
DIM
100
AcDbText
 10
169.0333720135623
 20
12.69433802244657
 30
0.0
 40
3.0
  1
CHKD
 41
0.7
  7
ROMANS
 72
     2
 11
177.2333720135623
 21
12.69433802244657
 31
0.0
100
AcDbText
  0
TEXT
  5
127F
330
125D
100
AcDbEntity
  8
DIM
100
AcDbText
 10
170.0393831475915
 20
7.524456556443624
 30
0.0
 40
3.0
  1
DRN
 41
0.7
  7
ROMANS
 72
     2
 11
176.0393831475915
 21
7.524456556443624
 31
0.0
100
AcDbText
  0
TEXT
  5
1280
330
125D
100
AcDbEntity
  8
DIM
100
AcDbText
 10
172.2752627425855
 20
2.329814948448756
 30
0.0
 40
3.0
  1
SIGNATURE
 41
0.7
  7
ROMANS
 72
     2
 11
188.7752627425855
 21
2.329814948448756
 31
0.0
100
AcDbText
  0
TEXT
  5
1281
330
125D
100
AcDbEntity
  8
DIM
100
AcDbText
 10
201.0406724436551
 20
2.224204435222077
 30
0.0
 40
3.0
  1
DATE
 41
0.7
  7
ROMANS
 72
     2
 11
208.240672443655
 21
2.224204435222077
 31
0.0
100
AcDbText
  0
TEXT
  5
1282
330
125D
100
AcDbEntity
  8
DIM
100
AcDbText
 10
218.9507052575232
 20
15.70268350642743
 30
0.0
 40
3.799999999999999
  1
STEPPING MOTOR
 41
0.8
  7
ITALICT
 72
     2
 11
263.9716576384756
 21
15.70268350642743
 31
0.0
100
AcDbText
  0
LINE
  5
1283
330
125D
100
AcDbEntity
  8
DIM
100
AcDbLine
 10
213.8442921475325
 20
12.57581317811855
 30
0.0
 11
291.9564623227739
 21
12.57581317811855
 31
0.0
  0
TEXT
  5
1284
330
125D
100
AcDbEntity
  8
DIM
100
AcDbText
 10
229.779050611357
 20
8.525813178118596
 30
0.0
 40
2.5
  1
DWG.NO
 41
0.7
  7
ROMANS
 72
     2
 11
239.529050611357
 21
8.525813178118596
 31
0.0
100
AcDbText
  0
TEXT
  5
1285
330
125D
100
AcDbEntity
  8
DATA
 62
     1
100
AcDbText
 10
92.69009844013249
 20
17.14709370037587
 30
0.0
 40
3.0
  1
NANOTEC:
 41
0.7
  7
ROMANS
100
AcDbText
  0
TEXT
  5
1286
330
125D
100
AcDbEntity
  8
FRAME
100
AcDbText
 10
196.2632570647433
 20
7.811243394680104
 30
0.0
 40
2.6
  1
14.02.06
 41
0.7
  7
ROMANS
100
AcDbText
  0
LINE
  5
1287
330
125D
100
AcDbEntity
  8
SPEC
100
AcDbLine
 10
0.0
 20
22.43272629327407
 30
0.0
 11
0.0
 21
124.0795686925671
 31
0.0
  0
TEXT
  5
1288
330
125D
100
AcDbEntity
  8
DIM
100
AcDbText
 10
1.48247182125101
 20
198.3559972407229
 30
0.0
 40
3.0
  1
DIMENSION (UNIT : mm)
 41
0.7
  7
ROMANS
100
AcDbText
  0
LWPOLYLINE
  5
1289
330
125D
100
AcDbEntity
  8
DIM
 62
     4
100
AcDbPolyline
 90
        4
 70
     1
 43
0.6
 10
0.0
 20
202.9639180777265
 10
0.0
 20
0.0
 10
291.9564623227739
 20
0.0
 10
291.9564623227739
 20
202.9639180777265
  0
ENDBLK
  5
128C
330
125D
100
AcDbEntity
  8
0
100
AcDbBlockEnd
  0
BLOCK
  5
1A56
330
1A4C
100
AcDbEntity
  8
0
100
AcDbBlockBegin
  2
*D5
 70
     1
 10
0.0
 20
0.0
 30
0.0
  3
*D5
  1

  0
LINE
  5
656C
330
1A4C
100
AcDbEntity
  8
DIM
 62
     3
370
    -2
100
AcDbLine
 10
129.9063688288351
 20
73.09868988223387
 30
0.0
 11
129.9063688288351
 21
54.91119174080847
 31
0.0
  0
LINE
  5
656D
330
1A4C
100
AcDbEntity
  8
DIM
 62
     3
370
    -2
100
AcDbLine
 10
139.0972407104071
 20
59.09299455805125
 30
0.0
 11
139.0972407104071
 21
54.91119174080847
 31
0.0
  0
LINE
  5
656E
330
1A4C
100
AcDbEntity
  8
DIM
 62
     3
100
AcDbLine
 10
132.3063688288351
 20
55.91119174080848
 30
0.0
 11
139.0972407104071
 21
55.91119174080848
 31
0.0
  0
SOLID
  5
656F
330
1A4C
100
AcDbEntity
  8
DIM
 62
     3
100
AcDbTrace
 10
132.3063688288351
 20
56.31119174080847
 30
0.0
 11
132.3063688288351
 21
55.51119174080848
 31
0.0
 12
129.9063688288351
 22
55.91119174080848
 32
0.0
 13
129.9063688288351
 23
55.91119174080848
 33
0.0
  0
MTEXT
  5
6570
330
1A4C
100
AcDbEntity
  8
DIM
 62
     6
100
AcDbMText
 10
134.4901433864878
 20
58.11119174080848
 30
0.0
 40
2.399999999999999
 41
0.0
 71
     5
 72
     1
  1
\A1;a
  7
ROMANS
 73
     1
 44
1.0
1001
ACAD
1000
MTEXTBEGIN
1070
    73
1070
     1
1070
    44
1040
1.0
1070
    74
1070
     0
1000
MTEXTEND
  0
POINT
  5
6571
330
1A4C
100
AcDbEntity
  8
Defpoints
 62
     0
100
AcDbPoint
 10
129.9063688288351
 20
74.09868988223387
 30
0.0
  0
POINT
  5
6572
330
1A4C
100
AcDbEntity
  8
Defpoints
 62
     0
100
AcDbPoint
 10
139.0972407104071
 20
60.09299455805124
 30
0.0
  0
POINT
  5
6573
330
1A4C
100
AcDbEntity
  8
Defpoints
 62
     0
100
AcDbPoint
 10
139.0972407104071
 20
55.91119174080848
 30
0.0
  0
ENDBLK
  5
1A57
330
1A4C
100
AcDbEntity
  8
0
100
AcDbBlockEnd
  0
BLOCK
  5
2CC3
330
2CC0
100
AcDbEntity
  8
0
100
AcDbBlockBegin
  2
A$C718C4946
 70
     0
 10
0.0
 20
0.0
 30
0.0
  3
A$C718C4946
  1

  0
TEXT
  5
2CC1
330
2CC0
100
AcDbEntity
  8
DATA
100
AcDbText
 10
-0.3199997827265406
 20
-0.0000001889967507
 30
0.0
 40
2.4
  1
60%%P15%
 41
0.7
  7
ROMANS
100
AcDbText
  0
ENDBLK
  5
2CC4
330
2CC0
100
AcDbEntity
  8
0
100
AcDbBlockEnd
  0
BLOCK
  5
59FD
330
59F6
100
AcDbEntity
  8
0
100
AcDbBlockBegin
  2
*D7
 70
     1
 10
0.0
 20
0.0
 30
0.0
  3
*D7
  1

  0
LINE
  5
59FF
330
59F6
100
AcDbEntity
  8
AM_5
 62
     3
100
AcDbLine
 10
121.7745209601079
 20
75.85282590218707
 30
0.0
 11
115.1274407842457
 21
75.85282590218707
 31
0.0
  0
SOLID
  5
5A00
330
59F6
100
AcDbEntity
  8
AM_5
 62
     3
100
AcDbTrace
 10
121.7745209601079
 20
76.35282590218707
 30
0.0
 11
121.7745209601079
 21
75.35282590218708
 31
0.0
 12
124.7745209601079
 22
75.85282590218707
 32
0.0
 13
124.7745209601079
 23
75.85282590218707
 33
0.0
  0
SOLID
  5
5A01
330
59F6
100
AcDbEntity
  8
AM_5
 62
     3
100
AcDbTrace
 10
115.1274407842457
 20
76.35282590218707
 30
0.0
 11
115.1274407842457
 21
75.35282590218708
 31
0.0
 12
112.1274407842458
 22
75.85282590218707
 32
0.0
 13
112.1274407842458
 23
75.85282590218707
 33
0.0
  0
POINT
  5
5A02
330
59F6
100
AcDbEntity
  8
Defpoints
 62
     0
100
AcDbPoint
 10
124.7745209601079
 20
75.8528259021871
 30
0.0
  0
POINT
  5
5A03
330
59F6
100
AcDbEntity
  8
Defpoints
 62
     0
100
AcDbPoint
 10
112.1274407842458
 20
75.85282590218707
 30
0.0
  0
POINT
  5
5A04
330
59F6
100
AcDbEntity
  8
Defpoints
 62
     0
100
AcDbPoint
 10
112.1274407842458
 20
75.85282590218707
 30
0.0
  0
ENDBLK
  5
59FE
330
59F6
100
AcDbEntity
  8
0
100
AcDbBlockEnd
  0
BLOCK
  5
63F6
330
63EC
100
AcDbEntity
  8
0
100
AcDbBlockBegin
  2
*D8
 70
     1
 10
0.0
 20
0.0
 30
0.0
  3
*D8
  1

  0
LINE
  5
645F
330
63EC
100
AcDbEntity
  8
DIM
 62
     3
370
    -2
100
AcDbLine
 10
934.1956509364857
 20
620.9736276554447
 30
0.0
 11
934.1956509364857
 21
631.3372542239021
 31
0.0
  0
LINE
  5
6460
330
63EC
100
AcDbEntity
  8
DIM
 62
     3
370
    -2
100
AcDbLine
 10
967.1956509364855
 20
620.9736276554448
 30
0.0
 11
967.1956509364855
 21
631.3372542239021
 31
0.0
  0
LINE
  5
6461
330
63EC
100
AcDbEntity
  8
DIM
 62
     3
100
AcDbLine
 10
937.1956509364856
 20
630.3372542239022
 30
0.0
 11
964.1956509364856
 21
630.3372542239022
 31
0.0
  0
SOLID
  5
6462
330
63EC
100
AcDbEntity
  8
DIM
 62
     3
100
AcDbTrace
 10
937.1956509364856
 20
630.8372542239021
 30
0.0
 11
937.1956509364856
 21
629.8372542239022
 31
0.0
 12
934.1956509364857
 22
630.3372542239022
 32
0.0
 13
934.1956509364857
 23
630.3372542239022
 33
0.0
  0
SOLID
  5
6463
330
63EC
100
AcDbEntity
  8
DIM
 62
     3
100
AcDbTrace
 10
964.1956509364856
 20
630.8372542239021
 30
0.0
 11
964.1956509364856
 21
629.8372542239022
 31
0.0
 12
967.1956509364855
 22
630.3372542239022
 32
0.0
 13
967.1956509364855
 23
630.3372542239022
 33
0.0
  0
MTEXT
  5
6464
330
63EC
100
AcDbEntity
  8
DIM
 62
     6
100
AcDbMText
 10
951.1114749411458
 20
632.8699963794274
 30
0.0
 40
3.0
 41
0.0
 71
     5
 72
     1
  1
\A1;33{\H2.400000;±0.75}
 73
     1
 44
1.0
1001
ACAD
1000
MTEXTBEGIN
1070
    73
1070
     1
1070
    44
1040
1.0
1070
    74
1070
     0
1000
MTEXTEND
  0
POINT
  5
6465
330
63EC
100
AcDbEntity
  8
Defpoints
 62
     0
100
AcDbPoint
 10
934.1956509364857
 20
619.9736276554447
 30
0.0
  0
POINT
  5
6466
330
63EC
100
AcDbEntity
  8
Defpoints
 62
     0
100
AcDbPoint
 10
967.1956509364855
 20
619.9736276554448
 30
0.0
  0
POINT
  5
6467
330
63EC
100
AcDbEntity
  8
Defpoints
 62
     0
100
AcDbPoint
 10
967.1956509364855
 20
630.3372542239022
 30
0.0
  0
ENDBLK
  5
63F7
330
63EC
100
AcDbEntity
  8
0
100
AcDbBlockEnd
  0
BLOCK
  5
6404
330
63F8
100
AcDbEntity
  8
0
100
AcDbBlockBegin
  2
*D9
 70
     1
 10
0.0
 20
0.0
 30
0.0
  3
*D9
  1

  0
LINE
  5
6468
330
63F8
100
AcDbEntity
  8
DIM
 62
     3
370
    -2
100
AcDbLine
 10
932.1908890317237
 20
610.9736276554448
 30
0.0
 11
932.1908890317237
 21
625.4812909167148
 31
0.0
  0
LINE
  5
6469
330
63F8
100
AcDbEntity
  8
DIM
 62
     3
370
    -2
100
AcDbLine
 10
934.1956509364857
 20
620.9736276554447
 30
0.0
 11
934.1956509364857
 21
625.4812909167148
 31
0.0
  0
LINE
  5
646A
330
63F8
100
AcDbEntity
  8
DIM
 62
     3
100
AcDbLine
 10
937.1956509364856
 20
624.4812909167148
 30
0.0
 11
940.1956509364856
 21
624.4812909167148
 31
0.0
  0
LINE
  5
646B
330
63F8
100
AcDbEntity
  8
DIM
 62
     3
100
AcDbLine
 10
929.1908890317237
 20
624.4812909167148
 30
0.0
 11
920.70459980935
 21
624.4812909167148
 31
0.0
  0
LINE
  5
646C
330
63F8
100
AcDbEntity
  8
DIM
 62
     3
100
AcDbLine
 10
934.1956509364857
 20
624.4812909167148
 30
0.0
 11
932.1908890317237
 21
624.4812909167148
 31
0.0
  0
SOLID
  5
646D
330
63F8
100
AcDbEntity
  8
DIM
 62
     3
100
AcDbTrace
 10
937.1956509364856
 20
624.9812909167148
 30
0.0
 11
937.1956509364856
 21
623.9812909167148
 31
0.0
 12
934.1956509364857
 22
624.4812909167148
 32
0.0
 13
934.1956509364857
 23
624.4812909167148
 33
0.0
  0
SOLID
  5
646E
330
63F8
100
AcDbEntity
  8
DIM
 62
     3
100
AcDbTrace
 10
929.1908890317237
 20
624.9812909167148
 30
0.0
 11
929.1908890317237
 21
623.9812909167148
 31
0.0
 12
932.1908890317237
 22
624.4812909167148
 32
0.0
 13
932.1908890317237
 23
624.4812909167148
 33
0.0
  0
MTEXT
  5
646F
330
63F8
100
AcDbEntity
  8
DIM
 62
     6
100
AcDbMText
 10
922.6981195910688
 20
626.9874300708758
 30
0.0
 40
3.0
 41
0.0
 71
     5
 72
     1
  1
\A1;2
 73
     1
 44
1.0
1001
ACAD
1000
MTEXTBEGIN
1070
    73
1070
     1
1070
    44
1040
1.0
1070
    74
1070
     0
1000
MTEXTEND
  0
POINT
  5
6470
330
63F8
100
AcDbEntity
  8
Defpoints
 62
     0
100
AcDbPoint
 10
932.1908890317237
 20
609.9736276554448
 30
0.0
  0
POINT
  5
6471
330
63F8
100
AcDbEntity
  8
Defpoints
 62
     0
100
AcDbPoint
 10
934.1956509364857
 20
619.9736276554447
 30
0.0
  0
POINT
  5
6472
330
63F8
100
AcDbEntity
  8
Defpoints
 62
     0
100
AcDbPoint
 10
934.1956509364857
 20
624.4812909167148
 30
0.0
  0
ENDBLK
  5
6405
330
63F8
100
AcDbEntity
  8
0
100
AcDbBlockEnd
  0
BLOCK
  5
6410
330
6406
100
AcDbEntity
  8
0
100
AcDbBlockBegin
  2
*D10
 70
     1
 10
0.0
 20
0.0
 30
0.0
  3
*D10
  1

  0
LINE
  5
6473
330
6406
100
AcDbEntity
  8
DIM
 62
     3
370
    -2
100
AcDbLine
 10
910.1956509364857
 20
602.4736276554448
 30
0.0
 11
910.1956509364857
 21
631.473490142023
 31
0.0
  0
LINE
  5
6474
330
6406
100
AcDbEntity
  8
DIM
 62
     3
370
    -2
100
AcDbLine
 10
934.1956509364857
 20
620.9736276554447
 30
0.0
 11
934.1956509364857
 21
631.473490142023
 31
0.0
  0
LINE
  5
6475
330
6406
100
AcDbEntity
  8
DIM
 62
     3
100
AcDbLine
 10
913.1956509364856
 20
630.473490142023
 30
0.0
 11
931.1956509364856
 21
630.473490142023
 31
0.0
  0
SOLID
  5
6476
330
6406
100
AcDbEntity
  8
DIM
 62
     3
100
AcDbTrace
 10
913.1956509364856
 20
630.973490142023
 30
0.0
 11
913.1956509364856
 21
629.9734901420229
 31
0.0
 12
910.1956509364857
 22
630.473490142023
 32
0.0
 13
910.1956509364857
 23
630.473490142023
 33
0.0
  0
SOLID
  5
6477
330
6406
100
AcDbEntity
  8
DIM
 62
     3
100
AcDbTrace
 10
931.1956509364856
 20
630.973490142023
 30
0.0
 11
931.1956509364856
 21
629.9734901420229
 31
0.0
 12
934.1956509364857
 22
630.473490142023
 32
0.0
 13
934.1956509364857
 23
630.473490142023
 33
0.0
  0
MTEXT
  5
6478
330
6406
100
AcDbEntity
  8
DIM
 62
     6
100
AcDbMText
 10
921.2758472724429
 20
633.0000931433873
 30
0.0
 40
3.0
 41
0.0
 71
     5
 72
     1
  1
\A1;24{\H2.400000;±0.5}
 73
     1
 44
1.0
1001
ACAD
1000
MTEXTBEGIN
1070
    73
1070
     1
1070
    44
1040
1.0
1070
    74
1070
     0
1000
MTEXTEND
  0
POINT
  5
6479
330
6406
100
AcDbEntity
  8
Defpoints
 62
     0
100
AcDbPoint
 10
910.1956509364857
 20
601.4736276554448
 30
0.0
  0
POINT
  5
647A
330
6406
100
AcDbEntity
  8
Defpoints
 62
     0
100
AcDbPoint
 10
934.1956509364857
 20
619.9736276554447
 30
0.0
  0
POINT
  5
647B
330
6406
100
AcDbEntity
  8
Defpoints
 62
     0
100
AcDbPoint
 10
934.1956509364857
 20
630.473490142023
 30
0.0
  0
ENDBLK
  5
6411
330
6406
100
AcDbEntity
  8
0
100
AcDbBlockEnd
  0
BLOCK
  5
641D
330
6412
100
AcDbEntity
  8
0
100
AcDbBlockBegin
  2
*D11
 70
     1
 10
0.0
 20
0.0
 30
0.0
  3
*D11
  1

  0
LINE
  5
647C
330
6412
100
AcDbEntity
  8
DIM
 62
     3
370
    -2
100
AcDbLine
 10
931.2908890317237
 20
587.9736276554448
 30
0.0
 11
895.2731467132956
 21
587.9736276554448
 31
0.0
  0
LINE
  5
647D
330
6412
100
AcDbEntity
  8
DIM
 62
     3
370
    -2
100
AcDbLine
 10
931.2908890317237
 20
609.9736276554448
 30
0.0
 11
895.2731467132956
 21
609.9736276554448
 31
0.0
  0
LINE
  5
647E
330
6412
100
AcDbEntity
  8
DIM
 62
     3
100
AcDbLine
 10
896.2731467132956
 20
606.9736276554448
 30
0.0
 11
896.2731467132956
 21
590.9736276554448
 31
0.0
  0
LINE
  5
647F
330
6412
100
AcDbEntity
  8
DIM
 62
     3
100
AcDbLine
 10
896.2731467132956
 20
587.9736276554448
 30
0.0
 11
896.2731467132956
 21
561.1406256415421
 31
0.0
  0
SOLID
  5
6480
330
6412
100
AcDbEntity
  8
DIM
 62
     3
100
AcDbTrace
 10
895.7731467132957
 20
606.9736276554448
 30
0.0
 11
896.7731467132956
 21
606.9736276554448
 31
0.0
 12
896.2731467132956
 22
609.9736276554448
 32
0.0
 13
896.2731467132956
 23
609.9736276554448
 33
0.0
  0
SOLID
  5
6481
330
6412
100
AcDbEntity
  8
DIM
 62
     3
100
AcDbTrace
 10
895.7731467132957
 20
590.9736276554448
 30
0.0
 11
896.7731467132956
 21
590.9736276554448
 31
0.0
 12
896.2731467132956
 22
587.9736276554448
 32
0.0
 13
896.2731467132956
 23
587.9736276554448
 33
0.0
  0
MTEXT
  5
6482
330
6412
100
AcDbEntity
  8
DIM
 62
     6
100
AcDbMText
 10
892.3612094690936
 20
570.6404892158944
 30
0.0
 40
3.0
 41
0.0
 71
     5
 72
     1
  1
\A1;%%c22{\H2.400000;\S 0^ -0.033;}
 11
0.0000000000000001
 21
1.0
 31
0.0
 73
     1
 44
1.0
1001
ACAD
1000
MTEXTBEGIN
1070
    73
1070
     1
1070
    44
1040
1.0
1070
    74
1070
     0
1000
MTEXTEND
  0
POINT
  5
6483
330
6412
100
AcDbEntity
  8
Defpoints
 62
     0
100
AcDbPoint
 10
932.2908890317236
 20
587.9736276554448
 30
0.0
  0
POINT
  5
6484
330
6412
100
AcDbEntity
  8
Defpoints
 62
     0
100
AcDbPoint
 10
932.2908890317236
 20
609.9736276554448
 30
0.0
  0
POINT
  5
6485
330
6412
100
AcDbEntity
  8
Defpoints
 62
     0
100
AcDbPoint
 10
896.2731467132956
 20
609.9736276554448
 30
0.0
  0
ENDBLK
  5
641E
330
6412
100
AcDbEntity
  8
0
100
AcDbBlockEnd
  0
BLOCK
  5
642B
330
641F
100
AcDbEntity
  8
0
100
AcDbBlockBegin
  2
*D12
 70
     1
 10
0.0
 20
0.0
 30
0.0
  3
*D12
  1

  0
LINE
  5
6486
330
641F
100
AcDbEntity
  8
DIM
 62
     3
370
    -2
100
AcDbLine
 10
909.1956509364857
 20
596.4736276554446
 30
0.0
 11
902.7390708005999
 21
596.4736276554446
 31
0.0
  0
LINE
  5
6487
330
641F
100
AcDbEntity
  8
DIM
 62
     3
370
    -2
100
AcDbLine
 10
909.1956509364857
 20
601.4736276554448
 30
0.0
 11
902.7390708005999
 21
601.4736276554448
 31
0.0
  0
LINE
  5
6488
330
641F
100
AcDbEntity
  8
DIM
 62
     3
100
AcDbLine
 10
903.7390708005998
 20
604.4736276554448
 30
0.0
 11
903.7390708005998
 21
607.4736276554448
 31
0.0
  0
LINE
  5
6489
330
641F
100
AcDbEntity
  8
DIM
 62
     3
100
AcDbLine
 10
903.7390708005998
 20
593.4736276554446
 30
0.0
 11
903.7390708005998
 21
565.2818099413345
 31
0.0
  0
LINE
  5
648A
330
641F
100
AcDbEntity
  8
DIM
 62
     3
100
AcDbLine
 10
903.7390708005998
 20
601.4736276554448
 30
0.0
 11
903.7390708005998
 21
596.4736276554446
 31
0.0
  0
SOLID
  5
648B
330
641F
100
AcDbEntity
  8
DIM
 62
     3
100
AcDbTrace
 10
903.2390708005999
 20
604.4736276554448
 30
0.0
 11
904.2390708005999
 21
604.4736276554448
 31
0.0
 12
903.7390708005998
 22
601.4736276554448
 32
0.0
 13
903.7390708005998
 23
601.4736276554448
 33
0.0
  0
SOLID
  5
648C
330
641F
100
AcDbEntity
  8
DIM
 62
     3
100
AcDbTrace
 10
903.2390708005999
 20
593.4736276554446
 30
0.0
 11
904.2390708005999
 21
593.4736276554446
 31
0.0
 12
903.7390708005998
 22
596.4736276554446
 32
0.0
 13
903.7390708005998
 23
596.4736276554446
 33
0.0
  0
MTEXT
  5
648D
330
641F
100
AcDbEntity
  8
DIM
 62
     6
100
AcDbMText
 10
899.8271335563979
 20
573.6162574174601
 30
0.0
 40
3.0
 41
0.0
 71
     5
 72
     1
  1
\A1;%%c5{\H2.400000;\S 0^ -0.013;}
 11
0.0000000000000001
 21
1.0
 31
0.0
 73
     1
 44
1.0
1001
ACAD
1000
MTEXTBEGIN
1070
    73
1070
     1
1070
    44
1040
1.0
1070
    74
1070
     0
1000
MTEXTEND
  0
POINT
  5
648E
330
641F
100
AcDbEntity
  8
Defpoints
 62
     0
100
AcDbPoint
 10
910.1956509364857
 20
596.4736276554446
 30
0.0
  0
POINT
  5
648F
330
641F
100
AcDbEntity
  8
Defpoints
 62
     0
100
AcDbPoint
 10
910.1956509364857
 20
601.4736276554448
 30
0.0
  0
POINT
  5
6490
330
641F
100
AcDbEntity
  8
Defpoints
 62
     0
100
AcDbPoint
 10
903.7390708005998
 20
601.4736276554448
 30
0.0
  0
ENDBLK
  5
642C
330
641F
100
AcDbEntity
  8
0
100
AcDbBlockEnd
  0
BLOCK
  5
6437
330
642D
100
AcDbEntity
  8
0
100
AcDbBlockBegin
  2
*D13
 70
     1
 10
0.0
 20
0.0
 30
0.0
  3
*D13
  1

  0
LINE
  5
6491
330
642D
100
AcDbEntity
  8
DIM
  6
ACISOTGL
 62
     3
370
    -2
100
AcDbLine
 10
1044.622704156902
 20
599.9736276554449
 30
0.0
 11
1044.622704156902
 21
625.0787560877311
 31
0.0
  0
LINE
  5
6492
330
642D
100
AcDbEntity
  8
DIM
  6
ACISOTGL
 62
     3
370
    -2
100
AcDbLine
 10
1063.672704156903
 20
599.9736276554447
 30
0.0
 11
1063.672704156903
 21
625.0787560877311
 31
0.0
  0
LINE
  5
6493
330
642D
100
AcDbEntity
  8
DIM
  6
ACISOTGL
 62
     3
100
AcDbLine
 10
1047.622704156903
 20
624.078756087731
 30
0.0
 11
1060.672704156903
 21
624.078756087731
 31
0.0
  0
SOLID
  5
6494
330
642D
100
AcDbEntity
  8
DIM
  6
ACISOTGL
 62
     3
100
AcDbTrace
 10
1047.622704156903
 20
624.578756087731
 30
0.0
 11
1047.622704156903
 21
623.5787560877311
 31
0.0
 12
1044.622704156902
 22
624.078756087731
 32
0.0
 13
1044.622704156902
 23
624.078756087731
 33
0.0
  0
SOLID
  5
6495
330
642D
100
AcDbEntity
  8
DIM
  6
ACISOTGL
 62
     3
100
AcDbTrace
 10
1060.672704156903
 20
624.578756087731
 30
0.0
 11
1060.672704156903
 21
623.5787560877311
 31
0.0
 12
1063.672704156903
 22
624.078756087731
 32
0.0
 13
1063.672704156903
 23
624.078756087731
 33
0.0
  0
MTEXT
  5
6496
330
642D
100
AcDbEntity
  8
DIM
  6
ACISOTGL
 62
     6
100
AcDbMText
 10
1054.198820183716
 20
626.6104750508961
 30
0.0
 40
3.0
 41
0.0
 71
     5
 72
     1
  1
\A1;19.05
 73
     1
 44
1.0
1001
ACAD
1000
MTEXTBEGIN
1070
    73
1070
     1
1070
    44
1040
1.0
1070
    74
1070
     0
1000
MTEXTEND
  0
POINT
  5
6497
330
642D
100
AcDbEntity
  8
Defpoints
  6
ACISOTGL
 62
     0
100
AcDbPoint
 10
1044.622704156902
 20
598.9736276554449
 30
0.0
  0
POINT
  5
6498
330
642D
100
AcDbEntity
  8
Defpoints
  6
ACISOTGL
 62
     0
100
AcDbPoint
 10
1063.672704156903
 20
598.9736276554447
 30
0.0
  0
POINT
  5
6499
330
642D
100
AcDbEntity
  8
Defpoints
  6
ACISOTGL
 62
     0
100
AcDbPoint
 10
1063.672704156903
 20
624.078756087731
 30
0.0
  0
ENDBLK
  5
6438
330
642D
100
AcDbEntity
  8
0
100
AcDbBlockEnd
  0
BLOCK
  5
6443
330
6439
100
AcDbEntity
  8
0
100
AcDbBlockBegin
  2
*D14
 70
     1
 10
0.0
 20
0.0
 30
0.0
  3
*D14
  1

  0
LINE
  5
649A
330
6439
100
AcDbEntity
  8
DIM
  6
ACISOTGL
 62
     3
370
    -2
100
AcDbLine
 10
980.6927937936283
 20
602.3545800411589
 30
0.0
 11
980.6927937936283
 21
631.3100118187212
 31
0.0
  0
LINE
  5
649B
330
6439
100
AcDbEntity
  8
DIM
  6
ACISOTGL
 62
     3
370
    -2
100
AcDbLine
 10
967.1956509364855
 20
620.9736276554448
 30
0.0
 11
967.1956509364855
 21
631.3100118187212
 31
0.0
  0
LINE
  5
649C
330
6439
100
AcDbEntity
  8
DIM
  6
ACISOTGL
 62
     3
100
AcDbLine
 10
977.6927937936283
 20
630.3100118187212
 30
0.0
 11
970.1956509364855
 21
630.3100118187212
 31
0.0
  0
SOLID
  5
649D
330
6439
100
AcDbEntity
  8
DIM
  6
ACISOTGL
 62
     3
100
AcDbTrace
 10
977.6927937936283
 20
630.8100118187212
 30
0.0
 11
977.6927937936283
 21
629.8100118187212
 31
0.0
 12
980.6927937936283
 22
630.3100118187212
 32
0.0
 13
980.6927937936283
 23
630.3100118187212
 33
0.0
  0
SOLID
  5
649E
330
6439
100
AcDbEntity
  8
DIM
  6
ACISOTGL
 62
     3
100
AcDbTrace
 10
970.1956509364855
 20
630.8100118187212
 30
0.0
 11
970.1956509364855
 21
629.8100118187212
 31
0.0
 12
967.1956509364855
 22
630.3100118187212
 32
0.0
 13
967.1956509364855
 23
630.3100118187212
 33
0.0
  0
MTEXT
  5
649F
330
6439
100
AcDbEntity
  8
DIM
  6
ACISOTGL
 62
     6
100
AcDbMText
 10
973.5265966784108
 20
632.8427539742465
 30
0.0
 40
3.0
 41
0.0
 71
     5
 72
     1
  1
\A1;13.5{\H2.400000;±1}
 73
     1
 44
1.0
1001
ACAD
1000
MTEXTBEGIN
1070
    73
1070
     1
1070
    44
1040
1.0
1070
    74
1070
     0
1000
MTEXTEND
  0
POINT
  5
64A0
330
6439
100
AcDbEntity
  8
Defpoints
  6
ACISOTGL
 62
     0
100
AcDbPoint
 10
980.6927937936283
 20
601.354580041159
 30
0.0
  0
POINT
  5
64A1
330
6439
100
AcDbEntity
  8
Defpoints
  6
ACISOTGL
 62
     0
100
AcDbPoint
 10
967.1956509364855
 20
619.9736276554448
 30
0.0
  0
POINT
  5
64A2
330
6439
100
AcDbEntity
  8
Defpoints
  6
ACISOTGL
 62
     0
100
AcDbPoint
 10
967.1956509364855
 20
630.3100118187212
 30
0.0
  0
ENDBLK
  5
6444
330
6439
100
AcDbEntity
  8
0
100
AcDbBlockEnd
  0
BLOCK
  5
6451
330
6445
100
AcDbEntity
  8
0
100
AcDbBlockBegin
  2
*D15
 70
     1
 10
0.0
 20
0.0
 30
0.0
  3
*D15
  1

  0
LINE
  5
64A3
330
6445
100
AcDbEntity
  8
DIM
  6
ACISOTGL
 62
     3
370
    -2
100
AcDbLine
 10
981.6927937936283
 20
596.4736276554447
 30
0.0
 11
992.1653438047085
 21
596.4736276554447
 31
0.0
  0
LINE
  5
64A4
330
6445
100
AcDbEntity
  8
DIM
  6
ACISOTGL
 62
     3
370
    -2
100
AcDbLine
 10
981.6927937936283
 20
601.473627655445
 30
0.0
 11
992.1653438047085
 21
601.473627655445
 31
0.0
  0
LINE
  5
64A5
330
6445
100
AcDbEntity
  8
DIM
  6
ACISOTGL
 62
     3
100
AcDbLine
 10
991.1653438047085
 20
593.4736276554446
 30
0.0
 11
991.1653438047085
 21
590.4736276554447
 31
0.0
  0
LINE
  5
64A6
330
6445
100
AcDbEntity
  8
DIM
  6
ACISOTGL
 62
     3
100
AcDbLine
 10
991.1653438047085
 20
604.473627655445
 30
0.0
 11
991.1653438047085
 21
630.1668096260353
 31
0.0
  0
LINE
  5
64A7
330
6445
100
AcDbEntity
  8
DIM
  6
ACISOTGL
 62
     3
100
AcDbLine
 10
991.1653438047085
 20
596.4736276554447
 30
0.0
 11
991.1653438047085
 21
601.473627655445
 31
0.0
  0
SOLID
  5
64A8
330
6445
100
AcDbEntity
  8
DIM
  6
ACISOTGL
 62
     3
100
AcDbTrace
 10
990.6653438047086
 20
593.4736276554446
 30
0.0
 11
991.6653438047086
 21
593.4736276554446
 31
0.0
 12
991.1653438047085
 22
596.4736276554447
 32
0.0
 13
991.1653438047085
 23
596.4736276554447
 33
0.0
  0
SOLID
  5
64A9
330
6445
100
AcDbEntity
  8
DIM
  6
ACISOTGL
 62
     3
100
AcDbTrace
 10
990.6653438047086
 20
604.473627655445
 30
0.0
 11
991.6653438047086
 21
604.473627655445
 31
0.0
 12
991.1653438047085
 22
601.473627655445
 32
0.0
 13
991.1653438047085
 23
601.473627655445
 33
0.0
  0
MTEXT
  5
64AA
330
6445
100
AcDbEntity
  8
DIM
  6
ACISOTGL
 62
     6
100
AcDbMText
 10
987.2534065605066
 20
621.83236214991
 30
0.0
 40
3.0
 41
0.0
 71
     5
 72
     1
  1
\A1;%%c5{\H2.400000;\S 0^ -0.013;}
 11
0.0000000000000001
 21
1.0
 31
0.0
 73
     1
 44
1.0
1001
ACAD
1000
MTEXTBEGIN
1070
    73
1070
     1
1070
    44
1040
1.0
1070
    74
1070
     0
1000
MTEXTEND
  0
POINT
  5
64AB
330
6445
100
AcDbEntity
  8
Defpoints
  6
ACISOTGL
 62
     0
100
AcDbPoint
 10
980.6927937936283
 20
596.4736276554447
 30
0.0
  0
POINT
  5
64AC
330
6445
100
AcDbEntity
  8
Defpoints
  6
ACISOTGL
 62
     0
100
AcDbPoint
 10
980.6927937936283
 20
601.473627655445
 30
0.0
  0
POINT
  5
64AD
330
6445
100
AcDbEntity
  8
Defpoints
  6
ACISOTGL
 62
     0
100
AcDbPoint
 10
991.1653438047085
 20
601.473627655445
 30
0.0
  0
ENDBLK
  5
6452
330
6445
100
AcDbEntity
  8
0
100
AcDbBlockEnd
  0
BLOCK
  5
645D
330
6453
100
AcDbEntity
  8
0
100
AcDbBlockBegin
  2
*D16
 70
     1
 10
0.0
 20
0.0
 30
0.0
  3
*D16
  1

  0
LINE
  5
64BA
330
6453
100
AcDbEntity
  8
AM_5
 62
     3
370
    -2
100
AcDbLine
 10
820.8203059251795
 20
616.9736276554445
 30
0.0
 11
820.8203059251795
 21
631.2149793752745
 31
0.0
  0
LINE
  5
64BB
330
6453
100
AcDbEntity
  8
AM_5
 62
     3
370
    -2
100
AcDbLine
 10
860.8203059251792
 20
616.9736276554446
 30
0.0
 11
860.8203059251792
 21
631.2149793752745
 31
0.0
  0
LINE
  5
64BC
330
6453
100
AcDbEntity
  8
AM_5
 62
     3
100
AcDbLine
 10
823.8203059251794
 20
630.2149793752745
 30
0.0
 11
857.8203059251793
 21
630.2149793752745
 31
0.0
  0
SOLID
  5
64BD
330
6453
100
AcDbEntity
  8
AM_5
 62
     3
100
AcDbTrace
 10
823.8203059251794
 20
630.7149793752745
 30
0.0
 11
823.8203059251794
 21
629.7149793752745
 31
0.0
 12
820.8203059251795
 22
630.2149793752745
 32
0.0
 13
820.8203059251795
 23
630.2149793752745
 33
0.0
  0
SOLID
  5
64BE
330
6453
100
AcDbEntity
  8
AM_5
 62
     3
100
AcDbTrace
 10
857.8203059251793
 20
630.7149793752745
 30
0.0
 11
857.8203059251793
 21
629.7149793752745
 31
0.0
 12
860.8203059251792
 22
630.2149793752745
 32
0.0
 13
860.8203059251792
 23
630.2149793752745
 33
0.0
  0
MTEXT
  5
64BF
330
6453
100
AcDbEntity
  8
AM_5
 62
     6
100
AcDbMText
 10
839.7298622605001
 20
632.7466983384396
 30
0.0
 40
3.0
 41
0.0
 71
     5
 72
     1
  1
\A1;{\Famgdt|c0;o} 40
 73
     1
 44
1.0
1001
ACAD
1000
MTEXTBEGIN
1070
    73
1070
     1
1070
    44
1040
1.0
1070
    74
1070
     0
1000
MTEXTEND
  0
POINT
  5
64C0
330
6453
100
AcDbEntity
  8
Defpoints
 62
     0
100
AcDbPoint
 10
820.8203059251795
 20
615.9736276554444
 30
0.0
  0
POINT
  5
64C1
330
6453
100
AcDbEntity
  8
Defpoints
 62
     0
100
AcDbPoint
 10
860.8203059251792
 20
615.9736276554446
 30
0.0
  0
POINT
  5
64C2
330
6453
100
AcDbEntity
  8
Defpoints
 62
     0
100
AcDbPoint
 10
860.8203059251792
 20
630.2149793752745
 30
0.0
  0
ENDBLK
  5
645E
330
6453
100
AcDbEntity
  8
0
100
AcDbBlockEnd
  0
BLOCK
  5
64B8
330
64AE
100
AcDbEntity
  8
0
100
AcDbBlockBegin
  2
*D17
 70
     1
 10
0.0
 20
0.0
 30
0.0
  3
*D17
  1

  0
LINE
  5
64AF
330
64AE
100
AcDbEntity
  8
AM_5
 62
     3
370
    -2
100
AcDbLine
 10
825.3203059251793
 20
617.7831514649686
 30
0.0
 11
825.3203059251793
 21
625.2020236471233
 31
0.0
  0
LINE
  5
64B0
330
64AE
100
AcDbEntity
  8
AM_5
 62
     3
370
    -2
100
AcDbLine
 10
856.3203059251794
 20
617.3783895602067
 30
0.0
 11
856.3203059251794
 21
625.2020236471233
 31
0.0
  0
LINE
  5
64B1
330
64AE
100
AcDbEntity
  8
AM_5
 62
     3
100
AcDbLine
 10
828.3203059251793
 20
624.2020236471233
 30
0.0
 11
853.3203059251793
 21
624.2020236471233
 31
0.0
  0
SOLID
  5
64B2
330
64AE
100
AcDbEntity
  8
AM_5
 62
     3
100
AcDbTrace
 10
828.3203059251793
 20
624.7020236471233
 30
0.0
 11
828.3203059251793
 21
623.7020236471233
 31
0.0
 12
825.3203059251793
 22
624.2020236471233
 32
0.0
 13
825.3203059251793
 23
624.2020236471233
 33
0.0
  0
SOLID
  5
64B3
330
64AE
100
AcDbEntity
  8
AM_5
 62
     3
100
AcDbTrace
 10
853.3203059251793
 20
624.7020236471233
 30
0.0
 11
853.3203059251793
 21
623.7020236471233
 31
0.0
 12
856.3203059251794
 22
624.2020236471233
 32
0.0
 13
856.3203059251794
 23
624.2020236471233
 33
0.0
  0
MTEXT
  5
64B4
330
64AE
100
AcDbEntity
  8
AM_5
 62
     6
100
AcDbMText
 10
838.9443623855452
 20
626.7347658026486
 30
0.0
 40
3.0
 41
0.0
 71
     5
 72
     1
  1
\A1;{\Famgdt|c0;o} 31{\H2.400000;±0.2}
 73
     1
 44
1.0
1001
ACAD
1000
MTEXTBEGIN
1070
    73
1070
     1
1070
    44
1040
1.0
1070
    74
1070
     0
1000
MTEXTEND
  0
POINT
  5
64B5
330
64AE
100
AcDbEntity
  8
Defpoints
 62
     0
100
AcDbPoint
 10
825.3203059251793
 20
616.7831514649686
 30
0.0
  0
POINT
  5
64B6
330
64AE
100
AcDbEntity
  8
Defpoints
 62
     0
100
AcDbPoint
 10
856.3203059251794
 20
616.3783895602067
 30
0.0
  0
POINT
  5
64B7
330
64AE
100
AcDbEntity
  8
Defpoints
 62
     0
100
AcDbPoint
 10
856.3203059251794
 20
624.2020236471233
 30
0.0
  0
ENDBLK
  5
64B9
330
64AE
100
AcDbEntity
  8
0
100
AcDbBlockEnd
  0
ENDSEC
  0
SECTION
  2
ENTITIES
  0
TEXT
  5
13FA
330
1F
100
AcDbEntity
  8
SPEC
100
AcDbText
 10
1198.0
 20
654.0
 30
0.0
 40
2.4
  1

 41
0.7
  7
ROMANS
100
AcDbText
  0
LINE
  5
6338
330
1F
100
AcDbEntity
  8
SPEC
100
AcDbLine
 10
954.6956509364854
 20
615.9172842855826
 30
0.0
 11
967.1956509364855
 21
615.9172842855825
 31
0.0
  0
DIMENSION
  5
6339
330
1F
100
AcDbEntity
  8
DIM
100
AcDbDimension
  2
*D8
 10
967.1956509364855
 20
630.3372542239022
 30
0.0
 11
951.1114749411458
 21
630.3372542239022
 31
0.0
 70
   160
 71
     5
 42
32.99999999999989
  3
STANDARD
100
AcDbAlignedDimension
 13
934.1956509364857
 23
619.9736276554447
 33
0.0
 14
967.1956509364855
 24
619.9736276554448
 34
0.0
100
AcDbRotatedDimension
1001
ACAD
1000
DSTYLE
1002
{
1070
    47
1040
0.75
1070
    48
1040
0.75
1070
   147
1040
1.0
1070
    72
1070
     0
1070
    71
1070
     1
1070
    40
1040
1.0
1002
}
  0
LINE
  5
633A
330
1F
100
AcDbEntity
  8
SPEC
100
AcDbLine
 10
934.1956509364857
 20
619.9736276554447
 30
0.0
 11
967.1956509364855
 21
619.9736276554448
 31
0.0
  0
LINE
  5
633B
330
1F
100
AcDbEntity
  8
SPEC
100
AcDbLine
 10
934.1956509364857
 20
577.9736276554447
 30
0.0
 11
967.1956509364857
 21
577.9736276554448
 31
0.0
  0
LINE
  5
633C
330
1F
100
AcDbEntity
  8
FRAME
100
AcDbLine
 10
964.0035277960036
 20
563.433523690537
 30
0.0
 11
963.430784828102
 21
563.7912465771661
 31
0.0
  0
LINE
  5
633D
330
1F
100
AcDbEntity
  8
FRAME
100
AcDbLine
 10
966.7825125693001
 20
565.6330357939931
 30
0.0
 11
963.7499973066034
 21
564.7557941029871
 31
0.0
  0
LINE
  5
633E
330
1F
100
AcDbEntity
  8
CENTER
  6
CENTER
100
AcDbLine
 10
907.9369930685651
 20
598.9736276554448
 30
0.0
 11
984.0063857265063
 21
598.9736276554448
 31
0.0
  0
TEXT
  5
633F
330
1F
100
AcDbEntity
  8
DATA
100
AcDbText
 10
808.7725040311882
 20
564.7953367681272
 30
0.0
 40
3.0
  1
DEPTH 5 MIN.
100
AcDbText
  0
TEXT
  5
6340
330
1F
100
AcDbEntity
  8
DATA
100
AcDbText
 10
812.897241500533
 20
569.4164392443552
 30
0.0
 40
3.0
  1
4-M3x0.5
100
AcDbText
  0
LEADER
  5
6341
330
1F
100
AcDbEntity
  8
DIM
100
AcDbLeader
  3
STANDARD
 76
     3
 10
825.3203059251793
 20
583.4736276554448
 30
0.0
 10
807.6786505359962
 20
568.7916592331715
 30
0.0
 10
834.7725040311882
 20
568.7916592331715
 30
0.0
1001
ACAD
1000
DSTYLE
1002
{
1070
    40
1040
1.0
1070
    77
1070
     0
1002
}
  0
LINE
  5
6342
330
1F
100
AcDbEntity
  8
SPEC
100
AcDbLine
 10
857.8203059251794
 20
578.9736276554442
 30
0.0
 11
823.8203059251794
 21
578.9736276554448
 31
0.0
  0
LINE
  5
6343
330
1F
100
AcDbEntity
  8
SPEC
100
AcDbLine
 10
820.8203059251795
 20
581.9736276554448
 30
0.0
 11
823.8203059251794
 21
578.9736276554448
 31
0.0
1001
GENIUS_GENFIL_13
1070
     0
1040
3.0
1040
3.0
1040
3.5
1040
45.0
1002
{
1002
}
1001
GENIUS_GENOBJ-N-CHA_13
1002
{
1000
OWNER
1000
GEN
1002
}
1001
GENIUS_GENODEF_13
1002
{
1000
HIER
1070
     0
1002
}
1002
{
1000
MANEDIT
1070
     0
1002
}
1002
{
1000
NOSEL
1070
     0
1002
}
1002
{
1000
BEHIND
1070
     0
1002
}
1002
{
1000
OTHER
1070
     0
1002
}
1002
{
1000
REACTOR
1002
}
  0
LINE
  5
6344
330
1F
100
AcDbEntity
  8
CENTER
  6
CENTER
100
AcDbLine
 10
819.622070148641
 20
598.9736276554448
 30
0.0
 11
862.8698533954635
 21
598.9736276554448
 31
0.0
  0
TEXT
  5
6345
330
1F
100
AcDbEntity
  8
DIM
100
AcDbText
 10
814.3490389077188
 20
642.7336526420482
 30
0.0
 40
3.571428571428572
  1
Front view and mounting
100
AcDbText
  0
LINE
  5
6346
330
1F
100
AcDbEntity
  8
SPEC
100
AcDbLine
 10
820.8203059251795
 20
581.9736276554448
 30
0.0
 11
820.8203059251795
 21
615.9736276554444
 31
0.0
  0
LINE
  5
6347
330
1F
100
AcDbEntity
  8
SPEC
100
AcDbLine
 10
823.8203059251794
 20
618.9736276554445
 30
0.0
 11
820.8203059251795
 21
615.9736276554444
 31
0.0
1001
GENIUS_GENFIL_13
1070
     0
1040
3.0
1040
3.0
1040
3.5
1040
45.0
1002
{
1002
}
1001
GENIUS_GENOBJ-N-CHA_13
1002
{
1000
OWNER
1000
GEN
1002
}
1001
GENIUS_GENODEF_13
1002
{
1000
HIER
1070
     0
1002
}
1002
{
1000
MANEDIT
1070
     0
1002
}
1002
{
1000
NOSEL
1070
     0
1002
}
1002
{
1000
BEHIND
1070
     0
1002
}
1002
{
1000
OTHER
1070
     0
1002
}
1002
{
1000
REACTOR
1002
}
  0
LINE
  5
6348
330
1F
100
AcDbEntity
  8
CENTER
100
AcDbLine
 10
827.6298297347032
 20
583.4736276554448
 30
0.0
 11
823.0107821156554
 21
583.4736276554448
 31
0.0
  0
CIRCLE
  5
6349
330
1F
100
AcDbEntity
  8
SPEC
  6
HIDDEN
100
AcDbCircle
 10
825.3203059251793
 20
583.4736276554448
 30
0.0
 40
1.904761904761905
  0
CIRCLE
  5
634A
330
1F
100
AcDbEntity
  8
SPEC
100
AcDbCircle
 10
825.3203059251793
 20
583.4736276554448
 30
0.0
 40
1.428571428571429
  0
LINE
  5
634B
330
1F
100
AcDbEntity
  8
CENTER
100
AcDbLine
 10
825.3203059251793
 20
581.1641038459209
 30
0.0
 11
825.3203059251793
 21
585.7831514649687
 31
0.0
  0
LINE
  5
634C
102
{ACAD_REACTORS
330
63AD
102
}
330
1F
100
AcDbEntity
  8
CENTER
100
AcDbLine
 10
825.3203059251793
 20
612.1641038459212
 30
0.0
 11
825.3203059251793
 21
616.7831514649686
 31
0.0
  0
CIRCLE
  5
634D
330
1F
100
AcDbEntity
  8
SPEC
100
AcDbCircle
 10
825.3203059251793
 20
614.4736276554448
 30
0.0
 40
1.428571428571429
  0
CIRCLE
  5
634E
330
1F
100
AcDbEntity
  8
SPEC
  6
HIDDEN
100
AcDbCircle
 10
825.3203059251793
 20
614.4736276554448
 30
0.0
 40
1.904761904761905
  0
LINE
  5
634F
330
1F
100
AcDbEntity
  8
CENTER
100
AcDbLine
 10
827.6298297347032
 20
614.4736276554448
 30
0.0
 11
823.0107821156554
 21
614.4736276554448
 31
0.0
  0
DIMENSION
  5
6350
330
1F
100
AcDbEntity
  8
DIM
100
AcDbDimension
  2
*D9
 10
934.1956509364857
 20
624.4812909167148
 30
0.0
 11
922.6981195910688
 21
624.4812909167148
 31
0.0
 70
   160
 71
     5
 42
2.004761904761949
  3
STANDARD
100
AcDbAlignedDimension
 13
932.1908890317237
 23
609.9736276554448
 33
0.0
 14
934.1956509364857
 24
619.9736276554447
 34
0.0
100
AcDbRotatedDimension
1001
ACAD
1000
DSTYLE
1002
{
1070
    40
1040
1.0
1002
}
  0
TOLERANCE
  5
6351
330
1F
100
AcDbEntity
  8
DIM
100
AcDbFcf
  3
STANDARD
 10
893.2731467132954
 20
610.7083414746942
 30
0.0
  1
{\Fgdt;r}%%v0.075%%v%%vA%%v%%v
 11
0.0000000000000001
 21
1.0
 31
0.0
1001
ACAD
1000
DSTYLE
1002
{
1070
   147
1040
0.9523809523809527
1002
}
  0
TOLERANCE
  5
6352
330
1F
100
AcDbEntity
  8
DIM
100
AcDbFcf
  3
STANDARD
 10
900.7390708005997
 20
618.8825277931507
 30
0.0
  1
{\Fgdt;h}%%v0.05%%v%%v%%v%%v
 11
0.0000000000000001
 21
1.0
 31
0.0
1001
ACAD
1000
DSTYLE
1002
{
1070
   147
1040
0.9523809523809527
1002
}
  0
DIMENSION
  5
6353
330
1F
100
AcDbEntity
  8
DIM
100
AcDbDimension
  2
*D10
 10
934.1956509364857
 20
630.473490142023
 30
0.0
 11
921.2758472724429
 21
630.473490142023
 31
0.0
 70
   160
  1
<>
 71
     5
 42
24.0
  3
STANDARD
100
AcDbAlignedDimension
 13
910.1956509364857
 23
601.4736276554448
 33
0.0
 14
934.1956509364857
 24
619.9736276554447
 34
0.0
100
AcDbRotatedDimension
1001
ACAD
1000
DSTYLE
1002
{
1070
   340
1005
11
1070
   146
1040
0.8
1070
   284
1070
     8
1070
    47
1040
0.5
1070
   147
1040
1.0
1070
    48
1040
0.5
1070
    72
1070
     0
1070
    71
1070
     1
1070
    78
1070
     8
1070
   144
1040
1.0
1070
    40
1040
1.0
1002
}
  0
DIMENSION
  5
6354
330
1F
100
AcDbEntity
  8
DIM
100
AcDbDimension
  2
*D11
 10
896.2731467132956
 20
609.9736276554448
 30
0.0
 11
896.2731467132956
 21
570.6404892158944
 31
0.0
 70
   160
  1
%%c<>
 71
     5
 42
22.0
  3
STANDARD
100
AcDbAlignedDimension
 13
932.2908890317236
 23
587.9736276554448
 33
0.0
 14
932.2908890317236
 24
609.9736276554448
 34
0.0
 50
90.0
100
AcDbRotatedDimension
1001
ACAD
1000
DSTYLE
1002
{
1070
    40
1040
1.0
1070
    48
1040
0.033
1070
    71
1070
     1
1070
   144
1040
1.0
1070
   272
1070
     3
1002
}
  0
LINE
  5
6355
330
1F
100
AcDbEntity
  8
SPEC
100
AcDbLine
 10
841.8679249727984
 20
570.3819448417807
 30
0.0
 11
841.8679249727984
 21
578.9736276554444
 31
0.0
  0
LINE
  5
6356
330
1F
100
AcDbEntity
  8
SPEC
100
AcDbLine
 10
840.8203059251793
 20
570.3706057303115
 30
0.0
 11
840.8203059251794
 21
578.9736276554444
 31
0.0
  0
LINE
  5
6357
330
1F
100
AcDbEntity
  8
SPEC
100
AcDbLine
 10
839.7726868775604
 20
570.0675521904281
 30
0.0
 11
839.7726868775604
 21
578.9736276554444
 31
0.0
  0
LINE
  5
6358
330
1F
100
AcDbEntity
  8
FRAME
100
AcDbLine
 10
844.5976437484697
 20
571.17159399679
 30
0.0
 11
841.565128485773
 21
570.2943523057838
 31
0.0
  0
LINE
  5
6359
330
1F
100
AcDbEntity
  8
FRAME
100
AcDbLine
 10
841.565128485773
 20
570.2943523057838
 30
0.0
 11
841.2459160072716
 21
570.4937255249367
 31
0.0
  0
LINE
  5
635A
330
1F
100
AcDbEntity
  8
FRAME
100
AcDbLine
 10
841.2459160072716
 20
570.4937255249367
 30
0.0
 11
838.2134007445749
 21
569.6164844255126
 31
0.0
  0
LINE
  5
635B
330
1F
100
AcDbEntity
  8
CENTER
  6
CENTER
100
AcDbLine
 10
840.8203059251793
 20
577.8181293692249
 30
0.0
 11
840.8203059251793
 21
620.3840145529165
 31
0.0
  0
LINE
  5
635C
330
1F
100
AcDbEntity
  8
SPEC
100
AcDbLine
 10
860.8203059251792
 20
615.9736276554446
 30
0.0
 11
860.8203059251794
 21
581.9736276554441
 31
0.0
  0
LINE
  5
635D
330
1F
100
AcDbEntity
  8
SPEC
100
AcDbLine
 10
857.8203059251794
 20
578.9736276554442
 30
0.0
 11
860.8203059251794
 21
581.9736276554441
 31
0.0
1001
GENIUS_GENFIL_13
1070
     0
1040
3.0
1040
3.0
1040
3.5
1040
45.0
1002
{
1002
}
1001
GENIUS_GENOBJ-N-CHA_13
1002
{
1000
OWNER
1000
GEN
1002
}
1001
GENIUS_GENODEF_13
1002
{
1000
HIER
1070
     0
1002
}
1002
{
1000
MANEDIT
1070
     0
1002
}
1002
{
1000
NOSEL
1070
     0
1002
}
1002
{
1000
BEHIND
1070
     0
1002
}
1002
{
1000
OTHER
1070
     0
1002
}
1002
{
1000
REACTOR
1002
}
  0
LINE
  5
635E
330
1F
100
AcDbEntity
  8
CENTER
100
AcDbLine
 10
854.0107821156553
 20
583.4736276554448
 30
0.0
 11
858.6298297347031
 21
583.4736276554448
 31
0.0
  0
CIRCLE
  5
635F
330
1F
100
AcDbEntity
  8
SPEC
  6
HIDDEN
100
AcDbCircle
 10
856.3203059251794
 20
583.4736276554448
 30
0.0
 40
1.904761904761905
  0
CIRCLE
  5
6360
330
1F
100
AcDbEntity
  8
SPEC
100
AcDbCircle
 10
856.3203059251794
 20
583.4736276554448
 30
0.0
 40
1.428571428571429
  0
LINE
  5
6361
330
1F
100
AcDbEntity
  8
CENTER
100
AcDbLine
 10
856.3203059251794
 20
581.1641038459209
 30
0.0
 11
856.3203059251794
 21
585.7831514649687
 31
0.0
  0
CIRCLE
  5
6362
102
{ACAD_REACTORS
330
63AD
102
}
330
1F
100
AcDbEntity
  8
SPEC
  6
HIDDEN
100
AcDbCircle
 10
856.3203059251794
 20
614.4736276554448
 30
0.0
 40
1.904761904761905
  0
CIRCLE
  5
6363
330
1F
100
AcDbEntity
  8
SPEC
100
AcDbCircle
 10
856.3203059251794
 20
614.4736276554448
 30
0.0
 40
1.428571428571429
  0
LINE
  5
6364
102
{ACAD_REACTORS
330
63AD
102
}
330
1F
100
AcDbEntity
  8
CENTER
100
AcDbLine
 10
856.3203059251794
 20
612.1641038459212
 30
0.0
 11
856.3203059251794
 21
616.7831514649686
 31
0.0
  0
LINE
  5
6365
330
1F
100
AcDbEntity
  8
CENTER
100
AcDbLine
 10
854.0107821156553
 20
614.4736276554448
 30
0.0
 11
858.6298297347031
 21
614.4736276554448
 31
0.0
  0
LINE
  5
6366
330
1F
100
AcDbEntity
  8
SPEC
100
AcDbLine
 10
963.0051747460097
 20
564.8320475275149
 30
0.0
 11
963.0051747460099
 21
577.9736276554451
 31
0.0
  0
LINE
  5
6367
330
1F
100
AcDbEntity
  8
SPEC
100
AcDbLine
 10
961.9575556983908
 20
564.5289939876312
 30
0.0
 11
961.9575556983908
 21
577.9736276554451
 31
0.0
  0
DIMENSION
  5
6368
330
1F
100
AcDbEntity
  8
DIM
100
AcDbDimension
  2
*D12
 10
903.7390708005998
 20
601.4736276554448
 30
0.0
 11
903.7390708005998
 21
573.6162574174601
 31
0.0
 70
   160
  1
%%c<>
 71
     5
 42
5.000000000000227
  3
STANDARD
100
AcDbAlignedDimension
 13
910.1956509364857
 23
596.4736276554446
 33
0.0
 14
910.1956509364857
 24
601.4736276554448
 34
0.0
 50
90.0
100
AcDbRotatedDimension
1001
ACAD
1000
DSTYLE
1002
{
1070
   272
1070
     3
1070
    48
1040
0.013
1070
   147
1040
1.0
1070
    72
1070
     0
1070
    71
1070
     1
1070
    40
1040
1.0
1002
}
  0
LINE
  5
6369
330
1F
100
AcDbEntity
  8
SPEC
100
AcDbLine
 10
963.0051747460099
 20
555.1190213248568
 30
0.0
 11
963.0051747460099
 21
563.6681267825411
 31
0.0
  0
LINE
  5
636A
330
1F
100
AcDbEntity
  8
SPEC
100
AcDbLine
 10
961.9575556983905
 20
555.1190213248568
 30
0.0
 11
961.9575556983905
 21
563.3650732426578
 31
0.0
  0
LINE
  5
636B
330
1F
100
AcDbEntity
  8
FRAME
100
AcDbLine
 10
963.7499973066034
 20
564.7557941029871
 30
0.0
 11
963.430784828102
 21
564.9551673221398
 31
0.0
  0
LINE
  5
636C
330
1F
100
AcDbEntity
  8
FRAME
100
AcDbLine
 10
963.430784828102
 20
563.7912465771661
 30
0.0
 11
960.3982695654051
 21
562.9140054777423
 31
0.0
  0
LINE
  5
636D
330
1F
100
AcDbEntity
  8
FRAME
100
AcDbLine
 10
963.430784828102
 20
564.9551673221398
 30
0.0
 11
960.3982695654051
 21
564.077926222716
 31
0.0
  0
LINE
  5
636E
330
1F
100
AcDbEntity
  8
SPEC
100
AcDbLine
 10
910.1956509364857
 20
596.4736276554446
 30
0.0
 11
932.1908890317237
 21
596.4736276554448
 31
0.0
  0
TOLERANCE
  5
636F
330
1F
100
AcDbEntity
  8
DIM
100
AcDbFcf
  3
STANDARD
 10
905.2562682044612
 20
582.1421462630468
 30
0.0
  1
{\Fgdt;b}%%v0.1%%v%%vA%%v%%v
1001
ACAD
1000
DSTYLE
1002
{
1070
   147
1040
0.9523809523809527
1002
}
  0
LINE
  5
6370
330
1F
100
AcDbEntity
  8
SPEC
100
AcDbLine
 10
910.1956509364857
 20
601.4736276554448
 30
0.0
 11
932.1908890317237
 21
601.4736276554448
 31
0.0
  0
LINE
  5
6371
330
1F
100
AcDbEntity
  8
SPEC
100
AcDbLine
 10
910.1956509364857
 20
601.4736276554448
 30
0.0
 11
910.1956509364857
 21
596.4736276554446
 31
0.0
  0
LINE
  5
6372
330
1F
100
AcDbEntity
  8
DIM
100
AcDbLine
 10
903.7390708005998
 20
606.2704577116434
 30
0.0
 11
903.7390708005998
 21
618.8825277931507
 31
0.0
  0
LINE
  5
6373
330
1F
100
AcDbEntity
  8
DIM
100
AcDbLine
 10
896.2731467132956
 20
610.7083414746942
 30
0.0
 11
896.2731467132956
 21
607.3545800363971
 31
0.0
  0
TOLERANCE
  5
6374
330
1F
100
AcDbEntity
  8
DIM
100
AcDbFcf
  3
STANDARD
 10
921.9996694598215
 20
614.8852112068233
 30
0.0
  1
%%v%%v%%vA%%v%%v
1001
ACAD
1000
DSTYLE
1002
{
1070
   147
1040
0.9523809523809527
1002
}
  0
LEADER
  5
6375
330
1F
100
AcDbEntity
  8
DIM
100
AcDbLeader
  3
STANDARD
 76
     2
 10
925.0205612774056
 20
601.4736276554448
 30
0.0
 10
925.0205612774056
 20
611.8852112068233
 30
0.0
210
0.0
220
0.0
230
-1.0
1001
ACAD
1000
DSTYLE
1002
{
1070
   341
1005
2FB
1070
    40
1040
1.0
1070
    77
1070
     0
1002
}
  0
LINE
  5
6376
330
1F
100
AcDbEntity
  8
SPEC
100
AcDbLine
 10
956.8956509364857
 20
606.1437043635422
 30
0.0
 11
956.8956509364857
 21
591.8035509473475
 31
0.0
  0
LINE
  5
6377
330
1F
100
AcDbEntity
  8
SPEC
100
AcDbLine
 10
943.4956509364855
 20
605.9736276554446
 30
0.0
 11
943.4956509364855
 21
591.9764853816304
 31
0.0
  0
LINE
  5
6378
330
1F
100
AcDbEntity
  8
SPEC
100
AcDbLine
 10
934.1956509364857
 20
619.9736276554447
 30
0.0
 11
934.1956509364857
 21
577.9736276554447
 31
0.0
  0
LINE
  5
6379
330
1F
100
AcDbEntity
  8
SPEC
100
AcDbLine
 10
932.1908890317237
 20
587.9736276554448
 30
0.0
 11
932.1908890317237
 21
609.9736276554448
 31
0.0
  0
LEADER
  5
637A
330
1F
100
AcDbEntity
  8
DIM
100
AcDbLeader
  3
STANDARD
 76
     2
 10
934.1956509364857
 20
581.8307705125874
 30
0.0
 10
927.9465819834518
 20
581.8307705125874
 30
0.0
1001
ACAD
1000
DSTYLE
1002
{
1070
    40
1040
1.0
1070
    77
1070
     0
1002
}
  0
LINE
  5
637B
330
1F
100
AcDbEntity
  8
SPEC
100
AcDbLine
 10
946.1956509364858
 20
591.4736276554448
 30
0.0
 11
946.1956509364856
 21
577.9736276554447
 31
0.0
  0
LINE
  5
637C
330
1F
100
AcDbEntity
  8
SPEC
100
AcDbLine
 10
932.1908890317237
 20
587.9736276554448
 30
0.0
 11
934.1956509364857
 21
587.9736276554448
 31
0.0
  0
LINE
  5
637D
330
1F
100
AcDbEntity
  8
SPEC
100
AcDbLine
 10
954.6956509364854
 20
591.4736276554448
 30
0.0
 11
954.6956509364855
 21
577.9736276554448
 31
0.0
  0
LINE
  5
637E
330
1F
100
AcDbEntity
  8
SPEC
100
AcDbLine
 10
932.1908890317237
 20
609.9736276554448
 30
0.0
 11
934.1956509364857
 21
609.9736276554448
 31
0.0
  0
LINE
  5
637F
330
1F
100
AcDbEntity
  8
SPEC
100
AcDbLine
 10
934.1956509364857
 20
615.9172842855824
 30
0.0
 11
946.1956509364858
 21
615.9172842855824
 31
0.0
  0
LINE
  5
6380
330
1F
100
AcDbEntity
  8
SPEC
100
AcDbLine
 10
946.1956509364856
 20
619.9736276554447
 30
0.0
 11
946.1956509364854
 21
606.4736276554448
 31
0.0
  0
LINE
  5
6381
330
1F
100
AcDbEntity
  8
SPEC
100
AcDbLine
 10
954.6956509364855
 20
619.9736276554448
 30
0.0
 11
954.6956509364857
 21
606.4736276554448
 31
0.0
  0
TEXT
  5
6382
330
1F
100
AcDbEntity
  8
DIM
100
AcDbText
 10
939.6644248537084
 20
642.7336526420482
 30
0.0
 40
3.571428571428572
  1
Side view
100
AcDbText
  0
LEADER
  5
6383
330
1F
100
AcDbEntity
  8
DIM
  6
ACISOTGL
100
AcDbLeader
  3
STANDARD
 76
     3
 10
1063.672704156903
 20
598.9736276554448
 30
0.0
 10
1076.703848868337
 20
624.0806759576741
 30
0.0
 10
1092.772504031188
 20
624.0806759576741
 30
0.0
1001
ACAD
1000
DSTYLE
1002
{
1070
    40
1040
1.0
1070
    77
1070
     0
1002
}
  0
DIMENSION
  5
6384
330
1F
100
AcDbEntity
  8
DIM
  6
ACISOTGL
100
AcDbDimension
  2
*D13
 10
1063.672704156903
 20
624.078756087731
 30
0.0
 11
1054.198820183716
 21
624.078756087731
 31
0.0
 70
   160
 71
     5
 42
19.05000000000018
  3
STANDARD
100
AcDbAlignedDimension
 13
1044.622704156902
 23
598.9736276554449
 33
0.0
 14
1063.672704156903
 24
598.9736276554447
 34
0.0
100
AcDbRotatedDimension
1001
ACAD
1000
DSTYLE
1002
{
1070
    40
1040
1.0
1002
}
  0
DIMENSION
  5
6385
330
1F
100
AcDbEntity
  8
DIM
  6
ACISOTGL
100
AcDbDimension
  2
*D14
 10
967.1956509364855
 20
630.3100118187212
 30
0.0
 11
973.5265966784108
 21
630.3100118187212
 31
0.0
 70
   160
  1
<>
 71
     5
 42
13.49714285714276
  3
STANDARD
100
AcDbAlignedDimension
 13
980.6927937936283
 23
601.354580041159
 33
0.0
 14
967.1956509364855
 24
619.9736276554448
 34
0.0
 50
180.0
100
AcDbRotatedDimension
1001
ACAD
1000
DSTYLE
1002
{
1070
    47
1040
1.0
1070
    48
1040
1.0
1070
    71
1070
     1
1002
}
  0
DIMENSION
  5
6386
330
1F
100
AcDbEntity
  8
DIM
  6
ACISOTGL
100
AcDbDimension
  2
*D15
 10
991.1653438047085
 20
601.473627655445
 30
0.0
 11
991.1653438047085
 21
621.83236214991
 31
0.0
 70
   160
  1
%%c<>
 71
     5
 42
5.000000000000341
  3
STANDARD
100
AcDbAlignedDimension
 13
980.6927937936283
 23
596.4736276554447
 33
0.0
 14
980.6927937936283
 24
601.473627655445
 34
0.0
 50
90.0
100
AcDbRotatedDimension
1001
ACAD
1000
DSTYLE
1002
{
1070
   146
1040
0.8
1070
   284
1070
     8
1070
   272
1070
     3
1070
    48
1040
0.013
1070
   147
1040
1.0
1070
    72
1070
     0
1070
    71
1070
     1
1070
    78
1070
     8
1070
   144
1040
1.0
1070
    40
1040
1.0
1002
}
  0
MTEXT
  5
6387
102
{ACAD_REACTORS
330
6390
102
}
330
1F
100
AcDbEntity
  8
SPEC
  6
HIDDEN
 62
     6
100
AcDbMText
 10
983.2077856782847
 20
586.8209606298343
 30
0.0
 40
3.0
 41
54.2857142857143
 71
     1
 72
     1
  1
(only for type \PSH4018S1204-B\PReady for encoder +\Pdriver mount)
 73
     1
 44
1.0
1001
ACAD
1000
ACAD_MTEXT_DEFINED_HEIGHT_BEGIN
1070
    46
1040
0.0
1000
ACAD_MTEXT_DEFINED_HEIGHT_END
1000
MTEXTBEGIN
1070
    73
1070
     1
1070
    44
1040
1.0
1070
    74
1070
     0
1000
MTEXTEND
  0
LINE
  5
6388
330
1F
100
AcDbEntity
  8
SPEC
100
AcDbLine
 10
965.1004128412477
 20
565.1464403832366
 30
0.0
 11
965.1004128412477
 21
577.9736276554451
 31
0.0
  0
LINE
  5
6389
330
1F
100
AcDbEntity
  8
SPEC
100
AcDbLine
 10
964.0527937936289
 20
564.843386638984
 30
0.0
 11
964.0527937936289
 21
577.9736276554451
 31
0.0
  0
LINE
  5
638A
330
1F
100
AcDbEntity
  8
SPEC
100
AcDbLine
 10
964.0527937936289
 20
555.1190213248568
 30
0.0
 11
964.0527937936289
 21
563.4477752880797
 31
0.0
  0
LINE
  5
638B
330
1F
100
AcDbEntity
  8
SPEC
100
AcDbLine
 10
965.1004128412477
 20
555.1190213248568
 30
0.0
 11
965.1004128412477
 21
563.7508290323323
 31
0.0
  0
LINE
  5
638C
330
1F
100
AcDbEntity
  8
FRAME
100
AcDbLine
 10
966.7825125693001
 20
564.2374244430888
 30
0.0
 11
964.0035277960036
 21
563.433523690537
 31
0.0
  0
LINE
  5
638D
330
1F
100
AcDbEntity
  8
SPEC
100
AcDbLine
 10
967.1956509364857
 20
577.9736276554448
 30
0.0
 11
967.1956509364855
 21
619.9736276554448
 31
0.0
  0
LINE
  5
638E
330
1F
100
AcDbEntity
  8
SPEC
  6
ACISOTGL
100
AcDbLine
 10
980.6927937936283
 20
601.473627655445
 30
0.0
 11
980.6927937936283
 21
596.4736276554447
 31
0.0
  0
LINE
  5
638F
330
1F
100
AcDbEntity
  8
SPEC
  6
ACISOTGL
100
AcDbLine
 10
980.6927937936283
 20
596.4736276554447
 30
0.0
 11
967.1956509364855
 21
596.4736276554449
 31
0.0
  0
LEADER
  5
6390
330
1F
100
AcDbEntity
  8
SPEC
  6
ACISOTGL
100
AcDbLeader
  3
STANDARD
 73
     0
 40
9.356980445657114
 41
37.73124147339699
 76
     3
 10
973.8591794735727
 20
599.1291393843469
 30
0.0
 10
979.8530702020531
 20
585.9138430006879
 30
0.0
 10
982.3311029424059
 20
585.9138430006879
 30
0.0
213
-2.423850538799245
223
-1.208600593008168
233
0.0
1001
ACAD
1000
DSTYLE
1002
{
1070
    40
1040
1.0
1070
    77
1070
     0
1002
}
  0
LINE
  5
6391
330
1F
100
AcDbEntity
  8
SPEC
  6
ACISOTGL
100
AcDbLine
 10
980.6927937936283
 20
601.473627655445
 30
0.0
 11
967.1956509364855
 21
601.4736276554449
 31
0.0
  0
LINE
  5
6392
330
1F
100
AcDbEntity
  8
SPEC
100
AcDbLine
 10
1054.147704156902
 20
570.3706057303118
 30
0.0
 11
1054.147704156902
 21
578.9736276554449
 31
0.0
  0
LINE
  5
6393
330
1F
100
AcDbEntity
  8
SPEC
100
AcDbLine
 10
1055.195323204521
 20
570.3819448417812
 30
0.0
 11
1055.195323204521
 21
578.9736276554449
 31
0.0
  0
LINE
  5
6394
330
1F
100
AcDbEntity
  8
SPEC
100
AcDbLine
 10
1053.100085109283
 20
570.0675521904286
 30
0.0
 11
1053.100085109283
 21
578.9736276554449
 31
0.0
  0
LINE
  5
6395
330
1F
100
AcDbEntity
  8
FRAME
100
AcDbLine
 10
1057.925041980193
 20
571.1715939967903
 30
0.0
 11
1054.892526717496
 21
570.2943523057842
 31
0.0
  0
LINE
  5
6396
330
1F
100
AcDbEntity
  8
FRAME
100
AcDbLine
 10
1054.892526717496
 20
570.2943523057842
 30
0.0
 11
1054.573314238994
 21
570.4937255249369
 31
0.0
  0
LINE
  5
6397
330
1F
100
AcDbEntity
  8
FRAME
100
AcDbLine
 10
1054.573314238994
 20
570.4937255249369
 30
0.0
 11
1051.540798976298
 21
569.6164844255131
 31
0.0
  0
CIRCLE
  5
6398
330
1F
100
AcDbEntity
  8
CENTER
  6
CENTER
100
AcDbCircle
 10
1054.147704156902
 20
598.9736276554447
 30
0.0
 40
9.52500000000009
  0
LINE
  5
6399
330
1F
100
AcDbEntity
  8
CENTER
  6
CENTER
100
AcDbLine
 10
1032.949468380364
 20
598.9736276554447
 30
0.0
 11
1076.197251627186
 21
598.9736276554449
 31
0.0
  0
LINE
  5
639A
330
1F
100
AcDbEntity
  8
CENTER
  6
CENTER
100
AcDbLine
 10
1054.147704156902
 20
577.818129369225
 30
0.0
 11
1054.147704156902
 21
619.974831600766
 31
0.0
  0
LEADER
  5
639B
330
1F
100
AcDbEntity
  8
DIM
  6
ACISOTGL
100
AcDbLeader
  3
STANDARD
 76
     3
 10
1044.622704156902
 20
598.9736276554447
 30
0.0
 10
1031.130517597368
 20
575.2146599624154
 30
0.0
 10
1021.84126132938
 20
575.2146599624154
 30
0.0
1001
ACAD
1000
DSTYLE
1002
{
1070
    40
1040
1.0
1070
    77
1070
     0
1002
}
  0
CIRCLE
  5
639C
330
1F
100
AcDbEntity
  8
AM_5
  6
ACISOTGL
100
AcDbCircle
 10
1044.622704156902
 20
598.9736276554448
 30
0.0
 40
1.190476190476191
  0
CIRCLE
  5
639D
330
1F
100
AcDbEntity
  8
SPEC
  6
ACISOWELD
100
AcDbCircle
 10
1044.622704156902
 20
598.9736276554451
 30
0.0
 40
0.9523809523809527
  0
CIRCLE
  5
639E
330
1F
100
AcDbEntity
  8
SPEC
100
AcDbCircle
 10
1038.647704156903
 20
614.4736276554448
 30
0.0
 40
2.500000000000001
  0
LWPOLYLINE
  5
639F
330
1F
100
AcDbEntity
  8
SPEC
100
AcDbPolyline
 90
        5
 70
     0
 43
0.0
 10
1039.523169695514
 20
614.8103451702958
 10
1039.523169695514
 20
614.8103451702958
 42
0.4142135623730998
 10
1039.523169695514
 20
614.1369101405943
 10
1040.095589470761
 20
613.564490365348
 10
1040.095589470761
 20
613.564490365348
  0
LWPOLYLINE
  5
63A0
330
1F
100
AcDbEntity
  8
SPEC
100
AcDbPolyline
 90
        7
 70
     0
 43
0.0
 10
1037.199818843044
 20
613.564490365348
 10
1037.199818843044
 20
613.564490365348
 10
1037.199818843044
 20
613.564490365348
 10
1037.772238618291
 20
614.136910140594
 42
0.4142135623730998
 10
1037.772238618291
 20
614.8103451702958
 10
1037.199818843044
 20
615.3827649455418
 10
1037.738566866805
 20
615.9215129693031
  0
LINE
  5
63A1
330
1F
100
AcDbEntity
  8
SPEC
100
AcDbLine
 10
1039.556841447
 20
613.0257423415867
 30
0.0
 11
1040.095589470761
 21
613.564490365348
 31
0.0
  0
LINE
  5
63A2
330
1F
100
AcDbEntity
  8
SPEC
100
AcDbLine
 10
1037.738566866805
 20
613.0257423415867
 30
0.0
 11
1038.310986642052
 21
613.5981621168331
 31
0.0
  0
LINE
  5
63A3
330
1F
100
AcDbEntity
  8
SPEC
100
AcDbLine
 10
1037.199818843044
 20
613.564490365348
 30
0.0
 11
1037.738566866805
 21
613.0257423415867
 31
0.0
  0
LWPOLYLINE
  5
63A4
330
1F
100
AcDbEntity
  8
SPEC
100
AcDbPolyline
 90
        3
 70
     0
 43
0.0
 10
1038.310986642052
 20
613.5981621168331
 42
-0.4142135623731186
 10
1038.984421671753
 20
613.5981621168331
 10
1039.556841447
 20
613.0257423415867
  0
LWPOLYLINE
  5
63A5
330
1F
100
AcDbEntity
  8
SPEC
100
AcDbPolyline
 90
        7
 70
     0
 43
0.0
 10
1039.523169695514
 20
614.8103451702958
 10
1040.095589470761
 20
615.3827649455418
 10
1039.556841446999
 20
615.9215129693031
 10
1038.984421671753
 20
615.3490931940569
 42
-0.4142135623730998
 10
1038.310986642052
 20
615.3490931940569
 10
1037.738566866805
 20
615.9215129693031
 10
1037.199818843044
 20
615.3827649455418
  0
CIRCLE
  5
63A6
330
1F
100
AcDbEntity
  8
AM_5
  6
ACISOTGL
100
AcDbCircle
 10
1063.672704156903
 20
598.9736276554449
 30
0.0
 40
1.190476190476191
  0
CIRCLE
  5
63A7
330
1F
100
AcDbEntity
  8
SPEC
  6
ACISOWELD
100
AcDbCircle
 10
1063.672704156903
 20
598.9736276554449
 30
0.0
 40
0.9523809523809527
  0
TEXT
  5
63A8
330
1F
100
AcDbEntity
  8
DIM
100
AcDbText
 10
1043.403936524976
 20
642.7336526420483
 30
0.0
 40
3.571428571428572
  1
Rear view
100
AcDbText
  0
CIRCLE
  5
63A9
330
1F
100
AcDbEntity
  8
SPEC
100
AcDbCircle
 10
840.8203059251793
 20
598.9736276554448
 30
0.0
 40
11.0
  0
CIRCLE
  5
63AA
330
1F
100
AcDbEntity
  8
SPEC
100
AcDbCircle
 10
840.8203059251793
 20
598.9736276554448
 30
0.0
 40
2.5
  0
DIMENSION
  5
63AB
102
{ACAD_XDICTIONARY
360
63AC
102
}
102
{ACAD_REACTORS
330
63AD
102
}
330
1F
100
AcDbEntity
  8
AM_5
100
AcDbDimension
  2
*D17
 10
856.3203059251794
 20
624.2020236471233
 30
0.0
 11
838.9443623855452
 21
624.2020236471233
 31
0.0
 70
   160
  1
{\Famgdt;o} <>
 71
     5
 42
31.0
  3
STANDARD$0
100
AcDbAlignedDimension
 13
825.3203059251793
 23
616.7831514649686
 33
0.0
 14
856.3203059251794
 24
616.3783895602067
 34
0.0
100
AcDbRotatedDimension
1001
ACAD
1000
DSTYLE
1002
{
1070
   147
1040
1.0
1070
    72
1070
     0
1070
    71
1070
     1
1070
    47
1040
0.2
1070
    48
1040
0.2
1070
   272
1070
     1
1002
}
  0
DIMENSION
  5
63AE
330
1F
100
AcDbEntity
  8
AM_5
100
AcDbDimension
  2
*D16
 10
860.8203059251792
 20
630.2149793752745
 30
0.0
 11
839.7298622605001
 21
630.2149793752745
 31
0.0
 70
   160
  1
{\Famgdt;o} <>
 71
     5
 42
39.99999999999977
  3
STANDARD$0
100
AcDbAlignedDimension
 13
820.8203059251795
 23
615.9736276554444
 33
0.0
 14
860.8203059251792
 24
615.9736276554446
 34
0.0
100
AcDbRotatedDimension
1001
ACAD
1000
DSTYLE
1002
{
1070
    47
1040
0.2
1070
    48
1040
-0.2
1070
   272
1070
     1
1002
}
  0
CIRCLE
  5
63AF
330
1F
100
AcDbEntity
  8
SPEC
  6
ACISOWELD
100
AcDbCircle
 10
1054.147704156902
 20
598.9736276554448
 30
0.0
 40
2.5
  0
LINE
  5
63B0
330
1F
100
AcDbEntity
  8
CENTER
100
AcDbLine
 10
1038.647704156903
 20
612.1641038459212
 30
0.0
 11
1038.647704156903
 21
616.7831514649686
 31
0.0
  0
LINE
  5
63B1
330
1F
100
AcDbEntity
  8
CENTER
100
AcDbLine
 10
1040.957227966426
 20
614.4736276554448
 30
0.0
 11
1036.338180347379
 21
614.4736276554448
 31
0.0
  0
CIRCLE
  5
63B2
330
1F
100
AcDbEntity
  8
SPEC
100
AcDbCircle
 10
1069.647704156902
 20
614.4736276554448
 30
0.0
 40
2.5
  0
LWPOLYLINE
  5
63B3
330
1F
100
AcDbEntity
  8
SPEC
100
AcDbPolyline
 90
        5
 70
     0
 43
0.0
 10
1068.772238618291
 20
614.8103451702958
 10
1068.772238618291
 20
614.8103451702958
 42
-0.4142135623730998
 10
1068.772238618291
 20
614.1369101405943
 10
1068.199818843044
 20
613.564490365348
 10
1068.199818843044
 20
613.564490365348
  0
LWPOLYLINE
  5
63B4
330
1F
100
AcDbEntity
  8
SPEC
100
AcDbPolyline
 90
        7
 70
     0
 43
0.0
 10
1071.095589470761
 20
613.564490365348
 10
1071.095589470761
 20
613.564490365348
 10
1071.095589470761
 20
613.564490365348
 10
1070.523169695514
 20
614.136910140594
 42
-0.4142135623730998
 10
1070.523169695514
 20
614.8103451702958
 10
1071.095589470761
 20
615.3827649455418
 10
1070.556841446999
 20
615.9215129693031
  0
LINE
  5
63B5
330
1F
100
AcDbEntity
  8
SPEC
100
AcDbLine
 10
1068.738566866805
 20
613.0257423415867
 30
0.0
 11
1068.199818843044
 21
613.564490365348
 31
0.0
  0
LINE
  5
63B6
330
1F
100
AcDbEntity
  8
SPEC
100
AcDbLine
 10
1070.556841446999
 20
613.0257423415867
 30
0.0
 11
1069.984421671753
 21
613.5981621168331
 31
0.0
  0
LINE
  5
63B7
330
1F
100
AcDbEntity
  8
SPEC
100
AcDbLine
 10
1071.095589470761
 20
613.564490365348
 30
0.0
 11
1070.556841446999
 21
613.0257423415867
 31
0.0
  0
LWPOLYLINE
  5
63B8
330
1F
100
AcDbEntity
  8
SPEC
100
AcDbPolyline
 90
        3
 70
     0
 43
0.0
 10
1069.984421671753
 20
613.5981621168331
 42
0.4142135623731186
 10
1069.310986642052
 20
613.5981621168331
 10
1068.738566866805
 20
613.0257423415867
  0
LWPOLYLINE
  5
63B9
330
1F
100
AcDbEntity
  8
SPEC
100
AcDbPolyline
 90
        7
 70
     0
 43
0.0
 10
1068.772238618291
 20
614.8103451702958
 10
1068.199818843044
 20
615.3827649455418
 10
1068.738566866805
 20
615.9215129693031
 10
1069.310986642052
 20
615.3490931940569
 42
0.4142135623730998
 10
1069.984421671753
 20
615.3490931940569
 10
1070.556841446999
 20
615.9215129693031
 10
1071.095589470761
 20
615.3827649455418
  0
LINE
  5
63BA
330
1F
100
AcDbEntity
  8
CENTER
100
AcDbLine
 10
1069.647704156902
 20
612.1641038459212
 30
0.0
 11
1069.647704156902
 21
616.7831514649686
 31
0.0
  0
LINE
  5
63BB
330
1F
100
AcDbEntity
  8
CENTER
100
AcDbLine
 10
1067.338180347378
 20
614.4736276554448
 30
0.0
 11
1071.957227966426
 21
614.4736276554448
 31
0.0
  0
CIRCLE
  5
63BC
330
1F
100
AcDbEntity
  8
SPEC
100
AcDbCircle
 10
1038.647704156903
 20
583.4736276554447
 30
0.0
 40
2.500000000000001
  0
LWPOLYLINE
  5
63BD
330
1F
100
AcDbEntity
  8
SPEC
100
AcDbPolyline
 90
        5
 70
     0
 43
0.0
 10
1039.523169695515
 20
583.1369101405937
 10
1039.523169695515
 20
583.1369101405937
 42
-0.4142135623730998
 10
1039.523169695515
 20
583.8103451702952
 10
1040.095589470761
 20
584.3827649455415
 10
1040.095589470761
 20
584.3827649455415
  0
LWPOLYLINE
  5
63BE
330
1F
100
AcDbEntity
  8
SPEC
100
AcDbPolyline
 90
        7
 70
     0
 43
0.0
 10
1037.199818843045
 20
584.3827649455414
 10
1037.199818843045
 20
584.3827649455414
 10
1037.199818843045
 20
584.3827649455414
 10
1037.772238618291
 20
583.8103451702953
 42
-0.4142135623730998
 10
1037.772238618291
 20
583.1369101405936
 10
1037.199818843045
 20
582.5644903653475
 10
1037.738566866806
 20
582.0257423415863
  0
LINE
  5
63BF
330
1F
100
AcDbEntity
  8
SPEC
100
AcDbLine
 10
1039.556841447
 20
584.9215129693027
 30
0.0
 11
1040.095589470761
 21
584.3827649455415
 31
0.0
  0
LINE
  5
63C0
330
1F
100
AcDbEntity
  8
SPEC
100
AcDbLine
 10
1037.738566866806
 20
584.9215129693026
 30
0.0
 11
1038.310986642052
 21
584.3490931940563
 31
0.0
  0
LINE
  5
63C1
330
1F
100
AcDbEntity
  8
SPEC
100
AcDbLine
 10
1037.199818843045
 20
584.3827649455414
 30
0.0
 11
1037.738566866806
 21
584.9215129693026
 31
0.0
  0
LWPOLYLINE
  5
63C2
330
1F
100
AcDbEntity
  8
SPEC
100
AcDbPolyline
 90
        3
 70
     0
 43
0.0
 10
1038.310986642052
 20
584.3490931940563
 42
0.4142135623731186
 10
1038.984421671753
 20
584.3490931940563
 10
1039.556841447
 20
584.9215129693027
  0
LWPOLYLINE
  5
63C3
330
1F
100
AcDbEntity
  8
SPEC
100
AcDbPolyline
 90
        7
 70
     0
 43
0.0
 10
1039.523169695515
 20
583.1369101405937
 10
1040.095589470761
 20
582.5644903653476
 10
1039.556841447
 20
582.0257423415864
 10
1038.984421671753
 20
582.5981621168325
 42
0.4142135623730998
 10
1038.310986642052
 20
582.5981621168325
 10
1037.738566866806
 20
582.0257423415863
 10
1037.199818843045
 20
582.5644903653475
  0
LINE
  5
63C4
330
1F
100
AcDbEntity
  8
CENTER
100
AcDbLine
 10
1038.647704156903
 20
585.7831514649683
 30
0.0
 11
1038.647704156903
 21
581.1641038459208
 31
0.0
  0
LINE
  5
63C5
330
1F
100
AcDbEntity
  8
CENTER
100
AcDbLine
 10
1040.957227966426
 20
583.4736276554447
 30
0.0
 11
1036.338180347379
 21
583.4736276554446
 31
0.0
  0
CIRCLE
  5
63C6
330
1F
100
AcDbEntity
  8
SPEC
100
AcDbCircle
 10
1069.647704156903
 20
583.473627655445
 30
0.0
 40
2.5
  0
LWPOLYLINE
  5
63C7
330
1F
100
AcDbEntity
  8
SPEC
100
AcDbPolyline
 90
        5
 70
     0
 43
0.0
 10
1068.772238618291
 20
583.1369101405941
 10
1068.772238618291
 20
583.1369101405941
 42
0.4142135623730998
 10
1068.772238618291
 20
583.8103451702956
 10
1068.199818843045
 20
584.3827649455418
 10
1068.199818843045
 20
584.3827649455418
  0
LWPOLYLINE
  5
63C8
330
1F
100
AcDbEntity
  8
SPEC
100
AcDbPolyline
 90
        7
 70
     0
 43
0.0
 10
1071.095589470761
 20
584.3827649455419
 10
1071.095589470761
 20
584.3827649455419
 10
1071.095589470761
 20
584.3827649455419
 10
1070.523169695515
 20
583.8103451702957
 42
0.4142135623730998
 10
1070.523169695515
 20
583.1369101405941
 10
1071.095589470761
 20
582.5644903653479
 10
1070.556841446999
 20
582.0257423415868
  0
LINE
  5
63C9
330
1F
100
AcDbEntity
  8
SPEC
100
AcDbLine
 10
1068.738566866805
 20
584.921512969303
 30
0.0
 11
1068.199818843045
 21
584.3827649455418
 31
0.0
  0
LINE
  5
63CA
330
1F
100
AcDbEntity
  8
SPEC
100
AcDbLine
 10
1070.556841446999
 20
584.921512969303
 30
0.0
 11
1069.984421671753
 21
584.3490931940567
 31
0.0
  0
LINE
  5
63CB
330
1F
100
AcDbEntity
  8
SPEC
100
AcDbLine
 10
1071.095589470761
 20
584.3827649455419
 30
0.0
 11
1070.556841446999
 21
584.921512969303
 31
0.0
  0
LWPOLYLINE
  5
63CC
330
1F
100
AcDbEntity
  8
SPEC
100
AcDbPolyline
 90
        3
 70
     0
 43
0.0
 10
1069.984421671753
 20
584.3490931940567
 42
-0.4142135623731186
 10
1069.310986642052
 20
584.3490931940567
 10
1068.738566866805
 20
584.921512969303
  0
LWPOLYLINE
  5
63CD
330
1F
100
AcDbEntity
  8
SPEC
100
AcDbPolyline
 90
        7
 70
     0
 43
0.0
 10
1068.772238618291
 20
583.1369101405941
 10
1068.199818843045
 20
582.5644903653478
 10
1068.738566866805
 20
582.0257423415868
 10
1069.310986642052
 20
582.5981621168328
 42
-0.4142135623730998
 10
1069.984421671753
 20
582.5981621168328
 10
1070.556841446999
 20
582.0257423415868
 10
1071.095589470761
 20
582.5644903653479
  0
LINE
  5
63CE
330
1F
100
AcDbEntity
  8
CENTER
100
AcDbLine
 10
1069.647704156903
 20
585.7831514649687
 30
0.0
 11
1069.647704156903
 21
581.1641038459212
 31
0.0
  0
LINE
  5
63CF
330
1F
100
AcDbEntity
  8
CENTER
100
AcDbLine
 10
1067.338180347379
 20
583.4736276554449
 30
0.0
 11
1071.957227966426
 21
583.473627655445
 31
0.0
  0
TEXT
  5
63D0
330
1F
100
AcDbEntity
  8
DATA
100
AcDbText
 10
1078.380452183603
 20
624.9808284512923
 30
0.0
 40
3.0
  1
2-M2.5
100
AcDbText
  0
LINE
  5
63D1
330
1F
100
AcDbEntity
  8
SPEC
100
AcDbLine
 10
823.8203059251794
 20
618.9736276554445
 30
0.0
 11
857.8203059251793
 21
618.9736276554445
 31
0.0
  0
LINE
  5
63D2
330
1F
100
AcDbEntity
  8
SPEC
100
AcDbLine
 10
860.8203059251792
 20
615.9736276554446
 30
0.0
 11
857.8203059251793
 21
618.9736276554445
 31
0.0
1001
GENIUS_GENFIL_13
1070
     0
1040
3.0
1040
3.0
1040
3.5
1040
45.0
1002
{
1002
}
1001
GENIUS_GENODEF_13
1002
{
1000
HIER
1070
     0
1002
}
1002
{
1000
MANEDIT
1070
     0
1002
}
1002
{
1000
NOSEL
1070
     0
1002
}
1002
{
1000
BEHIND
1070
     0
1002
}
1002
{
1000
OTHER
1070
     0
1002
}
1002
{
1000
REACTOR
1002
}
1001
GENIUS_GENOBJ-N-CHA_13
1002
{
1000
OWNER
1000
GEN
1002
}
  0
LINE
  5
63D3
330
1F
100
AcDbEntity
  8
SPEC
100
AcDbLine
 10
954.6956509364854
 20
582.0299710253075
 30
0.0
 11
967.1956509364855
 21
582.0299710253075
 31
0.0
  0
LINE
  5
63D4
330
1F
100
AcDbEntity
  8
SPEC
100
AcDbLine
 10
934.1956509364857
 20
582.0299710253074
 30
0.0
 11
946.1956509364858
 21
582.0299710253074
 31
0.0
  0
TEXT
  5
63D5
330
1F
100
AcDbEntity
  8
DATA
100
AcDbText
 10
919.5293019516272
 20
559.9519908472721
 30
0.0
 40
3.0
  1
L=200+10mm
100
AcDbText
  0
TEXT
  5
63D6
330
1F
100
AcDbEntity
  8
DATA
100
AcDbText
 10
919.5293019516272
 20
564.9519908472722
 30
0.0
 40
3.0
  1
UL1061 AWG 26
100
AcDbText
  0
LEADER
  5
63D7
330
1F
100
AcDbEntity
  8
DIM
100
AcDbLeader
  3
STANDARD
 76
     3
 10
963.5337304776163
 20
553.347024684124
 30
0.0
 10
952.7725040311882
 20
539.5644988166011
 30
0.0
 10
896.1267092479047
 20
539.5644988166011
 30
0.0
211
1.0
221
0.0000000000000001
231
0.0
1001
ACAD
1000
DSTYLE
1002
{
1070
    40
1040
1.0
1070
    77
1070
     0
1002
}
  0
TEXT
  5
63D8
330
1F
100
AcDbEntity
  8
DATA
100
AcDbText
 10
897.2293447696149
 20
546.3948115378079
 30
0.0
 40
3.0
  1
Connector Type: JST XHP-6
100
AcDbText
  0
TEXT
  5
63D9
330
1F
100
AcDbEntity
  8
DATA
100
AcDbText
 10
897.2293447696149
 20
541.6932882963453
 30
0.0
 40
3.0
  1
Contact: SXH-001T-P0.6
100
AcDbText
  0
LEADER
  5
63DA
330
1F
100
AcDbEntity
  8
DIM
100
AcDbLeader
  3
STANDARD
 76
     3
 10
963.0051747460097
 20
571.4028375914799
 30
0.0
 10
952.7725040311882
 20
557.2980691619428
 30
0.0
 10
918.1965258002374
 20
557.2980691619428
 30
0.0
211
-1.0
221
0.0
231
0.0
210
0.0
220
0.0
230
-1.0
1001
ACAD
1000
DSTYLE
1002
{
1070
    40
1040
1.0
1070
    77
1070
     0
1002
}
  0
LWPOLYLINE
  5
63DB
330
1F
100
AcDbEntity
  8
SPEC
100
AcDbPolyline
 90
        4
 70
     1
 43
0.0
 10
960.3254511676851
 20
555.1190213248568
 10
966.7420097875472
 20
555.1190213248568
 10
966.7420097875472
 20
550.7154727640726
 10
960.3254511676851
 20
550.7154727640726
1001
GENIUS_GENREC_14
1002
{
1000
PYDIR
1011
960.3254511676851
1021
550.7154727640726
1031
0.0
1002
}
1002
{
1000
PXDIR
1011
966.7420097875472
1021
555.1190213248568
1031
0.0
1002
}
1002
{
1000
PORI
1011
960.3254511676851
1021
555.1190213248568
1031
0.0
1002
}
1002
{
1000
PINS
1011
960.3254511676851
1021
555.1190213248568
1031
0.0
1002
}
1002
{
1000
PINS2
1011
966.7420097875472
1021
550.7154727640726
1031
0.0
1002
}
1002
{
1000
C
1070
     1
1002
}
1001
GENIUS_GENODEF_13
1002
{
1000
HIER
1070
     0
1002
}
1002
{
1000
MANEDIT
1070
     0
1002
}
1002
{
1000
NOSEL
1070
     0
1002
}
1002
{
1000
BEHIND
1070
     0
1002
}
1002
{
1000
OTHER
1070
     0
1002
}
1002
{
1000
REACTOR
1002
}
1001
GENIUS_GENOBJ-N-REC_13
1002
{
1000
OWNER
1000
GEN
1002
}
  0
LINE
  5
63DC
330
1F
100
AcDbEntity
  8
SPEC
100
AcDbLine
 10
1071.147704156903
 20
578.9736276554442
 30
0.0
 11
1037.147704156903
 21
578.9736276554448
 31
0.0
  0
LINE
  5
63DD
330
1F
100
AcDbEntity
  8
SPEC
100
AcDbLine
 10
1034.147704156903
 20
581.9736276554448
 30
0.0
 11
1037.147704156903
 21
578.9736276554448
 31
0.0
1001
GENIUS_GENFIL_13
1070
     0
1040
3.0
1040
3.0
1040
3.5
1040
45.0
1002
{
1002
}
1001
GENIUS_GENOBJ-N-CHA_13
1002
{
1000
OWNER
1000
GEN
1002
}
1001
GENIUS_GENODEF_13
1002
{
1000
HIER
1070
     0
1002
}
1002
{
1000
MANEDIT
1070
     0
1002
}
1002
{
1000
NOSEL
1070
     0
1002
}
1002
{
1000
BEHIND
1070
     0
1002
}
1002
{
1000
OTHER
1070
     0
1002
}
1002
{
1000
REACTOR
1002
}
  0
LINE
  5
63DE
330
1F
100
AcDbEntity
  8
SPEC
100
AcDbLine
 10
1034.147704156903
 20
581.9736276554448
 30
0.0
 11
1034.147704156903
 21
615.9736276554444
 31
0.0
  0
LINE
  5
63DF
330
1F
100
AcDbEntity
  8
SPEC
100
AcDbLine
 10
1037.147704156903
 20
618.9736276554445
 30
0.0
 11
1034.147704156903
 21
615.9736276554444
 31
0.0
1001
GENIUS_GENFIL_13
1070
     0
1040
3.0
1040
3.0
1040
3.5
1040
45.0
1002
{
1002
}
1001
GENIUS_GENOBJ-N-CHA_13
1002
{
1000
OWNER
1000
GEN
1002
}
1001
GENIUS_GENODEF_13
1002
{
1000
HIER
1070
     0
1002
}
1002
{
1000
MANEDIT
1070
     0
1002
}
1002
{
1000
NOSEL
1070
     0
1002
}
1002
{
1000
BEHIND
1070
     0
1002
}
1002
{
1000
OTHER
1070
     0
1002
}
1002
{
1000
REACTOR
1002
}
  0
LINE
  5
63E0
330
1F
100
AcDbEntity
  8
SPEC
100
AcDbLine
 10
1074.147704156902
 20
615.9736276554446
 30
0.0
 11
1074.147704156903
 21
581.9736276554441
 31
0.0
  0
LINE
  5
63E1
330
1F
100
AcDbEntity
  8
SPEC
100
AcDbLine
 10
1071.147704156903
 20
578.9736276554442
 30
0.0
 11
1074.147704156903
 21
581.9736276554441
 31
0.0
1001
GENIUS_GENFIL_13
1070
     0
1040
3.0
1040
3.0
1040
3.5
1040
45.0
1002
{
1002
}
1001
GENIUS_GENOBJ-N-CHA_13
1002
{
1000
OWNER
1000
GEN
1002
}
1001
GENIUS_GENODEF_13
1002
{
1000
HIER
1070
     0
1002
}
1002
{
1000
MANEDIT
1070
     0
1002
}
1002
{
1000
NOSEL
1070
     0
1002
}
1002
{
1000
BEHIND
1070
     0
1002
}
1002
{
1000
OTHER
1070
     0
1002
}
1002
{
1000
REACTOR
1002
}
  0
LINE
  5
63E2
330
1F
100
AcDbEntity
  8
SPEC
100
AcDbLine
 10
1037.147704156903
 20
618.9736276554445
 30
0.0
 11
1071.147704156902
 21
618.9736276554445
 31
0.0
  0
LINE
  5
63E3
330
1F
100
AcDbEntity
  8
SPEC
100
AcDbLine
 10
1074.147704156902
 20
615.9736276554446
 30
0.0
 11
1071.147704156902
 21
618.9736276554445
 31
0.0
1001
GENIUS_GENFIL_13
1070
     0
1040
3.0
1040
3.0
1040
3.5
1040
45.0
1002
{
1002
}
1001
GENIUS_GENODEF_13
1002
{
1000
HIER
1070
     0
1002
}
1002
{
1000
MANEDIT
1070
     0
1002
}
1002
{
1000
NOSEL
1070
     0
1002
}
1002
{
1000
BEHIND
1070
     0
1002
}
1002
{
1000
OTHER
1070
     0
1002
}
1002
{
1000
REACTOR
1002
}
1001
GENIUS_GENOBJ-N-CHA_13
1002
{
1000
OWNER
1000
GEN
1002
}
  0
LINE
  5
63E4
330
1F
100
AcDbEntity
  8
SPEC
100
AcDbLine
 10
954.6956509364857
 20
606.4736276554448
 30
0.0
 11
956.8956509364856
 21
606.1437043635422
 31
0.0
  0
LINE
  5
63E5
330
1F
100
AcDbEntity
  8
SPEC
100
AcDbLine
 10
954.6956509364854
 20
591.4736276554448
 30
0.0
 11
956.8956509364856
 21
591.8035509473475
 31
0.0
  0
LINE
  5
63E6
330
1F
100
AcDbEntity
  8
SPEC
100
AcDbLine
 10
943.4956509364855
 20
605.9736276554446
 30
0.0
 11
946.1956509364854
 21
606.4736276554448
 31
0.0
  0
LINE
  5
63E7
330
1F
100
AcDbEntity
  8
SPEC
100
AcDbLine
 10
946.1956509364858
 20
591.4736276554448
 30
0.0
 11
943.4956509364855
 21
591.9764853816304
 31
0.0
  0
LINE
  5
63E8
330
1F
100
AcDbEntity
  8
SPEC
100
AcDbLine
 10
946.1956509364856
 20
616.3783895602067
 30
0.0
 11
954.6956509364854
 21
616.3783895602067
 31
0.0
  0
LINE
  5
63E9
330
1F
100
AcDbEntity
  8
SPEC
100
AcDbLine
 10
946.1956509364858
 20
612.5688657506822
 30
0.0
 11
954.6956509364854
 21
612.5688657506828
 31
0.0
  0
LINE
  5
63EA
330
1F
100
AcDbEntity
  8
SPEC
100
AcDbLine
 10
946.1919393855351
 20
581.5711480621368
 30
0.0
 11
954.6919391922399
 21
581.5693353253981
 31
0.0
  0
LINE
  5
63EB
330
1F
100
AcDbEntity
  8
SPEC
100
AcDbLine
 10
946.1927518165666
 20
585.3806717850305
 30
0.0
 11
954.6927516232713
 21
585.3788590482911
 31
0.0
  0
VIEWPORT
  5
2D8
102
{ACAD_XDICTIONARY
360
65D1
102
}
330
1B
100
AcDbEntity
 67
     1
  8
0
100
AcDbViewport
 10
155.8251717132001
 20
112.3454783993881
 30
0.0
 40
496.680246913288
 41
314.9376001730874
 68
     1
 69
     1
 12
155.8251717132001
 22
112.3454783993881
 13
0.0
 23
0.0
 14
10.0
 24
10.0
 15
10.0
 25
10.0
 16
0.0
 26
0.0
 36
1.0
 17
0.0
 27
0.0
 37
0.0
 42
50.0
 43
0.0
 44
0.0
 45
314.9376001730874
 50
0.0
 51
0.0
 72
   100
 90
    32768
  1

281
     0
 71
     0
 74
     0
110
0.0
120
0.0
130
0.0
111
1.0
121
0.0
131
0.0
112
0.0
122
1.0
132
0.0
 79
     0
146
0.0
  0
MTEXT
  5
1290
330
1B
100
AcDbEntity
 67
     1
  8
DATA
100
AcDbMText
 10
142.6845396305116
 20
14.24154306217638
 30
0.0
 40
1.930697999999999
 41
24.133725
 71
     1
 72
     5
  1
X       %%p0.5\P1PL     %%p0.2\P2PL     %%p0.1\PANGLE   %%p30'
  7
ROMANS
 73
     1
 44
1.0
1001
ACAD
1000
MTEXTBEGIN
1070
    73
1070
     1
1070
    44
1040
1.0
1070
    74
1070
     0
1000
MTEXTEND
  0
LWPOLYLINE
  5
1291
330
1B
100
AcDbEntity
 67
     1
  8
SPEC
100
AcDbPolyline
 90
        2
 70
     0
 43
0.0
 10
44.51178313191621
 20
21.65598901220129
 10
104.0278513100474
 20
21.65598901220129
  0
TEXT
  5
1294
330
1B
100
AcDbEntity
 67
     1
  8
DATA
100
AcDbText
 10
223.3033978947773
 20
2.332825847364669
 30
0.0
 40
3.861395999999999
  1
SH4018S1204
 41
0.7
  7
ROMANS
100
AcDbText
  0
LWPOLYLINE
  5
1296
330
1B
100
AcDbEntity
 67
     1
  8
SPEC
100
AcDbPolyline
 90
        2
 70
     0
 43
0.0
 10
0.0009154015513104
 20
21.65598901220129
 10
44.6040054243686
 20
21.65598901220129
  0
LINE
  5
1297
330
1B
100
AcDbEntity
 67
     1
  8
DATA
100
AcDbLine
 10
141.4515899505442
 20
16.0064410711449
 30
0.0
 11
206.4352883025385
 21
16.0064410711449
 31
0.0
  0
LINE
  5
1299
330
1B
100
AcDbEntity
 67
     1
  8
DATA
100
AcDbLine
 10
188.9615608996265
 20
21.65598901220129
 30
0.0
 11
188.9615608996265
 21
0.0005791177154606
 31
0.0
  0
LINE
  5
129A
330
1B
100
AcDbEntity
 67
     1
  8
DATA
100
AcDbLine
 10
172.7736353934133
 20
21.65598905905817
 30
0.0
 11
172.7736353934214
 21
6.498316907446511
 31
0.0
  0
LINE
  5
129B
330
1B
100
AcDbEntity
 67
     1
  8
DATA
100
AcDbLine
 10
161.8855388603332
 20
0.0005791177154606
 30
0.0
 11
161.8855388603055
 21
21.65598905610526
 31
0.0
  0
LINE
  5
129D
330
1B
100
AcDbEntity
 67
     1
  8
DATA
100
AcDbLine
 10
206.4352889818797
 20
21.65598901220129
 30
0.0
 11
206.4352889818797
 21
0.0005791177154606
 31
0.0
  0
LINE
  5
129E
330
1B
100
AcDbEntity
 67
     1
  8
DATA
100
AcDbLine
 10
71.44730055966757
 20
21.65598901220129
 30
0.0
 11
71.44730055966755
 21
0.0005791177154606
 31
0.0
  0
LINE
  5
129F
330
1B
100
AcDbEntity
 67
     1
  8
DATA
100
AcDbLine
 10
86.0425128352576
 20
21.65598901220129
 30
0.0
 11
86.0425128352576
 21
0.0005791177154606
 31
0.0
  0
LINE
  5
12A0
330
1B
100
AcDbEntity
 67
     1
  8
DATA
100
AcDbLine
 10
50.66681625037072
 20
21.65598901220129
 30
0.0
 11
50.66681625037072
 21
0.0005791177154606
 31
0.0
  0
LINE
  5
12A2
330
1B
100
AcDbEntity
 67
     1
  8
DATA
100
AcDbLine
 10
86.0425128352576
 20
16.5762960950056
 30
0.0
 11
0.0009154015513104
 21
16.5762960950056
 31
0.0
  0
LINE
  5
12A3
330
1B
100
AcDbEntity
 67
     1
  8
DATA
100
AcDbLine
 10
0.0009154015513104
 20
11.49660317780993
 30
0.0
 11
86.0425128352576
 21
11.49660317780992
 31
0.0
  0
LINE
  5
12A4
330
1B
100
AcDbEntity
 67
     1
  8
DATA
100
AcDbLine
 10
0.0009154015513104
 20
6.41691026061423
 30
0.0
 11
86.0425128352576
 21
6.416910260614244
 31
0.0
  0
LINE
  5
12A5
330
1B
100
AcDbEntity
 67
     1
  8
DATA
100
AcDbLine
 10
10.9812208516878
 20
21.65598901220129
 30
0.0
 11
10.9812208516878
 21
0.0005791177154606
 31
0.0
  0
LINE
  5
12A6
330
1B
100
AcDbEntity
 67
     1
  8
DATA
100
AcDbLine
 10
206.4352889818797
 20
6.487604351384876
 30
0.0
 11
161.8855388603332
 21
6.487604351384876
 31
0.0
  0
LINE
  5
12A7
330
1B
100
AcDbEntity
 67
     1
  8
DATA
100
AcDbLine
 10
161.8855388603332
 20
11.19931228302795
 30
0.0
 11
206.4352889818797
 21
11.19931228302795
 31
0.0
  0
TEXT
  5
12A8
330
1B
100
AcDbEntity
 67
     1
  8
DATA
100
AcDbText
 10
144.2089124014906
 20
17.38788360913192
 30
0.0
 40
2.413372499999999
  1
SCALE FREE
 41
0.7
  7
ROMANS
 72
     2
 11
159.5740506514906
 21
17.38788360913192
 31
0.0
100
AcDbText
  0
LINE
  5
12A9
330
1B
100
AcDbEntity
 67
     1
  8
DATA
100
AcDbLine
 10
141.4515899505442
 20
21.65598901220129
 30
0.0
 11
141.4515899505442
 21
0.0005791177154606
 31
0.0
  0
TEXT
  5
12AA
330
1B
100
AcDbEntity
 67
     1
  8
DATA
100
AcDbText
 10
72.81931794091391
 20
2.289088082541405
 30
0.0
 40
2.896047
  1
APVD
 41
0.7
  7
ROMANS
100
AcDbText
  0
TEXT
  5
12AB
330
1B
100
AcDbEntity
 67
     1
  8
DATA
100
AcDbText
 10
54.00518497335647
 20
2.289088082541405
 30
0.0
 40
2.896047
  1
DATE
 41
0.7
  7
ROMANS
100
AcDbText
  0
TEXT
  5
12AC
330
1B
100
AcDbEntity
 67
     1
  8
DATA
100
AcDbText
 10
13.71048401705179
 20
2.289088082541405
 30
0.0
 40
2.896047
  1
DESCRIPTION
 41
0.7
  7
ROMANS
100
AcDbText
  0
TEXT
  5
12AD
330
1B
100
AcDbEntity
 67
     1
  8
DATA
100
AcDbText
 10
2.61316602814029
 20
2.289088082541405
 30
0.0
 40
2.896047
  1
REV
 41
0.7
  7
ROMANS
 72
     2
 11
8.11565532814029
 21
2.289088082541405
 31
0.0
100
AcDbText
  0
TEXT
  5
12B1
330
1B
100
AcDbEntity
 67
     1
  8
DATA
100
AcDbText
 10
166.3066680148434
 20
2.249663648385519
 30
0.0
 40
2.896047
  1
SIGNATURE
 41
0.7
  7
ROMANS
 72
     2
 11
182.2349265148434
 21
2.249663648385519
 31
0.0
100
AcDbText
  0
TEXT
  5
12B2
330
1B
100
AcDbEntity
 67
     1
  8
DATA
100
AcDbText
 10
194.0753275043612
 20
2.147712645052658
 30
0.0
 40
2.896047
  1
DATE
 41
0.7
  7
ROMANS
 72
     2
 11
201.0258403043613
 21
2.147712645052658
 31
0.0
100
AcDbText
  0
TEXT
  5
12B3
330
1B
100
AcDbEntity
 67
     1
  8
DATA
100
AcDbText
 10
211.3647597711961
 20
15.15914893796167
 30
0.0
 40
3.668326199999999
  1
STEPPING MOTOR
 41
0.8
  7
ITALICT
 72
     2
 11
254.825691131196
 21
15.15914893796167
 31
0.0
100
AcDbText
  0
LINE
  5
12B4
330
1B
100
AcDbEntity
 67
     1
  8
DATA
100
AcDbLine
 10
206.4352889818797
 20
12.14062779339902
 30
0.0
 11
280.0
 21
12.14062786782275
 31
0.0
  0
TEXT
  5
12B5
330
1B
100
AcDbEntity
 67
     1
  8
DATA
100
AcDbText
 10
208.2206521091139
 20
8.230964343399071
 30
0.0
 40
2.413372499999999
  1
DWG.NO
 41
0.7
  7
ROMANS
 72
     2
 11
217.6328048591138
 21
8.230964343399071
 31
0.0
100
AcDbText
  0
TEXT
  5
12B6
330
1B
100
AcDbEntity
 67
     1
  8
DATA
100
AcDbText
 10
89.47920924063479
 20
16.55350887427961
 30
0.0
 40
2.896047
  1
NANOTEC:
 41
0.7
  7
ROMANS
100
AcDbText
  0
TEXT
  5
12B7
330
1B
100
AcDbEntity
 67
     1
  8
DATA
100
AcDbText
 10
189.4634543457442
 20
7.541155117526503
 30
0.0
 40
2.509907399999999
  1
03.07.06
 41
0.7
  7
ROMANS
100
AcDbText
  0
LINE
  5
12B8
330
1B
100
AcDbEntity
 67
     1
  8
SPEC
100
AcDbLine
 10
0.0009154015513104
 20
21.65598901220129
 30
0.0
 11
0.0009154015513104
 21
119.7806666755164
 31
0.0
  0
LWPOLYLINE
  5
12BA
330
1B
100
AcDbEntity
 67
     1
  8
SPEC
100
AcDbPolyline
 90
        4
 70
     1
 43
0.0
 10
0.0009154015513104
 20
196.250579117687
 10
0.0009154015513104
 20
0.0005791177154606
 10
280.0
 20
0.0005791177154606
 10
280.0
 20
196.250579117687
  0
LWPOLYLINE
  5
1708
330
1B
100
AcDbEntity
 67
     1
  8
SPEC
100
AcDbPolyline
 90
        2
 70
     0
 43
0.0
 10
46.10949139879676
 20
21.6559890122013
 10
107.7618763685136
 20
21.6559890122013
  0
LINE
  5
19BB
330
1B
100
AcDbEntity
 67
     1
  8
SPEC
100
AcDbLine
 10
170.0009154015513
 20
21.6559890122013
 30
0.0
 11
170.0009154015513
 21
111.6559890122013
 31
0.0
  0
TEXT
  5
19BD
330
1B
100
AcDbEntity
 67
     1
  8
DATA
100
AcDbText
 10
1.828349188375568
 20
73.0
 30
0.0
 40
2.4
  1
DETENT TORQUE (Nm) [lb-in]
 41
0.7
  7
ROMANS
100
AcDbText
  0
TEXT
  5
19BF
330
1B
100
AcDbEntity
 67
     1
  8
SPEC
100
AcDbText
 10
153.8283491883755
 20
48.0
 30
0.0
 40
2.4
  1

 41
0.7
  7
ROMANS
100
AcDbText
  0
TEXT
  5
19C0
330
1B
100
AcDbEntity
 67
     1
  8
DATA
  6
HIDDEN
100
AcDbText
 10
111.8283491883755
 20
105.2917072386782
 30
0.0
 40
3.0
  1
PERMISSIBLE RADIAL+AXIAL FORCE
 41
0.7
  7
ROMANS
100
AcDbText
  0
TEXT
  5
19C1
330
1B
100
AcDbEntity
 67
     1
  8
DATA
100
AcDbText
 10
1.828349188375568
 20
43.0
 30
0.0
 40
2.4
  1
AMBIENT TEMPERATURE -10°~ 50°C [14°F ~ 122°F]
 41
0.7
  7
ROMANS
100
AcDbText
  0
TEXT
  5
19C2
330
1B
100
AcDbEntity
 67
     1
  8
DATA
100
AcDbText
 10
110.8283491883755
 20
48.0
 30
0.0
 40
2.4
  1
AXIAL-FORCE Fa (N)
 41
0.7
  7
ROMANS
100
AcDbText
  0
TEXT
  5
19C4
330
1B
100
AcDbEntity
 67
     1
  8
DATA
100
AcDbText
 10
1.828349188375568
 20
28.0
 30
0.0
 40
2.4
  1
DIELECTRIC STRENGTH 500VAC FOR 1 MIN. (BETWEEN THE MOTOR COILS AND THE MOTOR CASE)
 41
0.59
  7
ROMANS
100
AcDbText
  0
TEXT
  5
19C5
330
1B
100
AcDbEntity
 67
     1
  8
DATA
100
AcDbText
 10
1.828349188375568
 20
33.0
 30
0.0
 40
2.4
  1
INSULATION CLASS B 130° [266°F]
 41
0.7
  7
ROMANS
100
AcDbText
  0
TEXT
  5
19C6
330
1B
100
AcDbEntity
 67
     1
  8
DATA
100
AcDbText
 10
1.828349188375568
 20
38.0
 30
0.0
 40
2.4
  1
INSULATION RESISTANCE 100 MOhm (UNDER NORMAL TEMPERATURE AND HUMIDITY)
 41
0.69
  7
ROMANS
100
AcDbText
  0
TEXT
  5
19C7
330
1B
100
AcDbEntity
 67
     1
  8
DATA
100
AcDbText
 10
1.828349188375568
 20
48.0
 30
0.0
 40
2.4
  1
TEMPERATURE RISE: MAX.80°C (MOTOR STANDSTILL; FOR 2 PHASE ENERGIZED)
 41
0.7
  7
ROMANS
100
AcDbText
  0
MTEXT
  5
19C8
330
1B
100
AcDbEntity
 67
     1
  8
DATA
100
AcDbMText
 10
131.290926933951
 20
85.84775216573845
 30
0.0
 40
2.399999999999999
 41
6.509999999999999
 71
     1
 72
     5
  1
F{\H0.8333x;r}
  7
ROMANS
 73
     1
 44
1.0
1001
ACAD
1000
MTEXTBEGIN
1070
    73
1070
     1
1070
    44
1040
1.0
1070
    74
1070
     0
1000
MTEXTEND
  0
DIMENSION
  5
19C9
330
1B
100
AcDbEntity
 67
     1
  8
DIM
100
AcDbDimension
  2
*D5
 10
139.0972407104071
 20
55.91119174080848
 30
0.0
 11
134.4901433864878
 21
55.91119174080848
 31
0.0
 70
   160
  1
a
 71
     5
 42
9.190871881572007
  3
STANDARD
100
AcDbAlignedDimension
 13
129.9063688288351
 23
74.09868988223387
 33
0.0
 14
139.0972407104071
 24
60.09299455805124
 34
0.0
100
AcDbRotatedDimension
1001
ACAD
1000
DSTYLE
1002
{
1070
   344
1005
2FF
1070
   173
1070
     1
1070
   343
1005
0
1070
    41
1040
2.399999999999999
1070
   340
1005
3C7
1070
   140
1040
2.399999999999999
1070
    40
1040
1.0
1002
}
  0
LINE
  5
19D1
330
1B
100
AcDbEntity
 67
     1
  8
CENTER
  6
AM_ISO08W050x2
100
AcDbLine
 10
126.6677412239616
 20
75.98428938777749
 30
0.0
 11
169.3332402093541
 21
75.98428938777749
 31
0.0
  0
TEXT
  5
19D2
330
1B
100
AcDbEntity
 67
     1
  8
DATA
100
AcDbText
 10
164.5
 20
43.0
 30
0.0
 40
2.4
  1
20
 41
0.7
  7
ROMANS
100
AcDbText
  0
TEXT
  5
19D3
330
1B
100
AcDbEntity
 67
     1
  8
DATA
100
AcDbText
 10
164.5
 20
38.0
 30
0.0
 40
2.4
  1
20
 41
0.7
  7
ROMANS
100
AcDbText
  0
TEXT
  5
19D4
330
1B
100
AcDbEntity
 67
     1
  8
DATA
100
AcDbText
 10
157.0
 20
38.0
 30
0.0
 40
2.4
  1
26
 41
0.7
  7
ROMANS
100
AcDbText
  0
TEXT
  5
19D5
330
1B
100
AcDbEntity
 67
     1
  8
DATA
100
AcDbText
 10
157.0
 20
43.0
 30
0.0
 40
2.4
  1
15
 41
0.7
  7
ROMANS
100
AcDbText
  0
TEXT
  5
19D6
330
1B
100
AcDbEntity
 67
     1
  8
DATA
100
AcDbText
 10
149.5
 20
43.0
 30
0.0
 40
2.4
  1
10
 41
0.7
  7
ROMANS
100
AcDbText
  0
TEXT
  5
19D7
330
1B
100
AcDbEntity
 67
     1
  8
DATA
100
AcDbText
 10
149.5
 20
38.0
 30
0.0
 40
2.4
  1
36
 41
0.7
  7
ROMANS
100
AcDbText
  0
TEXT
  5
19D8
330
1B
100
AcDbEntity
 67
     1
  8
DATA
100
AcDbText
 10
143.3283491883756
 20
43.0
 30
0.0
 40
2.4
  1
5
 41
0.7
  7
ROMANS
100
AcDbText
  0
TEXT
  5
19D9
330
1B
100
AcDbEntity
 67
     1
  8
DATA
100
AcDbText
 10
142.0
 20
38.0
 30
0.0
 40
2.4
  1
58
 41
0.7
  7
ROMANS
100
AcDbText
  0
TEXT
  5
19DC
330
1B
100
AcDbEntity
 67
     1
  8
DATA
100
AcDbText
 10
110.8283491883755
 20
38.0
 30
0.0
 40
2.4
  1
RADIAL-FORCE Fr (N)
 41
0.7
  7
ROMANS
100
AcDbText
  0
TEXT
  5
19DD
330
1B
100
AcDbEntity
 67
     1
  8
DATA
100
AcDbText
 10
110.8283491883755
 20
43.0
 30
0.0
 40
2.4
  1
DISTANCE a  (mm)
 41
0.7
  7
ROMANS
100
AcDbText
  0
TEXT
  5
19DE
330
1B
100
AcDbEntity
 67
     1
  8
DATA
100
AcDbText
 10
70.0
 20
63.0
 30
0.0
 40
2.4
  1
%%P5%
 41
0.7
  7
ROMANS
100
AcDbText
  0
TEXT
  5
19DF
330
1B
100
AcDbEntity
 67
     1
  8
DATA
100
AcDbText
 10
70.0
 20
68.0
 30
0.0
 40
2.4
  1
1.8
 41
0.7
  7
ROMANS
100
AcDbText
  0
TEXT
  5
19E0
330
1B
100
AcDbEntity
 67
     1
  8
DATA
100
AcDbText
 10
70.0
 20
88.0
 30
0.0
 40
2.4
  1
2.8%%P15%
 41
0.7
  7
ROMANS
100
AcDbText
  0
TEXT
  5
19E1
330
1B
100
AcDbEntity
 67
     1
  8
DATA
100
AcDbText
 10
70.0
 20
93.0
 30
0.0
 40
2.4
  1
1.2
 41
0.7
  7
ROMANS
100
AcDbText
  0
TEXT
  5
19E4
330
1B
100
AcDbEntity
 67
     1
  8
DATA
100
AcDbText
 10
31.82834918837557
 20
107.617252115867
 30
0.0
 40
2.4
  1
CONNECTION
 41
0.7
  7
ROMANS
100
AcDbText
  0
TEXT
  5
19E9
330
1B
100
AcDbEntity
 67
     1
  8
DATA
100
AcDbText
 10
1.828349188375568
 20
98.0
 30
0.0
 40
2.4
  1
VOLTAGE (VDC)
 41
0.7
  7
ROMANS
100
AcDbText
  0
TEXT
  5
19EA
330
1B
100
AcDbEntity
 67
     1
  8
DATA
100
AcDbText
 10
1.828349188375568
 20
93.0
 30
0.0
 40
2.4
  1
AMPS/PHASE
 41
0.7
  7
ROMANS
100
AcDbText
  0
TEXT
  5
19EB
330
1B
100
AcDbEntity
 67
     1
  8
DATA
100
AcDbText
 10
1.828349188375568
 20
103.617252115867
 30
0.0
 40
2.4
  1
SPECIFICATION
 41
0.7
  7
ROMANS
100
AcDbText
  0
TEXT
  5
19EC
330
1B
100
AcDbEntity
 67
     1
  8
DATA
100
AcDbText
 10
1.828349188375568
 20
88.0
 30
0.0
 40
2.4
  1
RESISTANCE/PHASE  (Ohms)@25%%DC
 41
0.7
  7
ROMANS
100
AcDbText
  0
TEXT
  5
19ED
330
1B
100
AcDbEntity
 67
     1
  8
DATA
100
AcDbText
 10
1.828349188375568
 20
83.0
 30
0.0
 40
2.4
  1
INDUCTANCE/PHASE (mH) @1KHz
 41
0.7
  7
ROMANS
100
AcDbText
  0
TEXT
  5
19EF
330
1B
100
AcDbEntity
 67
     1
  8
DATA
100
AcDbText
 10
1.828349188375568
 20
78.0
 30
0.0
 40
2.4
  1
HOLDING TORQUE (Nm) [lb-in]
 41
0.7
  7
ROMANS
100
AcDbText
  0
TEXT
  5
19F0
330
1B
100
AcDbEntity
 67
     1
  8
DATA
100
AcDbText
 10
1.828349188375568
 20
53.0
 30
0.0
 40
2.4
  1
WEIGHT (Kg) [lb]
 41
0.7
  7
ROMANS
100
AcDbText
  0
TEXT
  5
19F1
330
1B
100
AcDbEntity
 67
     1
  8
DATA
100
AcDbText
 10
1.828349188375568
 20
68.0
 30
0.0
 40
2.4
  1
STEP ANGLE (°)
 41
0.7
  7
ROMANS
100
AcDbText
  0
TEXT
  5
19F2
330
1B
100
AcDbEntity
 67
     1
  8
DATA
100
AcDbText
 10
1.828349188375568
 20
63.0
 30
0.0
 40
2.4
  1
STEP ACCURACY (NON-ACCUM)
 41
0.7
  7
ROMANS
100
AcDbText
  0
LEADER
  5
19F4
330
1B
100
AcDbEntity
 67
     1
  8
DIM
100
AcDbLeader
  3
STANDARD
 76
     2
 10
130.0606073289473
 20
78.69222240356484
 30
0.0
 10
130.0606073289473
 20
86.51626982104639
 30
0.0
1001
ACAD
1000
DSTYLE
1002
{
1070
    41
1040
2.399999999999999
1070
   341
1005
0
1070
    40
1040
1.0
1070
    77
1070
     0
1002
}
  0
TEXT
  5
19F5
330
1B
100
AcDbEntity
 67
     1
  8
DATA
100
AcDbText
 10
70.0
 20
98.0
 30
0.0
 40
2.4
  1
3.36
 41
0.7
  7
ROMANS
100
AcDbText
  0
TEXT
  5
19F7
330
1B
100
AcDbEntity
 67
     1
  8
DATA
100
AcDbText
 10
70.0
 20
107.617252115867
 30
0.0
 40
2.399999999999999
  1
BIPOLAR
 41
0.7
  7
ROMANS
100
AcDbText
  0
LINE
  5
19F9
330
1B
100
AcDbEntity
 67
     1
  8
SPEC
100
AcDbLine
 10
0.0009154015513104
 20
111.6559890122013
 30
0.0
 11
280.0
 21
111.6559890122013
 31
0.0
  0
LINE
  5
19FA
330
1B
100
AcDbEntity
 67
     1
  8
SPEC
100
AcDbLine
 10
280.0
 20
21.65598908813853
 30
0.0
 11
0.0009154015513104
 21
21.6559890122013
 31
0.0
  0
LINE
  5
19FB
330
1B
100
AcDbEntity
 67
     1
  8
SPEC
100
AcDbLine
 10
0.0009154015513104
 20
111.6559890122013
 30
0.0
 11
110.0009154015513
 21
111.6559890122013
 31
0.0
  0
LINE
  5
19FD
330
1B
100
AcDbEntity
 67
     1
  8
SPEC
100
AcDbLine
 10
0.0009154015513104
 20
26.65598901220131
 30
0.0
 11
170.0009154015513
 21
26.65598901220131
 31
0.0
  0
LINE
  5
19FF
330
1B
100
AcDbEntity
 67
     1
  8
SPEC
100
AcDbLine
 10
0.0009154015513104
 20
31.65598901220131
 30
0.0
 11
170.0009154015513
 21
31.65598901220131
 31
0.0
  0
LINE
  5
1A00
330
1B
100
AcDbEntity
 67
     1
  8
SPEC
100
AcDbLine
 10
0.0009154015513104
 20
36.65598901220142
 30
0.0
 11
170.0009154015513
 21
36.65598901220142
 31
0.0
  0
LINE
  5
1A01
330
1B
100
AcDbEntity
 67
     1
  8
SPEC
100
AcDbLine
 10
0.0009154015513104
 20
46.65598901220142
 30
0.0
 11
170.0009154015513
 21
46.65598901220142
 31
0.0
  0
LINE
  5
1A02
330
1B
100
AcDbEntity
 67
     1
  8
SPEC
100
AcDbLine
 10
0.0009154015513104
 20
41.65598901220142
 30
0.0
 11
170.0009154015513
 21
41.65598901220142
 31
0.0
  0
LINE
  5
1A03
330
1B
100
AcDbEntity
 67
     1
  8
SPEC
100
AcDbLine
 10
0.0009154015513104
 20
66.65598901220142
 30
0.0
 11
110.0009154015513
 21
66.65598901220142
 31
0.0
  0
LINE
  5
1A04
330
1B
100
AcDbEntity
 67
     1
  8
SPEC
100
AcDbLine
 10
0.0009154015513104
 20
61.65598901220142
 30
0.0
 11
110.0009154015513
 21
61.65598901220142
 31
0.0
  0
LINE
  5
1A05
330
1B
100
AcDbEntity
 67
     1
  8
SPEC
100
AcDbLine
 10
0.0009154015513104
 20
56.6559890122013
 30
0.0
 11
110.0009154015513
 21
56.6559890122013
 31
0.0
  0
LINE
  5
1A06
330
1B
100
AcDbEntity
 67
     1
  8
SPEC
100
AcDbLine
 10
0.0009154015513104
 20
51.6559890122013
 30
0.0
 11
170.0009154015513
 21
51.6559890122013
 31
0.0
  0
LINE
  5
1A07
330
1B
100
AcDbEntity
 67
     1
  8
SPEC
100
AcDbLine
 10
0.0009154015513104
 20
101.6559890122014
 30
0.0
 11
110.0009154015513
 21
101.6559890122014
 31
0.0
  0
LINE
  5
1A08
330
1B
100
AcDbEntity
 67
     1
  8
SPEC
100
AcDbLine
 10
0.0009154015513104
 20
96.6559890122013
 30
0.0
 11
110.0009154015513
 21
96.6559890122013
 31
0.0
  0
LINE
  5
1A09
330
1B
100
AcDbEntity
 67
     1
  8
SPEC
100
AcDbLine
 10
0.0009154015513104
 20
86.6559890122013
 30
0.0
 11
110.0009154015513
 21
86.6559890122013
 31
0.0
  0
LINE
  5
1A0A
330
1B
100
AcDbEntity
 67
     1
  8
SPEC
100
AcDbLine
 10
0.0009154015513104
 20
91.6559890122013
 30
0.0
 11
110.0009154015513
 21
91.6559890122013
 31
0.0
  0
LINE
  5
1A0B
330
1B
100
AcDbEntity
 67
     1
  8
SPEC
100
AcDbLine
 10
0.0009154015513104
 20
71.6559890122013
 30
0.0
 11
110.0009154015513
 21
71.6559890122013
 31
0.0
  0
LINE
  5
1A0C
330
1B
100
AcDbEntity
 67
     1
  8
SPEC
100
AcDbLine
 10
0.0009154015513104
 20
76.65598901220142
 30
0.0
 11
110.0009154015513
 21
76.65598901220142
 31
0.0
  0
LINE
  5
1A0D
330
1B
100
AcDbEntity
 67
     1
  8
SPEC
100
AcDbLine
 10
0.0009154015513104
 20
81.65598901220141
 30
0.0
 11
110.0009154015513
 21
81.65598901220141
 31
0.0
  0
MTEXT
  5
1A0E
330
1B
100
AcDbEntity
 67
     1
  8
DATA
100
AcDbMText
 10
2.328349188375568
 20
61.11725211586701
 30
0.0
 40
2.399999999999999
 41
110.0
 71
     1
 72
     5
  1
{\W0.7;ROTOR INERTIA (Kg-m²) [lb-in²]}
  7
ROMANS
 73
     1
 44
1.0
1001
ACAD
1000
ACAD_MTEXT_DEFINED_HEIGHT_BEGIN
1070
    46
1040
0.0
1000
ACAD_MTEXT_DEFINED_HEIGHT_END
1000
MTEXTBEGIN
1070
    73
1070
     1
1070
    44
1040
1.0
1070
    74
1070
     0
1000
MTEXTEND
  0
LINE
  5
1A0F
330
1B
100
AcDbEntity
 67
     1
  8
SPEC
100
AcDbLine
 10
0.0009154015513104
 20
91.6559890122013
 30
0.0
 11
50.00091540155131
 21
91.6559890122013
 31
0.0
  0
LINE
  5
1A10
330
1B
100
AcDbEntity
 67
     1
  8
SPEC
100
AcDbLine
 10
50.00091540155131
 20
111.6559890122013
 30
0.0
 11
50.00091540155131
 21
51.6559890122013
 31
0.0
  0
LINE
  5
1A11
330
1B
100
AcDbEntity
 67
     1
  8
SPEC
100
AcDbLine
 10
50.00091540155131
 20
101.6559890122014
 30
0.0
 11
0.0009154015513104
 21
111.6559890122013
 31
0.0
  0
LINE
  5
1A13
330
1B
100
AcDbEntity
 67
     1
  8
SPEC
100
AcDbLine
 10
50.00091540155131
 20
111.6559890122013
 30
0.0
 11
80.0009154015513
 21
111.6559890122013
 31
0.0
  0
LINE
  5
1A15
330
1B
100
AcDbEntity
 67
     1
  8
SPEC
100
AcDbLine
 10
110.0009154015513
 20
111.6559890122013
 30
0.0
 11
170.0009154015513
 21
111.6559890122013
 31
0.0
  0
TEXT
  5
1A16
330
1B
100
AcDbEntity
 67
     1
  8
DATA
100
AcDbText
 10
111.8283491883755
 20
28.0
 30
0.0
 40
2.4
  1
SHAFT PLAY (mm)
 41
0.7
  7
ROMANS
100
AcDbText
  0
LINE
  5
1A17
330
1B
100
AcDbEntity
 67
     1
  8
SPEC
100
AcDbLine
 10
110.0009154015513
 20
31.65598901220131
 30
0.0
 11
140.0009154015513
 21
31.65598901220131
 31
0.0
  0
TEXT
  5
1A18
330
1B
100
AcDbEntity
 67
     1
  8
DATA
100
AcDbText
 10
143.8283491883755
 20
32.61725211586702
 30
0.0
 40
2.5
  1
AXIAL
 41
0.7
  7
ROMANS
100
AcDbText
  0
TEXT
  5
1A19
330
1B
100
AcDbEntity
 67
     1
  8
DATA
100
AcDbText
 10
157.8283491883756
 20
32.61725211586702
 30
0.0
 40
2.5
  1
RADIAL
 41
0.7
  7
ROMANS
100
AcDbText
  0
TEXT
  5
1A1A
330
1B
100
AcDbEntity
 67
     1
  8
DATA
100
AcDbText
 10
142.8283491883755
 20
27.61725211586702
 30
0.0
 40
2.5
  1
0.075
 41
0.7
  7
ROMANS
100
AcDbText
  0
TEXT
  5
1A1B
330
1B
100
AcDbEntity
 67
     1
  8
DATA
100
AcDbText
 10
157.8283491883756
 20
27.61725211586702
 30
0.0
 40
2.5
  1
0.025
 41
0.7
  7
ROMANS
100
AcDbText
  0
TEXT
  5
1A1C
330
1B
100
AcDbEntity
 67
     1
  8
DATA
100
AcDbText
 10
143.8283491883755
 20
22.61725211586702
 30
0.0
 40
2.5
  1
10
 41
0.7
  7
ROMANS
100
AcDbText
  0
TEXT
  5
1A1D
330
1B
100
AcDbEntity
 67
     1
  8
DATA
100
AcDbText
 10
157.8283491883756
 20
22.61725211586702
 30
0.0
 40
2.5
  1
5.0
 41
0.7
  7
ROMANS
100
AcDbText
  0
LINE
  5
1A1E
330
1B
100
AcDbEntity
 67
     1
  8
SPEC
100
AcDbLine
 10
110.0009154015513
 20
36.65598901220142
 30
0.0
 11
140.0009154015513
 21
31.65598901220131
 31
0.0
  0
LINE
  5
1A1F
330
1B
100
AcDbEntity
 67
     1
  8
SPEC
100
AcDbLine
 10
140.0009154015513
 20
46.65598901220142
 30
0.0
 11
146.0009154015513
 21
46.65598901220142
 31
0.0
  0
LINE
  5
1A21
330
1B
100
AcDbEntity
 67
     1
  8
SPEC
100
AcDbLine
 10
147.5009154015513
 20
46.65598901220142
 30
0.0
 11
147.5009154015513
 21
36.65598901220142
 31
0.0
  0
LINE
  5
1A22
330
1B
100
AcDbEntity
 67
     1
  8
SPEC
100
AcDbLine
 10
155.0009154015513
 20
46.65598901220142
 30
0.0
 11
155.0009154015513
 21
36.65598901220142
 31
0.0
  0
LINE
  5
1A23
330
1B
100
AcDbEntity
 67
     1
  8
SPEC
100
AcDbLine
 10
162.5009154015513
 20
46.65598901220142
 30
0.0
 11
162.5009154015513
 21
36.65598901220142
 31
0.0
  0
LINE
  5
1A6A
330
1B
100
AcDbEntity
 67
     1
  8
SPEC
100
AcDbLine
 10
110.0009154015513
 20
111.6559890122013
 30
0.0
 11
110.0009154015513
 21
21.6559890122013
 31
0.0
  0
VIEWPORT
  5
1E55
102
{ACAD_XDICTIONARY
360
65D3
102
}
330
1B
100
AcDbEntity
 67
     1
  8
AM_VIEWS
100
AcDbViewport
 10
140.0004577007756
 20
153.9532840649441
 30
0.0
 40
279.9990845984487
 41
84.59459010548574
 68
     2
 69
     2
 12
17.94689591674616
 22
-29.27760047776852
 13
0.0
 23
0.0
 14
2.5
 24
2.5
 15
10.0
 25
10.0
 16
0.0
 26
0.0
 36
503.017576584829
 17
937.8833387861368
 27
626.5091020841953
 37
0.0
 42
50.0
 43
0.0
 44
0.0
 45
138.6129163302841
 50
0.0
 51
0.0
 72
   100
 90
    32864
  1

281
     0
 71
     1
 74
     0
110
0.0
120
0.0
130
0.0
111
1.0
121
0.0
131
0.0
112
0.0
122
1.0
132
0.0
 79
     0
146
0.0
1001
GENIUS_GENOBJ-N-SDF_13
1002
{
1000
OWNER
1000
GEN
1002
}
1001
GENIUS_GENODEF_13
1002
{
1000
HIER
1070
     0
1002
}
1002
{
1000
MANEDIT
1070
     0
1002
}
1002
{
1000
NOSEL
1070
     0
1002
}
1002
{
1000
BEHIND
1070
     0
1002
}
1002
{
1000
OTHER
1070
     0
1002
}
1002
{
1000
REACTOR
1002
}
1001
GENIUS_GENSCREG_15
1000
PF
1040
0.0
1000
DF
1040
0.0
1000
MIN
1011
0.0009154015513104
1021
111.6559890122013
1031
0.0
1000
MAX
1011
280.0
1021
196.250579117687
1031
0.0
1000
FLAGS
1070
     2
  0
TEXT
  5
2CB7
330
1B
100
AcDbEntity
 67
     1
  8
DATA
100
AcDbText
 10
70.0
 20
53.0
 30
0.0
 40
2.4
  1
0.2 [0.441]
 41
0.7
  7
ROMANS
100
AcDbText
  0
TEXT
  5
2CBF
330
1B
100
AcDbEntity
 67
     1
  8
DATA
100
AcDbText
 10
70.0
 20
83.0
 30
0.0
 40
2.4
  1
4.4%%P20%
 41
0.7
  7
ROMANS
100
AcDbText
  0
TEXT
  5
2CCB
330
1B
100
AcDbEntity
 67
     1
  8
DATA
100
AcDbText
 10
70.0
 20
78.0
 30
0.0
 40
2.4
  1
0.15 [1.328]
 41
0.7
  7
ROMANS
100
AcDbText
  0
LWPOLYLINE
  5
2CEB
330
1B
100
AcDbEntity
 67
     1
  8
SPEC
100
AcDbPolyline
 90
        4
 70
     1
 43
0.0
 10
139.0972407104071
 20
91.87558421750372
 10
159.2275531197891
 20
91.87558421750374
 10
159.2275531197891
 20
60.09299455805124
 10
139.0972407104071
 20
60.09299455805124
  0
LWPOLYLINE
  5
2D6D
330
1B
100
AcDbEntity
 67
     1
  8
SPEC
100
AcDbPolyline
 90
        4
 70
     1
 43
0.0
 10
139.0972407104071
 20
87.09730240531003
 10
137.6137908953366
 20
87.09730240531003
 10
137.6137908953366
 20
64.87127637024494
 10
139.0972407104071
 20
64.87127637024494
  0
LINE
  5
2D70
330
1B
100
AcDbEntity
 67
     1
  8
SPEC
100
AcDbLine
 10
168.9451046743791
 20
74.09868988223387
 30
0.0
 11
159.2275531197891
 21
74.09868988223387
 31
0.0
  0
LINE
  5
2D71
330
1B
100
AcDbEntity
 67
     1
  8
SPEC
100
AcDbLine
 10
168.9451046743791
 20
77.86988889332109
 30
0.0
 11
159.2275531197891
 21
77.86988889332109
 31
0.0
  0
LINE
  5
2D72
330
1B
100
AcDbEntity
 67
     1
  8
SPEC
100
AcDbLine
 10
168.9451046743791
 20
74.09868988223387
 30
0.0
 11
168.9451046743791
 21
77.86988889332109
 31
0.0
  0
LWPOLYLINE
  5
2D94
330
1B
100
AcDbEntity
 67
     1
  8
SPEC
100
AcDbPolyline
 90
        4
 70
     1
 43
0.0
 10
157.9302096399492
 20
81.38735029589254
 10
154.6305199228664
 20
81.38735029589254
 10
154.6305199228664
 20
70.58122847966247
 10
157.9302096399492
 20
70.58122847966247
  0
CIRCLE
  5
2D95
330
1B
100
AcDbEntity
 67
     1
  8
SPEC
100
AcDbCircle
 10
156.2803647814078
 20
79.73750543735114
 30
0.0
 40
1.649844858541398
  0
CIRCLE
  5
2D96
330
1B
100
AcDbEntity
 67
     1
  8
SPEC
100
AcDbCircle
 10
156.2803647814078
 20
72.23107333820388
 30
0.0
 40
1.649844858541398
  0
LINE
  5
2D97
330
1B
100
AcDbEntity
 67
     1
  8
SPEC
100
AcDbLine
 10
157.9302096399492
 20
81.38735029589254
 30
0.0
 11
158.5734045934214
 21
80.74081741993238
 31
0.0
  0
LINE
  5
2D98
330
1B
100
AcDbEntity
 67
     1
  8
SPEC
100
AcDbLine
 10
158.6531348075577
 20
77.651473709366
 30
0.0
 11
158.5053768956558
 21
77.48676576983574
 31
0.0
  0
LINE
  5
2D99
330
1B
100
AcDbEntity
 67
     1
  8
SPEC
100
AcDbLine
 10
158.5053768956559
 20
74.48181300571924
 30
0.0
 11
158.6531348075576
 21
74.31710506618914
 31
0.0
  0
LINE
  5
2D9A
330
1B
100
AcDbEntity
 67
     1
  8
SPEC
100
AcDbLine
 10
158.5734045934215
 20
71.2277613556228
 30
0.0
 11
157.9302096399492
 21
70.58122847966247
 31
0.0
  0
ARC
  5
2D9E
330
1B
100
AcDbEntity
 67
     1
  8
SPEC
100
AcDbCircle
 10
156.9783020632643
 20
79.15395009142419
 30
0.0
 40
2.25
100
AcDbArc
 50
318.1050245216237
 51
44.85171410623406
  0
ARC
  5
2DA1
330
1B
100
AcDbEntity
 67
     1
  8
SPEC
100
AcDbCircle
 10
156.9783020632643
 20
72.81462868413088
 30
0.0
 40
2.25
100
AcDbArc
 50
315.1482858937687
 51
41.8949754783788
  0
ARC
  5
2DA2
330
1B
100
AcDbEntity
 67
     1
  8
SPEC
100
AcDbCircle
 10
160.1802096399492
 20
75.98428938777752
 30
0.0
 40
2.25
100
AcDbArc
 50
138.1050245216231
 51
221.8949754783793
  0
LWPOLYLINE
  5
2DA3
330
1B
100
AcDbEntity
 67
     1
  8
SPEC
100
AcDbPolyline
 90
        4
 70
     1
 43
0.0
 10
139.0972407104071
 20
81.38735029589254
 10
142.3969304274899
 20
81.38735029589254
 10
142.3969304274899
 20
70.58122847966247
 10
139.0972407104071
 20
70.58122847966247
  0
CIRCLE
  5
2DA4
330
1B
100
AcDbEntity
 67
     1
  8
SPEC
100
AcDbCircle
 10
140.7470855689485
 20
79.73750543735114
 30
0.0
 40
1.649844858541398
  0
CIRCLE
  5
2DA5
330
1B
100
AcDbEntity
 67
     1
  8
SPEC
100
AcDbCircle
 10
140.7470855689485
 20
72.23107333820388
 30
0.0
 40
1.649844858541398
  0
TEXT
  5
2DC8
330
1B
100
AcDbEntity
 67
     1
  8
DATA
100
AcDbText
 10
1.828349188375568
 20
23.0
 30
0.0
 40
2.4
  1
AMBIENT HUMIDITY MAX. 85% (NO CONDENSATION)
 41
0.7
  7
ROMANS
100
AcDbText
  0
LINE
  5
2DD6
330
1B
100
AcDbEntity
 67
     1
  8
SPEC
100
AcDbLine
 10
146.0009154015513
 20
46.65598901220142
 30
0.0
 11
151.0009154015513
 21
46.65598901220142
 31
0.0
  0
LINE
  5
2DD7
330
1B
100
AcDbEntity
 67
     1
  8
SPEC
100
AcDbLine
 10
140.0009154015513
 20
51.6559890122013
 30
0.0
 11
140.0009154015513
 21
21.6559890122013
 31
0.0
  0
LINE
  5
2DD8
330
1B
100
AcDbEntity
 67
     1
  8
SPEC
100
AcDbLine
 10
140.0009154015513
 20
36.65598901220131
 30
0.0
 11
155.0009154015513
 21
36.65598901220136
 31
0.0
  0
LINE
  5
2DD9
330
1B
100
AcDbEntity
 67
     1
  8
SPEC
100
AcDbLine
 10
155.0009154015513
 20
36.65598901220136
 30
0.0
 11
155.0009154015513
 21
21.6559890122013
 31
0.0
  0
TEXT
  5
2DE0
330
1B
100
AcDbEntity
 67
     1
  8
DATA
100
AcDbText
 10
111.8283491883755
 20
23.0
 30
0.0
 40
2.4
  1
AT LOAD MAX: (N)
 41
0.7
  7
ROMANS
100
AcDbText
  0
LINE
  5
2DE5
330
1B
100
AcDbEntity
 67
     1
  8
SPEC
100
AcDbLine
 10
127.8962393407466
 20
74.09868988223387
 30
0.0
 11
137.6137908953366
 21
74.09868988223387
 31
0.0
  0
LINE
  5
2DE6
330
1B
100
AcDbEntity
 67
     1
  8
SPEC
100
AcDbLine
 10
127.8962393407466
 20
77.86988889332109
 30
0.0
 11
137.6137908953366
 21
77.86988889332109
 31
0.0
  0
LINE
  5
2DE7
330
1B
100
AcDbEntity
 67
     1
  8
SPEC
100
AcDbLine
 10
127.8962393407466
 20
74.09868988223387
 30
0.0
 11
127.8962393407466
 21
77.86988889332109
 31
0.0
  0
MTEXT
  5
2E04
330
1B
100
AcDbEntity
 67
     1
  8
SPEC
 62
     6
100
AcDbMText
 10
145.5187721793249
 20
89.62880385942026
 30
0.0
 40
2.0
 41
0.0
 71
     1
 72
     1
  1
BEARING
  7
ROMANS
 73
     1
 44
1.0
1001
ACAD
1000
ACAD_MTEXT_DEFINED_HEIGHT_BEGIN
1070
    46
1040
0.0
1000
ACAD_MTEXT_DEFINED_HEIGHT_END
1000
MTEXTBEGIN
1070
    73
1070
     1
1070
    44
1040
1.0
1070
    74
1070
     0
1000
MTEXTEND
  0
LEADER
  5
2E07
330
1B
100
AcDbEntity
 67
     1
  8
SPEC
100
AcDbLeader
  3
STANDARD
 76
     2
 10
156.2803647814078
 20
79.73750543735114
 30
0.0
 10
150.8271563148611
 20
87.12304269521258
 30
0.0
1001
ACAD
1000
DSTYLE
1002
{
1070
   147
1040
1.0
1070
    77
1070
     0
1002
}
  0
LEADER
  5
2E09
330
1B
100
AcDbEntity
 67
     1
  8
SPEC
100
AcDbLeader
  3
STANDARD
 76
     2
 10
140.7470855689485
 20
79.73750543735114
 30
0.0
 10
146.7956208247884
 20
86.83653569069861
 30
0.0
1001
ACAD
1000
DSTYLE
1002
{
1070
   147
1040
1.0
1070
    77
1070
     0
1002
}
  0
LEADER
  5
2E0A
330
1B
100
AcDbEntity
 67
     1
  8
SPEC
100
AcDbLeader
  3
STANDARD
 73
     0
 75
     1
 40
5.333333333333333
 41
9.066666666666666
 76
     3
 10
158.5734045934214
 20
80.74081741993238
 30
0.0
 10
167.5136123890166
 20
94.46023307290511
 30
0.0
 10
164.5136123890166
 20
94.46023307290511
 30
0.0
340
2E0B
213
1.589802987236566
223
-4.427990251304436
233
0.0
1001
ACAD
1000
DSTYLE
1002
{
1070
   147
1040
1.0
1070
    77
1070
     0
1002
}
  0
MTEXT
  5
2E0B
102
{ACAD_REACTORS
330
2E0A
102
}
330
1B
100
AcDbEntity
 67
     1
  8
SPEC
 62
     6
100
AcDbMText
 10
161.9238094017801
 20
98.88822332420955
 30
0.0
 40
2.0
 41
0.0
 71
     3
 72
     1
  1
SPRING\PWASHER
  7
ROMANS
 73
     1
 44
1.0
1001
ACAD
1000
ACAD_MTEXT_DEFINED_HEIGHT_BEGIN
1070
    46
1040
0.0
1000
ACAD_MTEXT_DEFINED_HEIGHT_END
1000
MTEXTBEGIN
1070
    73
1070
     1
1070
    44
1040
1.0
1070
    74
1070
     0
1000
MTEXTEND
  0
MTEXT
  5
2E19
330
1B
100
AcDbEntity
 67
     1
  8
DATA
100
AcDbMText
 10
148.4983559025127
 20
50.13711884239956
 30
0.0
 40
2.399999999999999
 41
110.0
 71
     1
 72
     5
  1
{\W0.7;F\H0.8333x;a\H1.2x;=7}
  7
ROMANS
 73
     1
 44
1.0
1001
ACAD
1000
ACAD_MTEXT_DEFINED_HEIGHT_BEGIN
1070
    46
1040
0.0
1000
ACAD_MTEXT_DEFINED_HEIGHT_END
1000
MTEXTBEGIN
1070
    73
1070
     1
1070
    44
1040
1.0
1070
    74
1070
     0
1000
MTEXTEND
  0
MTEXT
  5
2E48
330
1B
100
AcDbEntity
 67
     1
  8
SPEC
 62
     6
100
AcDbMText
 10
111.8786983663672
 20
99.27994356100203
 30
0.0
 40
2.0
 41
0.0
 71
     1
 72
     1
  1
ROTOR SPRING-\PMOUNTED IN\PAXIAL DIRECTION
  7
ROMANS
 73
     1
 44
1.0
1001
ACAD
1000
ACAD_MTEXT_DEFINED_HEIGHT_BEGIN
1070
    46
1040
0.0
1000
ACAD_MTEXT_DEFINED_HEIGHT_END
1000
MTEXTBEGIN
1070
    73
1070
     1
1070
    44
1040
1.0
1070
    74
1070
     0
1000
MTEXTEND
  0
LEADER
  5
2E5C
330
1B
100
AcDbEntity
 67
     1
  8
DIM
100
AcDbLeader
  3
STANDARD
 76
     2
 10
131.5179864032658
 20
89.06775256840445
 30
0.0
 10
112.2566843209139
 20
89.06775256840445
 30
0.0
1001
ACAD
1000
DSTYLE
1002
{
1070
   147
1040
1.0
1070
    77
1070
     0
1002
}
  0
TEXT
  5
557C
330
1B
100
AcDbEntity
 67
     1
  8
DATA
100
AcDbText
 10
102.9106217481551
 20
2.296070477388891
 30
0.0
 40
3.861395999999999
  1
SH4018S1204
 41
0.7
  7
ROMANS
100
AcDbText
  0
TEXT
  5
57F0
330
1B
100
AcDbEntity
 67
     1
  8
DATA
100
AcDbText
 10
78.36387580136364
 20
59.63445597528265
 30
0.0
 40
1.399999999999999
  1
-6
 41
0.7
  7
ROMANS
100
AcDbText
  0
TEXT
  5
57F1
330
1B
100
AcDbEntity
 67
     1
  8
DATA
100
AcDbText
 10
70.0
 20
58.0
 30
0.0
 40
2.4
  1
1.9x10  [6.49x10  ]
 41
0.7
  7
ROMANS
100
AcDbText
  0
MTEXT
  5
57F2
330
1B
100
AcDbEntity
 67
     1
  8
DATA
100
AcDbMText
 10
70.0
 20
76.11725211586701
 30
0.0
 40
2.399999999999999
 41
50.69688999264281
 71
     1
 72
     5
  1
{\W0.7;4.5x10  [0.0398]}
  7
ROMANS
 73
     1
 44
1.0
1001
ACAD
1000
ACAD_MTEXT_DEFINED_HEIGHT_BEGIN
1070
    46
1040
0.0
1000
ACAD_MTEXT_DEFINED_HEIGHT_END
1000
MTEXTBEGIN
1070
    73
1070
     1
1070
    44
1040
1.0
1070
    74
1070
     0
1000
MTEXTEND
  0
TEXT
  5
57F3
330
1B
100
AcDbEntity
 67
     1
  8
DATA
100
AcDbText
 10
77.79677833265445
 20
74.91671503609204
 30
0.0
 40
1.399999999999999
  1
-3
 41
0.7
  7
ROMANS
100
AcDbText
  0
MTEXT
  5
59F4
330
1B
100
AcDbEntity
 67
     1
  8
DATA
100
AcDbMText
 10
118.2344638844852
 20
79.4204407347795
 30
0.0
 40
2.399999999999999
 41
6.509999999999999
 71
     1
 72
     5
  1
F{\H0.8333x;a}
  7
ROMANS
 73
     1
 44
1.0
1001
ACAD
1000
ACAD_MTEXT_DEFINED_HEIGHT_BEGIN
1070
    46
1040
0.0
1000
ACAD_MTEXT_DEFINED_HEIGHT_END
1000
MTEXTBEGIN
1070
    73
1070
     1
1070
    44
1040
1.0
1070
    74
1070
     0
1000
MTEXTEND
  0
DIMENSION
  5
59F5
330
1B
100
AcDbEntity
 67
     1
  8
AM_5
100
AcDbDimension
  2
*D7
 10
112.1274407842458
 20
75.85282590218707
 30
0.0
 11
118.4509808721768
 21
75.85282590218707
 31
0.0
 70
    32
  1
 
 71
     5
 42
12.64708017586213
  3
STANDARD$0
100
AcDbAlignedDimension
 13
124.7745209601079
 23
75.8528259021871
 33
0.0
 14
112.1274407842458
 24
75.85282590218707
 34
0.0
100
AcDbRotatedDimension
1001
ACAD
1000
DSTYLE
1002
{
1070
   281
1070
     0
1070
    76
1070
     1
1070
    75
1070
     1
1070
    47
1040
0.2
1070
    48
1040
-0.2
1070
   272
1070
     1
1002
}
  0
TEXT
  5
5BB4
330
1B
100
AcDbEntity
 67
     1
  8
DATA
100
AcDbText
 10
162.9999999999723
 20
16.96410451522373
 30
0.0
 40
2.896047
  1
APVD
 41
0.7
  7
ROMANS
100
AcDbText
  0
TEXT
  5
5BB5
330
1B
100
AcDbEntity
 67
     1
  8
DATA
100
AcDbText
 10
162.9999999999723
 20
12.35726786292487
 30
0.0
 40
2.896047
  1
CHKD
 41
0.7
  7
ROMANS
100
AcDbText
  0
TEXT
  5
5BB6
330
1B
100
AcDbEntity
 67
     1
  8
DATA
100
AcDbText
 10
162.9999999999723
 20
7.366527959600396
 30
0.0
 40
2.896047
  1
DRN
 41
0.7
  7
ROMANS
100
AcDbText
  0
TEXT
  5
5BB7
330
1B
100
AcDbEntity
 67
     1
  8
DATA
100
AcDbText
 10
175.682905111775
 20
7.450575519801228
 30
0.0
 40
3.0
  1
J.W.
  7
ITALICT
100
AcDbText
  0
LINE
  5
5D69
102
{ACAD_REACTORS
330
5D6D
102
}
330
1B
100
AcDbEntity
 67
     1
  8
CONNECTOR
100
AcDbLine
 10
260.1498949271972
 20
76.63083266744376
 30
0.0
 11
258.2298949271974
 21
76.63083266744376
 31
0.0
  0
LINE
  5
5D6A
102
{ACAD_REACTORS
330
5D6D
102
}
330
1B
100
AcDbEntity
 67
     1
  8
CONNECTOR
100
AcDbLine
 10
258.2298949271974
 20
72.15083266744374
 30
0.0
 11
260.1498949271972
 21
72.15083266744374
 31
0.0
  0
LINE
  5
5D6B
102
{ACAD_REACTORS
330
5D6D
102
}
330
1B
100
AcDbEntity
 67
     1
  8
CONNECTOR
100
AcDbLine
 10
260.1498949271972
 20
72.15083266744374
 30
0.0
 11
260.1498949271972
 21
76.63083266744376
 31
0.0
  0
LINE
  5
5D6C
102
{ACAD_REACTORS
330
5D6D
102
}
330
1B
100
AcDbEntity
 67
     1
  8
CONNECTOR
100
AcDbLine
 10
258.2298949271974
 20
76.63083266744376
 30
0.0
 11
258.2298949271974
 21
72.15083266744374
 31
0.0
  0
HATCH
  5
5D6D
330
1B
100
AcDbEntity
 67
     1
  8
CONNECTOR
100
AcDbHatch
 10
0.0
 20
0.0
 30
0.0
210
0.0
220
0.0
230
1.0
  2
SOLID
 70
     1
 71
     1
 91
        1
 92
        1
 93
        4
 72
     1
 10
260.1498949271972
 20
76.63083266744376
 11
258.2298949271974
 21
76.63083266744376
 72
     1
 10
258.2298949271974
 20
76.63083266744376
 11
258.2298949271974
 21
72.15083266744374
 72
     1
 10
258.2298949271974
 20
72.15083266744374
 11
260.1498949271972
 21
72.15083266744374
 72
     1
 10
260.1498949271972
 20
72.15083266744374
 11
260.1498949271972
 21
76.63083266744376
 97
        4
330
5D69
330
5D6C
330
5D6A
330
5D6B
 75
     0
 76
     1
 98
        1
 10
111.0298949271973
 20
-36.32916733255627
  0
LWPOLYLINE
  5
5D6E
330
1B
100
AcDbEntity
 67
     1
  8
CONNECTOR
100
AcDbPolyline
 90
        3
 70
     0
 43
0.0
 10
202.8000404246576
 20
77.09200028582005
 10
202.8000404246576
 20
77.09200028582005
 10
206.8739178952186
 20
77.09200028092356
  0
LWPOLYLINE
  5
5D6F
330
1B
100
AcDbEntity
 67
     1
  8
CONNECTOR
100
AcDbPolyline
 90
        3
 70
     0
 43
0.0
 10
202.8000404599155
 20
89.0406765004411
 10
202.8000404599155
 20
89.0406765004411
 10
206.8739178952186
 20
89.04067649497687
  0
MTEXT
  5
5D70
330
1B
100
AcDbEntity
 67
     1
  8
CONNECTOR
100
AcDbMText
 10
248.7163941178033
 20
72.86791880996871
 30
0.0
 40
2.4
 41
5.0
 71
     1
 72
     1
  1
B\\
  7
ROMANS
 73
     1
 44
1.0
1001
ACAD
1000
MTEXTBEGIN
1070
    73
1070
     1
1070
    44
1040
1.0
1070
    74
1070
     0
1000
MTEXTEND
  0
MTEXT
  5
5D71
330
1B
100
AcDbEntity
 67
     1
  8
CONNECTOR
100
AcDbMText
 10
248.6795449688534
 20
79.02214302199659
 30
0.0
 40
2.4
 41
4.0
 71
     1
 72
     1
  1
B
  7
ROMANS
 73
     1
 44
1.0
1001
ACAD
1000
MTEXTBEGIN
1070
    73
1070
     1
1070
    44
1040
1.0
1070
    74
1070
     0
1000
MTEXTEND
  0
MTEXT
  5
5D72
330
1B
100
AcDbEntity
 67
     1
  8
CONNECTOR
100
AcDbMText
 10
248.3276981790343
 20
84.02530767368523
 30
0.0
 40
2.4
 41
5.0
 71
     1
 72
     1
  1
A\\
  7
ROMANS
 73
     1
 44
1.0
1001
ACAD
1000
MTEXTBEGIN
1070
    73
1070
     1
1070
    44
1040
1.0
1070
    74
1070
     0
1000
MTEXTEND
  0
MTEXT
  5
5D73
330
1B
100
AcDbEntity
 67
     1
  8
CONNECTOR
100
AcDbMText
 10
248.5538041700913
 20
90.46556349097079
 30
0.0
 40
2.4
 41
4.0
 71
     1
 72
     1
  1
A
  7
ROMANS
 73
     1
 44
1.0
1001
ACAD
1000
MTEXTBEGIN
1070
    73
1070
     1
1070
    44
1040
1.0
1070
    74
1070
     0
1000
MTEXTEND
  0
TEXT
  5
5D74
330
1B
100
AcDbEntity
 67
     1
  8
CONNECTOR
100
AcDbText
 10
195.9543181037118
 20
100.6064744390815
 30
0.0
 40
2.4
  1
(EXTERN)
 41
0.65
  7
ROMANS
100
AcDbText
  0
TEXT
  5
5D75
330
1B
100
AcDbEntity
 67
     1
  8
CONNECTOR
100
AcDbText
 10
234.3325503547887
 20
102.1502571750892
 30
0.0
 40
2.4
  1
MOTOR
 41
0.65
  7
ROMANS
100
AcDbText
  0
TEXT
  5
5D76
330
1B
100
AcDbEntity
 67
     1
  8
CONNECTOR
100
AcDbText
 10
189.9543181037118
 20
103.9686604096419
 30
0.0
 40
2.4
  1
TYPE OF CONNECTION
 41
0.65
  7
ROMANS
100
AcDbText
  0
LWPOLYLINE
  5
5D77
330
1B
100
AcDbEntity
 67
     1
  8
CONNECTOR
100
AcDbPolyline
 90
        4
 70
     1
 43
0.0
 10
187.9543181037118
 20
99.48463138333602
 10
264.3330796240771
 20
99.48463076220956
 10
264.3330796240771
 20
107.6531444291646
 10
187.9543181037118
 20
107.6531444291646
  0
MLINE
  5
5D78
330
1B
100
AcDbEntity
 67
     1
  8
CONNECTOR
100
AcDbMline
  2
STANDARD
340
18
 40
0.3
 70
     0
 71
     1
 72
     2
 73
     2
 10
216.9191207624947
 20
107.6531444291646
 30
0.0
210
0.0
220
0.0
230
1.0
 11
216.9191207624947
 21
107.6531444291646
 31
0.0
 12
-1.135098967989524E-08
 22
-1.0
 32
0.0
 13
1.0
 23
-1.135098972660561E-08
 33
0.0
 74
     2
 41
0.0
 41
0.0
 75
     0
 74
     2
 41
-0.3
 41
0.0
 75
     0
 11
216.9191203166172
 21
68.37220050739493
 31
0.0
 12
-1.135098967989524E-08
 22
-1.0
 32
0.0
 13
1.0
 23
-1.135098972660561E-08
 33
0.0
 74
     2
 41
0.0
 41
0.0
 75
     0
 74
     2
 41
-0.3
 41
0.0
 75
     0
  0
TEXT
  5
5D79
330
1B
100
AcDbEntity
 67
     1
  8
CONNECTOR
100
AcDbText
 10
218.4195644465481
 20
92.58703464596612
 30
0.0
 40
2.4
  1
PIN NO.
 41
0.7
  7
ROMANS
100
AcDbText
  0
TEXT
  5
5D7A
330
1B
100
AcDbEntity
 67
     1
  8
CONNECTOR
100
AcDbText
 10
234.4615001801878
 20
94.34912226683456
 30
0.0
 40
2.4
  1
LEADS
 41
0.7
  7
ROMANS
100
AcDbText
  0
TEXT
  5
5D7B
330
1B
100
AcDbEntity
 67
     1
  8
DATA
100
AcDbText
 10
220.0102301306657
 20
45.38141270478978
 30
0.0
 40
2.4
  1
CCW
 41
0.7
  7
ROMANS
 72
     1
 11
222.6902301306657
 21
45.38141270478978
 31
0.0
100
AcDbText
  0
SOLID
  5
5D7C
330
1B
100
AcDbEntity
 67
     1
  8
DATA
100
AcDbTrace
 10
222.2840799610822
 20
40.43820172486753
 30
0.0
 11
223.0840799610823
 21
40.43820172486753
 31
0.0
 12
222.6840799610823
 22
42.8382017248674
 32
0.0
 13
222.6840799610823
 23
42.8382017248674
 33
0.0
  0
TEXT
  5
5D7D
330
1B
100
AcDbEntity
 67
     1
  8
DATA
100
AcDbText
 10
207.7745881957737
 20
45.38141270478978
 30
0.0
 40
2.4
  1
B\
 41
0.7
  7
ROMANS
 72
     1
 11
209.5745881957737
 21
45.38141270478978
 31
0.0
100
AcDbText
  0
TEXT
  5
5D7E
330
1B
100
AcDbEntity
 67
     1
  8
DATA
100
AcDbText
 10
200.0145881957737
 20
45.38141270478978
 30
0.0
 40
2.4
  1
A\
 41
0.7
  7
ROMANS
 72
     1
 11
201.5745881957737
 21
45.38141270478978
 31
0.0
100
AcDbText
  0
TEXT
  5
5D7F
330
1B
100
AcDbEntity
 67
     1
  8
DATA
100
AcDbText
 10
208.6771863202575
 20
40.58141270478983
 30
0.0
 40
2.4
  1
-
 41
0.7
  7
ROMANS
 72
     1
 11
209.7171863202575
 21
40.58141270478983
 31
0.0
100
AcDbText
  0
TEXT
  5
5D80
330
1B
100
AcDbEntity
 67
     1
  8
DATA
100
AcDbText
 10
208.6771863202575
 20
36.00504105520996
 30
0.0
 40
2.4
  1
-
 41
0.7
  7
ROMANS
 72
     1
 11
209.7171863202575
 21
36.00504105520996
 31
0.0
100
AcDbText
  0
LINE
  5
5D81
330
1B
100
AcDbEntity
 67
     1
  8
DATA
100
AcDbLine
 10
216.5930796512203
 20
33.05614067461066
 30
0.0
 11
216.5930796512203
 21
43.50753322399838
 31
0.0
  0
TEXT
  5
5D82
330
1B
100
AcDbEntity
 67
     1
  8
DATA
100
AcDbText
 10
200.6771863202575
 20
40.58141270478983
 30
0.0
 40
2.4
  1
-
 41
0.7
  7
ROMANS
 72
     1
 11
201.7171863202575
 21
40.58141270478983
 31
0.0
100
AcDbText
  0
TEXT
  5
5D83
330
1B
100
AcDbEntity
 67
     1
  8
DATA
100
AcDbText
 10
200.5345881957737
 20
35.78141270478987
 30
0.0
 40
2.4
  1
+
 41
0.7
  7
ROMANS
 72
     1
 11
201.5745881957737
 21
35.78141270478987
 31
0.0
100
AcDbText
  0
TEXT
  5
5D84
330
1B
100
AcDbEntity
 67
     1
  8
DATA
100
AcDbText
 10
192.6945881957737
 20
45.38141270478978
 30
0.0
 40
2.4
  1
B
 41
0.7
  7
ROMANS
 72
     1
 11
193.5745881957737
 21
45.38141270478978
 31
0.0
100
AcDbText
  0
TEXT
  5
5D85
330
1B
100
AcDbEntity
 67
     1
  8
DATA
100
AcDbText
 10
184.8545881957737
 20
45.38141270478978
 30
0.0
 40
2.4
  1
A
 41
0.7
  7
ROMANS
 72
     1
 11
185.5745881957736
 21
45.38141270478978
 31
0.0
100
AcDbText
  0
TEXT
  5
5D86
330
1B
100
AcDbEntity
 67
     1
  8
DATA
100
AcDbText
 10
192.3056148612952
 20
30.97103195662713
 30
0.0
 40
2.4
  1
-
 41
0.7
  7
ROMANS
 72
     1
 11
193.3456148612952
 21
30.97103195662713
 31
0.0
100
AcDbText
  0
TEXT
  5
5D87
330
1B
100
AcDbEntity
 67
     1
  8
DATA
100
AcDbText
 10
184.3056148612952
 20
30.97103195662713
 30
0.0
 40
2.4
  1
-
 41
0.7
  7
ROMANS
 72
     1
 11
185.3456148612952
 21
30.97103195662713
 31
0.0
100
AcDbText
  0
TEXT
  5
5D88
330
1B
100
AcDbEntity
 67
     1
  8
DATA
100
AcDbText
 10
208.5345881957737
 20
26.18141270478974
 30
0.0
 40
2.4
  1
+
 41
0.7
  7
ROMANS
 72
     1
 11
209.5745881957737
 21
26.18141270478974
 31
0.0
100
AcDbText
  0
TEXT
  5
5D89
330
1B
100
AcDbEntity
 67
     1
  8
DATA
100
AcDbText
 10
200.5486436429055
 20
26.05143211885057
 30
0.0
 40
2.4
  1
-
 41
0.7
  7
ROMANS
 72
     1
 11
201.5886436429055
 21
26.05143211885057
 31
0.0
100
AcDbText
  0
TEXT
  5
5D8A
330
1B
100
AcDbEntity
 67
     1
  8
DATA
100
AcDbText
 10
192.5486436429055
 20
26.05143211885057
 30
0.0
 40
2.4
  1
-
 41
0.7
  7
ROMANS
 72
     1
 11
193.5886436429055
 21
26.05143211885057
 31
0.0
100
AcDbText
  0
TEXT
  5
5D8B
330
1B
100
AcDbEntity
 67
     1
  8
DATA
100
AcDbText
 10
184.5345881957737
 20
26.18141270478974
 30
0.0
 40
2.4
  1
+
 41
0.7
  7
ROMANS
 72
     1
 11
185.5745881957736
 21
26.18141270478974
 31
0.0
100
AcDbText
  0
TEXT
  5
5D8C
330
1B
100
AcDbEntity
 67
     1
  8
DATA
100
AcDbText
 10
214.9831642632759
 20
26.48678758595416
 30
0.0
 40
2.4
  1
CW
 41
0.7
  7
ROMANS
 72
     1
 11
216.8231642632759
 21
26.48678758595416
 31
0.0
100
AcDbText
  0
LINE
  5
5D8D
330
1B
100
AcDbEntity
 67
     1
  8
DATA
100
AcDbLine
 10
181.5745881957736
 20
48.98141270478969
 30
0.0
 11
181.5745881957736
 21
24.98141270478969
 31
0.0
  0
LINE
  5
5D8E
330
1B
100
AcDbEntity
 67
     1
  8
DATA
100
AcDbLine
 10
225.7850708776221
 20
48.98141270478969
 30
0.0
 11
225.7850708776221
 21
24.98141270478969
 31
0.0
  0
LINE
  5
5D8F
330
1B
100
AcDbEntity
 67
     1
  8
DATA
100
AcDbLine
 10
222.6840799610823
 20
40.43820172486753
 30
0.0
 11
222.6840799610823
 21
30.67805494059927
 31
0.0
  0
SOLID
  5
5D90
330
1B
100
AcDbEntity
 67
     1
  8
DATA
100
AcDbTrace
 10
216.9930796512204
 20
33.05614067461066
 30
0.0
 11
216.1930796512201
 21
33.05614067461066
 31
0.0
 12
216.5930796512203
 22
30.65614067461057
 32
0.0
 13
216.5930796512203
 23
30.65614067461057
 33
0.0
  0
LINE
  5
5D91
330
1B
100
AcDbEntity
 67
     1
  8
DATA
100
AcDbLine
 10
219.434834998169
 20
48.98141270478969
 30
0.0
 11
219.434834998169
 21
24.98141270478969
 31
0.0
  0
TEXT
  5
5D92
330
1B
100
AcDbEntity
 67
     1
  8
DATA
100
AcDbText
 10
208.5345881957737
 20
30.98141270478969
 30
0.0
 40
2.4
  1
+
 41
0.7
  7
ROMANS
 72
     1
 11
209.5745881957737
 21
30.98141270478969
 31
0.0
100
AcDbText
  0
TEXT
  5
5D93
330
1B
100
AcDbEntity
 67
     1
  8
DATA
100
AcDbText
 10
200.5345881957737
 20
30.98141270478969
 30
0.0
 40
2.4
  1
+
 41
0.7
  7
ROMANS
 72
     1
 11
201.5745881957737
 21
30.98141270478969
 31
0.0
100
AcDbText
  0
LINE
  5
5D94
330
1B
100
AcDbEntity
 67
     1
  8
DATA
100
AcDbLine
 10
213.5745881957737
 20
48.98141270478969
 30
0.0
 11
213.5745881957737
 21
24.98141270478969
 31
0.0
  0
LINE
  5
5D95
330
1B
100
AcDbEntity
 67
     1
  8
DATA
100
AcDbLine
 10
205.5745881957737
 20
48.98141270478969
 30
0.0
 11
205.5745881957737
 21
24.98141270478969
 31
0.0
  0
LINE
  5
5D96
330
1B
100
AcDbEntity
 67
     1
  8
DATA
100
AcDbLine
 10
197.5745881957737
 20
48.98141270478969
 30
0.0
 11
197.5745881957737
 21
24.98141270478969
 31
0.0
  0
TEXT
  5
5D97
330
1B
100
AcDbEntity
 67
     1
  8
DATA
100
AcDbText
 10
176.8945881957737
 20
40.58141270478983
 30
0.0
 40
2.4
  1
1
 41
0.7
  7
ROMANS
 72
     1
 11
177.5745881957737
 21
40.58141270478983
 31
0.0
100
AcDbText
  0
TEXT
  5
5D98
330
1B
100
AcDbEntity
 67
     1
  8
DATA
100
AcDbText
 10
176.7745881957736
 20
35.78141270478987
 30
0.0
 40
2.4
  1
2
 41
0.7
  7
ROMANS
 72
     1
 11
177.5745881957737
 21
35.78141270478987
 31
0.0
100
AcDbText
  0
TEXT
  5
5D99
330
1B
100
AcDbEntity
 67
     1
  8
DATA
100
AcDbText
 10
176.7345881957736
 20
26.18141270478974
 30
0.0
 40
2.4
  1
4
 41
0.7
  7
ROMANS
 72
     1
 11
177.5745881957737
 21
26.18141270478974
 31
0.0
100
AcDbText
  0
TEXT
  5
5D9A
330
1B
100
AcDbEntity
 67
     1
  8
DATA
100
AcDbText
 10
176.7745881957736
 20
30.98141270478969
 30
0.0
 40
2.4
  1
3
 41
0.7
  7
ROMANS
 72
     1
 11
177.5745881957737
 21
30.98141270478969
 31
0.0
100
AcDbText
  0
LINE
  5
5D9B
330
1B
100
AcDbEntity
 67
     1
  8
DATA
100
AcDbLine
 10
173.5745881957737
 20
48.98141270478969
 30
0.0
 11
173.5745881957737
 21
24.98141270478969
 31
0.0
  0
TEXT
  5
5D9C
330
1B
100
AcDbEntity
 67
     1
  8
DATA
100
AcDbText
 10
173.5745881957737
 20
50.39093651431368
 30
0.0
 40
2.8
  1
WHEN FACING MOUNTING END (X)
 41
0.7
  7
ROMANS
100
AcDbText
  0
TEXT
  5
5D9D
330
1B
100
AcDbEntity
 67
     1
  8
DATA
100
AcDbText
 10
173.4077061532127
 20
54.98141270478969
 30
0.0
 40
2.8
  1
FULL STEP 2 PHASE-Ex.,
 41
0.7
  7
ROMANS
100
AcDbText
  0
LINE
  5
5D9E
330
1B
100
AcDbEntity
 67
     1
  8
DATA
100
AcDbLine
 10
173.5745881957737
 20
44.18141270478973
 30
0.0
 11
213.5745881957737
 21
44.18141270478973
 31
0.0
  0
LINE
  5
5D9F
330
1B
100
AcDbEntity
 67
     1
  8
DATA
100
AcDbLine
 10
173.5745881957737
 20
29.78141270478987
 30
0.0
 11
213.5745881957737
 21
29.78141270478987
 31
0.0
  0
LINE
  5
5DA0
330
1B
100
AcDbEntity
 67
     1
  8
DATA
100
AcDbLine
 10
225.7850708776221
 20
48.98141270478969
 30
0.0
 11
173.5745881957737
 21
48.98141270478969
 31
0.0
  0
LINE
  5
5DA1
330
1B
100
AcDbEntity
 67
     1
  8
DATA
100
AcDbLine
 10
173.5745881957737
 20
24.98141270478969
 30
0.0
 11
225.7850708776221
 21
24.98141270478969
 31
0.0
  0
TEXT
  5
5DA2
330
1B
100
AcDbEntity
 67
     1
  8
DATA
100
AcDbText
 10
174.5345881957737
 20
45.38141270478978
 30
0.0
 40
2.4
  1
STEP
 41
0.7
  7
ROMANS
 72
     1
 11
177.5745881957737
 21
45.38141270478978
 31
0.0
100
AcDbText
  0
TEXT
  5
5DA3
330
1B
100
AcDbEntity
 67
     1
  8
DATA
100
AcDbText
 10
192.5345881957737
 20
40.58141270478983
 30
0.0
 40
2.4
  1
+
 41
0.7
  7
ROMANS
 72
     1
 11
193.5745881957737
 21
40.58141270478983
 31
0.0
100
AcDbText
  0
TEXT
  5
5DA4
330
1B
100
AcDbEntity
 67
     1
  8
DATA
100
AcDbText
 10
192.5345881957737
 20
35.78141270478987
 30
0.0
 40
2.4
  1
+
 41
0.7
  7
ROMANS
 72
     1
 11
193.5745881957737
 21
35.78141270478987
 31
0.0
100
AcDbText
  0
TEXT
  5
5DA5
330
1B
100
AcDbEntity
 67
     1
  8
DATA
100
AcDbText
 10
184.5345881957737
 20
40.58141270478983
 30
0.0
 40
2.4
  1
+
 41
0.7
  7
ROMANS
 72
     1
 11
185.5745881957736
 21
40.58141270478983
 31
0.0
100
AcDbText
  0
TEXT
  5
5DA6
330
1B
100
AcDbEntity
 67
     1
  8
DATA
100
AcDbText
 10
184.3056148612952
 20
35.77622212781931
 30
0.0
 40
2.4
  1
-
 41
0.7
  7
ROMANS
 72
     1
 11
185.3456148612952
 21
35.77622212781931
 31
0.0
100
AcDbText
  0
LINE
  5
5DA7
330
1B
100
AcDbEntity
 67
     1
  8
DATA
100
AcDbLine
 10
189.5745881957737
 20
48.98141270478969
 30
0.0
 11
189.5745881957737
 21
24.98141270478969
 31
0.0
  0
LINE
  5
5DA8
330
1B
100
AcDbEntity
 67
     1
  8
DATA
100
AcDbLine
 10
173.5745881957737
 20
39.38141270478978
 30
0.0
 11
213.5745881957737
 21
39.38141270478978
 31
0.0
  0
LINE
  5
5DA9
330
1B
100
AcDbEntity
 67
     1
  8
DATA
100
AcDbLine
 10
173.5745881957737
 20
34.58141270478983
 30
0.0
 11
213.5745881957737
 21
34.58141270478983
 31
0.0
  0
LINE
  5
5DAA
330
1B
100
AcDbEntity
 67
     1
  8
CONNECTOR
100
AcDbLine
 10
187.9543181037118
 20
99.48463137847097
 30
0.0
 11
187.9543181037118
 21
68.37220061722513
 31
0.0
  0
LINE
  5
5DAB
330
1B
100
AcDbEntity
 67
     1
  8
CONNECTOR
100
AcDbLine
 10
264.3330796240771
 20
91.67164437848793
 30
0.0
 11
187.9543181037118
 21
91.67164440466221
 31
0.0
  0
TEXT
  5
5DAC
330
1B
100
AcDbEntity
 67
     1
  8
CONNECTOR
100
AcDbText
 10
250.2102719053032
 20
94.43058202521079
 30
0.0
 40
2.4
  1
WINDING
 41
0.7
  7
ROMANS
100
AcDbText
  0
LWPOLYLINE
  5
5DAD
330
1B
100
AcDbEntity
 67
     1
  8
CONNECTOR
100
AcDbPolyline
 90
        4
 70
     1
 43
0.0
 10
247.4427521142384
 20
99.48463076220956
 10
264.3330796240771
 20
99.48463076220956
 10
264.3330796240771
 20
68.3722004989314
 10
247.4427521163661
 20
68.3722004989314
  0
LWPOLYLINE
  5
5DAE
330
1B
100
AcDbEntity
 67
     1
  8
CONNECTOR
100
AcDbPolyline
 90
        2
 70
     0
 43
0.0
 10
206.8739178952186
 20
83.14187857768864
 10
202.8000404376661
 20
83.14187858315289
  0
MTEXT
  5
5DAF
330
1B
100
AcDbEntity
 67
     1
  8
CONNECTOR
100
AcDbMText
 10
199.3048529244764
 20
75.02416432762162
 30
0.0
 40
2.4
 41
4.0
 71
     9
 72
     1
  1
B
  7
ROMANS
 73
     1
 44
1.0
1001
ACAD
1000
MTEXTBEGIN
1070
    73
1070
     1
1070
    44
1040
1.0
1070
    74
1070
     0
1000
MTEXTEND
  0
LWPOLYLINE
  5
5DB0
330
1B
100
AcDbEntity
 67
     1
  8
CONNECTOR
100
AcDbPolyline
 90
        2
 70
     0
 43
0.0
 10
206.8739179381645
 20
71.40070753081282
 10
202.8000404023579
 20
71.40070756365308
  0
MTEXT
  5
5DB1
330
1B
100
AcDbEntity
 67
     1
  8
CONNECTOR
100
AcDbMText
 10
201.248136703225
 20
80.91911836896496
 30
0.0
 40
2.4
 41
4.0
 71
     9
 72
     1
  1
A\\
  7
ROMANS
 73
     1
 44
1.0
1001
ACAD
1000
MTEXTBEGIN
1070
    73
1070
     1
1070
    44
1040
1.0
1070
    74
1070
     0
1000
MTEXTEND
  0
MTEXT
  5
5DB2
330
1B
100
AcDbEntity
 67
     1
  8
CONNECTOR
100
AcDbMText
 10
199.2823669636317
 20
87.84067649497682
 30
0.0
 40
2.4
 41
4.0
 71
     9
 72
     1
  1
\A1;A
  7
ROMANS
 73
     1
 44
1.0
1001
ACAD
1000
MTEXTBEGIN
1070
    73
1070
     1
1070
    44
1040
1.0
1070
    74
1070
     0
1000
MTEXTEND
  0
MTEXT
  5
5DB3
330
1B
100
AcDbEntity
 67
     1
  8
CONNECTOR
100
AcDbMText
 10
201.2735945081082
 20
69.69242501787208
 30
0.0
 40
2.4
 41
4.0
 71
     9
 72
     1
  1
B\\
  7
ROMANS
 73
     1
 44
1.0
1001
ACAD
1000
MTEXTBEGIN
1070
    73
1070
     1
1070
    44
1040
1.0
1070
    74
1070
     0
1000
MTEXTEND
  0
LINE
  5
5DB4
330
1B
100
AcDbEntity
 67
     1
  8
CONNECTOR
100
AcDbLine
 10
259.1898949271974
 20
76.63083266744376
 30
0.0
 11
259.1898949271972
 21
78.29291909311347
 31
0.0
  0
LINE
  5
5DB5
330
1B
100
AcDbEntity
 67
     1
  8
CONNECTOR
100
AcDbLine
 10
259.1898949271974
 20
72.15083266744374
 30
0.0
 11
259.1898949271972
 21
70.29291909311346
 31
0.0
  0
LINE
  5
5DB6
330
1B
100
AcDbEntity
 67
     1
  8
CONNECTOR
100
AcDbLine
 10
259.1898949271972
 20
78.29291909311347
 30
0.0
 11
253.9200871955686
 21
78.29291909311347
 31
0.0
  0
LINE
  5
5DB7
330
1B
100
AcDbEntity
 67
     1
  8
CONNECTOR
100
AcDbLine
 10
259.1898949271972
 20
70.29291909311346
 30
0.0
 11
253.9200871955686
 21
70.29291909311346
 31
0.0
  0
LINE
  5
5DB8
330
1B
100
AcDbEntity
 67
     1
  8
CONNECTOR
100
AcDbLine
 10
259.1898949271974
 20
87.97839148508579
 30
0.0
 11
259.1898949271974
 21
89.67557812765914
 31
0.0
  0
LINE
  5
5DB9
330
1B
100
AcDbEntity
 67
     1
  8
CONNECTOR
100
AcDbLine
 10
259.1898949271974
 20
89.67557812765914
 30
0.0
 11
253.9200871955686
 21
89.67557812765914
 31
0.0
  0
LINE
  5
5DBA
102
{ACAD_REACTORS
330
5DBE
102
}
330
1B
100
AcDbEntity
 67
     1
  8
CONNECTOR
100
AcDbLine
 10
260.1498949271972
 20
87.97839148508579
 30
0.0
 11
258.2298949271974
 21
87.97839148508579
 31
0.0
  0
LINE
  5
5DBB
330
1B
100
AcDbEntity
 67
     1
  8
CONNECTOR
100
AcDbLine
 10
259.1898949271974
 20
83.49839148508577
 30
0.0
 11
259.1898949271974
 21
81.67557812765913
 31
0.0
  0
LINE
  5
5DBC
330
1B
100
AcDbEntity
 67
     1
  8
CONNECTOR
100
AcDbLine
 10
259.1898949271974
 20
81.67557812765913
 30
0.0
 11
253.9200871955686
 21
81.67557812765913
 31
0.0
  0
LINE
  5
5DBD
102
{ACAD_REACTORS
330
5DBE
102
}
330
1B
100
AcDbEntity
 67
     1
  8
CONNECTOR
100
AcDbLine
 10
258.2298949271974
 20
83.49839148508577
 30
0.0
 11
260.1498949271972
 21
83.49839148508577
 31
0.0
  0
HATCH
  5
5DBE
330
1B
100
AcDbEntity
 67
     1
  8
CONNECTOR
100
AcDbHatch
 10
0.0
 20
0.0
 30
0.0
210
0.0
220
0.0
230
1.0
  2
SOLID
 70
     1
 71
     1
 91
        1
 92
        1
 93
        4
 72
     1
 10
260.1498949271972
 20
87.97839148508579
 11
258.2298949271974
 21
87.97839148508579
 72
     1
 10
258.2298949271974
 20
87.97839148508579
 11
258.2298949271974
 21
83.49839148508577
 72
     1
 10
258.2298949271974
 20
83.49839148508577
 11
260.1498949271972
 21
83.49839148508577
 72
     1
 10
260.1498949271972
 20
83.49839148508577
 11
260.1498949271972
 21
87.97839148508579
 97
        4
330
5DBA
330
5DC0
330
5DBD
330
5DBF
 75
     0
 76
     1
 98
        1
 10
111.0298949271973
 20
-24.98160851491411
  0
LINE
  5
5DBF
102
{ACAD_REACTORS
330
5DBE
102
}
330
1B
100
AcDbEntity
 67
     1
  8
CONNECTOR
100
AcDbLine
 10
260.1498949271972
 20
83.49839148508577
 30
0.0
 11
260.1498949271972
 21
87.97839148508579
 31
0.0
  0
LINE
  5
5DC0
102
{ACAD_REACTORS
330
5DBE
102
}
330
1B
100
AcDbEntity
 67
     1
  8
CONNECTOR
100
AcDbLine
 10
258.2298949271974
 20
87.97839148508579
 30
0.0
 11
258.2298949271974
 21
83.49839148508577
 31
0.0
  0
TEXT
  5
5DC1
330
1B
100
AcDbEntity
 67
     1
  8
CONNECTOR
100
AcDbText
 10
198.9543181037118
 20
94.34999999999998
 30
0.0
 40
2.4
  1
BIPOLAR
 41
0.65
  7
ROMANS
100
AcDbText
  0
LWPOLYLINE
  5
5DC2
330
1B
100
AcDbEntity
 67
     1
  8
CONNECTOR
100
AcDbPolyline
 90
        4
 70
     1
 43
0.0
 10
231.4715828426001
 20
99.48463098076636
 10
247.4427521142384
 20
99.48463076220956
 10
247.4427521142384
 20
68.3722004989314
 10
231.4715828043713
 20
68.37220050022311
  0
TEXT
  5
5DC3
330
1B
100
AcDbEntity
 67
     1
  8
CONNECTOR
100
AcDbText
 10
233.981977056156
 20
81.65780504491726
 30
0.0
 40
2.4
  1
RED
 41
0.7
  7
ROMANS
100
AcDbText
  0
TEXT
  5
5DC4
330
1B
100
AcDbEntity
 67
     1
  8
CONNECTOR
100
AcDbText
 10
221.937405971496
 20
81.77138634366951
 30
0.0
 40
2.4
  1
 3
 41
0.7
  7
ROMANS
100
AcDbText
  0
TEXT
  5
5DC5
330
1B
100
AcDbEntity
 67
     1
  8
CONNECTOR
100
AcDbText
 10
217.3827952943629
 20
95.93703464596625
 30
0.0
 40
2.4
  1
CONNECTOR
 41
0.65
  7
ROMANS
100
AcDbText
  0
TEXT
  5
5DC6
330
1B
100
AcDbEntity
 67
     1
  8
CONNECTOR
100
AcDbText
 10
221.937405971496
 20
87.97222761644455
 30
0.0
 40
2.4
  1
 1
 41
0.7
  7
ROMANS
100
AcDbText
  0
LINE
  5
5DC7
330
1B
100
AcDbEntity
 67
     1
  8
CONNECTOR
100
AcDbLine
 10
216.9191207433116
 20
80.02192233476181
 30
0.0
 11
247.4427521142384
 21
80.02192232758998
 31
0.0
  0
LINE
  5
5DC8
330
1B
100
AcDbEntity
 67
     1
  8
CONNECTOR
100
AcDbLine
 10
216.9191207514414
 20
85.84678336458097
 30
0.0
 11
247.4427521031851
 21
85.84678335611744
 31
0.0
  0
TEXT
  5
5DC9
330
1B
100
AcDbEntity
 67
     1
  8
CONNECTOR
100
AcDbText
 10
233.981977056156
 20
87.8586463176923
 30
0.0
 40
2.4
  1
WHT
 41
0.7
  7
ROMANS
100
AcDbText
  0
TEXT
  5
5DCA
330
1B
100
AcDbEntity
 67
     1
  8
CONNECTOR
100
AcDbText
 10
221.937405971496
 20
76.20290005108142
 30
0.0
 40
2.4
  1
 2
 41
0.7
  7
ROMANS
100
AcDbText
  0
TEXT
  5
5DCB
330
1B
100
AcDbEntity
 67
     1
  8
CONNECTOR
100
AcDbText
 10
221.937405971496
 20
70.22642888653205
 30
0.0
 40
2.4
  1
 4
 41
0.7
  7
ROMANS
100
AcDbText
  0
LINE
  5
5DCC
330
1B
100
AcDbEntity
 67
     1
  8
CONNECTOR
100
AcDbLine
 10
216.9191207336628
 20
74.19706130555848
 30
0.0
 11
247.4427520854066
 21
74.19706129838665
 31
0.0
  0
TEXT
  5
5DCD
330
1B
100
AcDbEntity
 67
     1
  8
CONNECTOR
100
AcDbText
 10
233.981977056156
 20
70.11284758777979
 30
0.0
 40
2.4
  1
YEL
 41
0.7
  7
ROMANS
100
AcDbText
  0
TEXT
  5
5DCE
330
1B
100
AcDbEntity
 67
     1
  8
CONNECTOR
100
AcDbText
 10
233.981977056156
 20
76.08931875232916
 30
0.0
 40
2.4
  1
BLU
 41
0.7
  7
ROMANS
100
AcDbText
  0
LINE
  5
5DCF
330
1B
100
AcDbEntity
 67
     1
  8
CONNECTOR
100
AcDbLine
 10
231.4715828426001
 20
99.48463090567621
 30
0.0
 11
231.4715828043713
 21
68.37220050022311
 31
0.0
  0
LINE
  5
5DD0
330
1B
100
AcDbEntity
 67
     1
  8
CONNECTOR
100
AcDbLine
 10
231.4715828043713
 20
68.37220050022311
 30
0.0
 11
187.9543181037118
 21
68.37220050022311
 31
0.0
  0
LINE
  5
5DD1
330
1B
100
AcDbEntity
 67
     1
  8
DATA
100
AcDbLine
 10
248.0039931173076
 20
58.19407841709471
 30
0.0
 11
253.3945431164091
 21
58.19407841709471
 31
0.0
  0
LINE
  5
5DD2
330
1B
100
AcDbEntity
 67
     1
  8
DATA
100
AcDbLine
 10
253.3945431164091
 20
44.28174984798457
 30
0.0
 11
248.0039931173076
 21
44.28174984798457
 31
0.0
  0
TEXT
  5
5DD3
330
1B
100
AcDbEntity
 67
     1
  8
DATA
100
AcDbText
 10
234.8743181053918
 20
43.00000007649202
 30
0.0
 40
2.399999999599999
  1
(A\)RED
 41
0.7
  7
ROMANS
 72
     2
 11
244.9543181037118
 21
43.00000007649202
 31
0.0
100
AcDbText
  0
CIRCLE
  5
5DD4
330
1B
100
AcDbEntity
 67
     1
  8
DATA
100
AcDbCircle
 10
247.533035974529
 20
44.28174984798457
 30
0.0
 40
0.4709571427786491
  0
TEXT
  5
5DD5
330
1B
100
AcDbEntity
 67
     1
  8
DATA
100
AcDbText
 10
236.3943181051384
 20
57.00000007649202
 30
0.0
 40
2.399999999599999
  1
(A)WHT
 41
0.7
  7
ROMANS
 72
     2
 11
244.9543181037118
 21
57.00000007649202
 31
0.0
100
AcDbText
  0
CIRCLE
  5
5DD6
330
1B
100
AcDbEntity
 67
     1
  8
DATA
100
AcDbCircle
 10
247.533035974529
 20
58.19407841709471
 30
0.0
 40
0.4709571427786491
  0
TEXT
  5
5DD7
330
1B
100
AcDbEntity
 67
     1
  8
DATA
100
AcDbText
 10
257.3543181033118
 20
25.60000007789203
 30
0.0
 40
2.399999999599999
  1
(B)BLU
 50
90.0
 41
0.7
  7
ROMANS
 72
     2
 11
254.9543181037118
 21
34.00000007649203
 31
0.0
100
AcDbText
 73
     3
  0
TEXT
  5
5DD8
330
1B
100
AcDbEntity
 67
     1
  8
DATA
100
AcDbText
 10
270.3543181033118
 20
24.08000007814536
 30
0.0
 40
2.399999999599999
  1
(B\)YEL
 50
90.0
 41
0.7
  7
ROMANS
 72
     2
 11
267.9543181037118
 21
34.00000007649203
 31
0.0
100
AcDbText
 73
     3
  0
LINE
  5
5DD9
330
1B
100
AcDbEntity
 67
     1
  8
DATA
100
AcDbLine
 10
253.3945431164091
 20
45.67552841918078
 30
0.0
 11
253.3945431164091
 21
44.28174984798457
 31
0.0
  0
ARC
  5
5DDA
330
1B
100
AcDbEntity
 67
     1
  8
DATA
100
AcDbCircle
 10
261.8825931149943
 20
42.03833913407288
 30
0.0
 40
0.7032535713113561
100
AcDbArc
 50
180.0
 51
0.0
  0
LINE
  5
5DDB
330
1B
100
AcDbEntity
 67
     1
  8
DATA
100
AcDbLine
 10
255.6528466874613
 20
36.64778913497139
 30
0.0
 11
255.6528466874613
 21
42.03833913407288
 31
0.0
  0
CIRCLE
  5
5DDC
330
1B
100
AcDbEntity
 67
     1
  8
DATA
100
AcDbCircle
 10
255.6528466874613
 20
36.17683199219277
 30
0.0
 40
0.4709571427786491
  0
LINE
  5
5DDD
330
1B
100
AcDbEntity
 67
     1
  8
DATA
100
AcDbLine
 10
255.6528466874613
 20
42.03833913407288
 30
0.0
 11
256.9193395443933
 21
42.03833913407288
 31
0.0
  0
ARC
  5
5DDE
330
1B
100
AcDbEntity
 67
     1
  8
DATA
100
AcDbCircle
 10
259.0291002583271
 20
42.03833913407288
 30
0.0
 40
0.7032535713113561
100
AcDbArc
 50
180.0
 51
0.0
  0
ARC
  5
5DDF
330
1B
100
AcDbEntity
 67
     1
  8
DATA
100
AcDbCircle
 10
257.6225931157046
 20
42.03833913407288
 30
0.0
 40
0.7032535713113561
100
AcDbArc
 50
180.0
 51
0.0
  0
ARC
  5
5DE0
330
1B
100
AcDbEntity
 67
     1
  8
DATA
100
AcDbCircle
 10
260.4356074009497
 20
42.03833913407288
 30
0.0
 40
0.7032535713113561
100
AcDbArc
 50
180.0
 51
0.0
  0
LINE
  5
5DE1
330
1B
100
AcDbEntity
 67
     1
  8
DATA
100
AcDbLine
 10
269.6075609708501
 20
42.03833913407288
 30
0.0
 11
269.6075609708501
 21
36.64778913497139
 31
0.0
  0
CIRCLE
  5
5DE2
330
1B
100
AcDbEntity
 67
     1
  8
DATA
100
AcDbCircle
 10
269.6075609708501
 20
36.17683199219277
 30
0.0
 40
0.4709571427786491
  0
ARC
  5
5DE3
330
1B
100
AcDbEntity
 67
     1
  8
DATA
100
AcDbCircle
 10
267.5105288283421
 20
42.03833913407288
 30
0.0
 40
0.7032535713113561
100
AcDbArc
 50
180.0
 51
0.0
  0
ARC
  5
5DE4
330
1B
100
AcDbEntity
 67
     1
  8
DATA
100
AcDbCircle
 10
264.6975145430968
 20
42.03833913407288
 30
0.0
 40
0.7032535713113561
100
AcDbArc
 50
180.0
 51
0.0
  0
ARC
  5
5DE5
330
1B
100
AcDbEntity
 67
     1
  8
DATA
100
AcDbCircle
 10
263.2891002576171
 20
42.03833913407288
 30
0.0
 40
0.7032535713113561
100
AcDbArc
 50
180.0
 51
0.0
  0
ARC
  5
5DE6
330
1B
100
AcDbEntity
 67
     1
  8
DATA
100
AcDbCircle
 10
266.1040216857196
 20
42.03833913407288
 30
0.0
 40
0.7032535713113561
100
AcDbArc
 50
180.0
 51
0.0
  0
LINE
  5
5DE7
330
1B
100
AcDbEntity
 67
     1
  8
DATA
100
AcDbLine
 10
268.2137823996541
 20
42.03833913407288
 30
0.0
 11
269.6075609708501
 21
42.03833913407288
 31
0.0
  0
CIRCLE
  5
5DE8
330
1B
100
AcDbEntity
 67
     1
  8
DATA
100
AcDbCircle
 10
262.4045331149075
 20
51.02372056114677
 30
0.0
 40
6.338828570372099
  0
ARC
  5
5DE9
330
1B
100
AcDbEntity
 67
     1
  8
DATA
100
AcDbCircle
 10
253.3945431164091
 20
52.00481056098335
 30
0.0
 40
0.7032535713113561
100
AcDbArc
 50
90.0
 51
270.0
  0
ARC
  5
5DEA
330
1B
100
AcDbEntity
 67
     1
  8
DATA
100
AcDbCircle
 10
253.3945431164091
 20
49.19179627573785
 30
0.0
 40
0.7032535713113561
100
AcDbArc
 50
90.0
 51
270.0
  0
ARC
  5
5DEB
330
1B
100
AcDbEntity
 67
     1
  8
DATA
100
AcDbCircle
 10
253.3945431164091
 20
46.37878199049228
 30
0.0
 40
0.7032535713113561
100
AcDbArc
 50
90.0
 51
270.0
  0
ARC
  5
5DEC
330
1B
100
AcDbEntity
 67
     1
  8
DATA
100
AcDbCircle
 10
253.3945431164091
 20
47.78528913311506
 30
0.0
 40
0.7032535713113561
100
AcDbArc
 50
90.0
 51
270.0
  0
ARC
  5
5DED
330
1B
100
AcDbEntity
 67
     1
  8
DATA
100
AcDbCircle
 10
253.3945431164091
 20
50.59830341836057
 30
0.0
 40
0.7032535713113561
100
AcDbArc
 50
90.0
 51
270.0
  0
ARC
  5
5DEE
330
1B
100
AcDbEntity
 67
     1
  8
DATA
100
AcDbCircle
 10
253.3945431164091
 20
56.22433198885141
 30
0.0
 40
0.7032535713113561
100
AcDbArc
 50
90.0
 51
270.0
  0
ARC
  5
5DEF
330
1B
100
AcDbEntity
 67
     1
  8
DATA
100
AcDbCircle
 10
253.3945431164091
 20
53.41131770360607
 30
0.0
 40
0.7032535713113561
100
AcDbArc
 50
90.0
 51
270.0
  0
ARC
  5
5DF0
330
1B
100
AcDbEntity
 67
     1
  8
DATA
100
AcDbCircle
 10
253.3945431164091
 20
54.81782484622885
 30
0.0
 40
0.7032535713113561
100
AcDbArc
 50
90.0
 51
270.0
  0
LINE
  5
5DF1
330
1B
100
AcDbEntity
 67
     1
  8
DATA
100
AcDbLine
 10
253.3945431164091
 20
58.19407841709471
 30
0.0
 11
253.3945431164091
 21
56.92758556016292
 31
0.0
  0
TEXT
  5
5DF2
330
1B
100
AcDbEntity
 67
     1
  8
DATA
100
AcDbText
 10
249.6738000081093
 20
61.34556070180178
 30
0.0
 40
2.5
  1
WIRING DIAGRAM
 41
0.7
  7
ROMANS
100
AcDbText
  0
TEXT
  5
5FEA
330
1B
100
AcDbEntity
 67
     1
  8
DATA
100
AcDbText
 10
93.11966538056985
 20
59.64323208646788
 30
0.0
 40
1.399999999999999
  1
-3
 41
0.7
  7
ROMANS
100
AcDbText
  0
TEXT
  5
656A
330
1B
100
AcDbEntity
 67
     1
  8
DATA
100
AcDbText
 10
189.4634543457442
 20
17.05999183728653
 30
0.0
 40
2.509907399999999
  1
04.07.06
 41
0.7
  7
ROMANS
100
AcDbText
  0
TEXT
  5
656B
330
1B
100
AcDbEntity
 67
     1
  8
DATA
100
AcDbText
 10
175.682905111775
 20
16.96941223956126
 30
0.0
 40
3.0
  1
S.K.
  7
ITALICT
100
AcDbText
  0
ENDSEC
  0
SECTION
  2
OBJECTS
  0
DICTIONARY
  5
C
330
0
100
AcDbDictionary
281
     1
  3
ACAD_COLOR
350
BE
  3
ACAD_GROUP
350
D
  3
ACAD_LAYOUT
350
1A
  3
ACAD_MATERIAL
350
BD
  3
ACAD_MLINESTYLE
350
17
  3
ACAD_PLOTSETTINGS
350
19
  3
ACAD_PLOTSTYLENAME
350
E
  3
ACAD_TABLESTYLE
350
11A
  3
AcadDim
350
2E5B
  3
ACDBHEADERROUNDTRIPXREC
350
65CD
  3
AcDbVariableDictionary
350
94
  3
AcmDictionary
350
5B
  3
AMG
350
41
  3
AMGSNAPSETTINGS
350
26B
  3
DWGPROPS
350
65CC
  0
DICTIONARY
  5
2F5
330
2
100
AcDbDictionary
280
     1
281
     1
  3
ACAD_LAYERSTATES
360
2F6
  3
AMLAYER_GROUPCOLORS
360
554A
  0
DICTIONARY
  5
8F
330
1F
100
AcDbDictionary
280
     1
281
     1
  3
ACAD_SORTENTS
360
53A3
  0
DICTIONARY
  5
2D9F
330
1B
100
AcDbDictionary
280
     1
281
     1
  3
ACAD_SORTENTS
360
2DA0
  0
DICTIONARY
  5
128A
330
125D
100
AcDbDictionary
280
     1
281
     1
  0
DICTIONARY
  5
2CC2
330
2CC0
100
AcDbDictionary
280
     1
281
     1
  0
DICTIONARY
  5
63AC
330
63AB
100
AcDbDictionary
280
     1
281
     1
  3
ACAD_DIMASSOC
360
63AD
  0
DICTIONARY
  5
65D1
330
2D8
100
AcDbDictionary
280
     1
281
     1
  3
ACAD_XREC_ROUNDTRIP
360
65D2
  0
DICTIONARY
  5
65D3
330
1E55
100
AcDbDictionary
280
     1
281
     1
  3
ACAD_XREC_ROUNDTRIP
360
65D4
  0
DICTIONARY
  5
BE
102
{ACAD_REACTORS
330
C
102
}
330
C
100
AcDbDictionary
281
     1
  0
DICTIONARY
  5
D
102
{ACAD_REACTORS
330
C
102
}
330
C
100
AcDbDictionary
281
     1
  0
DICTIONARY
  5
1A
102
{ACAD_REACTORS
330
C
102
}
330
C
100
AcDbDictionary
281
     1
  3
Layout1
350
1E
  3
Model
350
22
  0
DICTIONARY
  5
BD
102
{ACAD_REACTORS
330
C
102
}
330
C
100
AcDbDictionary
281
     1
  0
DICTIONARY
  5
17
102
{ACAD_REACTORS
330
C
102
}
330
C
100
AcDbDictionary
281
     1
  3
Standard
350
18
  0
DICTIONARY
  5
19
102
{ACAD_REACTORS
330
C
102
}
330
C
100
AcDbDictionary
281
     1
  0
ACDBDICTIONARYWDFLT
  5
E
102
{ACAD_REACTORS
330
C
102
}
330
C
100
AcDbDictionary
281
     1
  3
Normal
350
F
100
AcDbDictionaryWithDefault
340
F
  0
DICTIONARY
  5
11A
102
{ACAD_REACTORS
330
C
102
}
330
C
100
AcDbDictionary
281
     1
  3
Standard
350
11B
  0
XRECORD
  5
2E5B
102
{ACAD_REACTORS
330
C
102
}
330
C
100
AcDbXrecord
280
     1
 90
   990106
  3

 60
     0
 61
     0
 62
     1
 63
     3
 64
     0
 65
     0
 66
     0
 67
     3
 68
     1
 69
     0
 70
     0
 71
     0
 72
     0
 40
0.0
170
     0
340
2E0B
  0
DICTIONARY
  5
65CD
102
{ACAD_REACTORS
330
C
102
}
330
C
100
AcDbDictionary
281
     1
  0
DICTIONARY
  5
94
102
{ACAD_REACTORS
330
C
102
}
330
C
100
AcDbDictionary
281
     1
  3
CTABLESTYLE
350
138
  3
DIMASSOC
350
96
  3
INDEXCTL
350
95
  3
PROJECTNAME
350
1B03
  0
DICTIONARY
  5
5B
102
{ACAD_REACTORS
330
C
102
}
330
C
100
AcDbDictionary
281
     1
  3
AcmBOM
350
272
  3
AcmStdDictionary
350
61
  3
AMDTSECTSYM_ARROWCOLOR
350
123
  0
DICTIONARY
  5
41
102
{ACAD_REACTORS
330
C
102
}
330
C
100
AcDbDictionary
281
     1
  0
DICTIONARY
  5
26B
102
{ACAD_REACTORS
330
C
102
}
330
C
100
AcDbDictionary
281
     1
  0
XRECORD
  5
65CC
102
{ACAD_REACTORS
330
C
102
}
330
C
100
AcDbXrecord
280
     1
  1
DWGPROPS COOKIE
  2

  3

  4

  6

  7

  8

  9

300
AmdtFileType=84
301
=
302
=
303
=
304
=
305
=
306
=
307
=
308
=
309
=
 40
1.816438761574073
 41
2453787.436149942
 42
2453945.401461586
  1

 90
        1
  0
DICTIONARY
  5
2F6
102
{ACAD_REACTORS
330
2F5
102
}
330
2F5
100
AcDbDictionary
281
     1
  0
DICTIONARY
  5
554A
102
{ACAD_REACTORS
330
2F5
102
}
330
2F5
100
AcDbDictionary
280
     1
281
     1
  0
SORTENTSTABLE
  5
53A3
102
{ACAD_REACTORS
330
8F
102
}
330
8F
100
AcDbSortentsTable
330
1F
331
13FA
  5
13FA
  0
SORTENTSTABLE
  5
2DA0
102
{ACAD_REACTORS
330
2D9F
102
}
330
2D9F
100
AcDbSortentsTable
330
1B
331
2D95
  5
2D95
331
19EA
  5
19EA
331
1294
  5
1294
331
19F2
  5
19F2
331
19BB
  5
19BB
331
19FA
  5
19FA
331
12A4
  5
12A4
331
1A02
  5
1A02
331
12AC
  5
12AC
331
1A0A
  5
1A0A
331
12B4
  5
12B4
331
19D3
  5
19D3
331
1A1A
  5
1A1A
331
2D96
  5
2D96
331
2CB7
  5
2CB7
331
2D9E
  5
2D99
331
2CBF
  5
2CBF
331
19EB
  5
19EB
331
19FB
  5
19FB
331
129D
  5
129D
331
19C4
  5
19C4
331
12A5
  5
12A5
331
1A03
  5
1A03
331
1A0B
  5
1A0B
331
12AD
  5
12AD
331
19D4
  5
19D4
331
12B5
  5
12B5
331
1A13
  5
1A13
331
19DC
  5
19DC
331
1A1B
  5
1A1B
331
19E4
  5
19E4
331
1A21
  5
1A21
331
2D97
  5
2D97
331
19EC
  5
19EC
331
2D8
  5
2D8
331
19F4
  5
19F4
331
1296
  5
1296
331
19BD
  5
19BD
331
129E
  5
129E
331
19C5
  5
19C5
331
12A6
  5
12A6
331
1A04
  5
1A04
331
2D70
  5
2D70
331
1A0C
  5
1A0C
331
19D5
  5
19D5
331
12B6
  5
12B6
331
19DD
  5
19DD
331
1A1C
  5
1A1C
331
1A22
  5
1A22
331
2D98
  5
2D98
331
1A6A
  5
1A6A
331
19ED
  5
19ED
331
19F5
  5
19F5
331
1297
  5
1297
331
19FD
  5
19FD
331
129F
  5
129F
331
19C6
  5
19C6
331
12A7
  5
12A7
331
1A05
  5
1A05
331
2D71
  5
2D71
331
1A0D
  5
1A0D
331
12B7
  5
12B7
331
19D6
  5
19D6
331
1A15
  5
1A15
331
19DE
  5
19DE
331
1A1D
  5
1A1D
331
1A23
  5
1A23
331
2D99
  5
2D9A
331
2DA1
  5
2DA2
331
1290
  5
1290
331
12A0
  5
12A0
331
19BF
  5
19BF
331
19C7
  5
19C7
331
1A06
  5
1A06
331
2D72
  5
2D72
331
12A8
  5
12A8
331
1A0E
  5
1A0E
331
12B8
  5
12B8
331
19D7
  5
19D7
331
1A16
  5
1A16
331
19DF
  5
19DF
331
1A1E
  5
1A1E
331
2D9A
  5
2DA1
331
2DA2
  5
2D9E
331
2CCB
  5
2CCB
331
1291
  5
1291
331
1708
  5
1708
331
19EF
  5
19EF
331
1299
  5
1299
331
19F7
  5
19F7
331
19C0
  5
19C0
331
19FF
  5
19FF
331
1A07
  5
1A07
331
2CEB
  5
2CEB
331
12A9
  5
12A9
331
19C8
  5
19C8
331
12B1
  5
12B1
331
1A0F
  5
1A0F
331
19D8
  5
19D8
331
1A17
  5
1A17
331
19E0
  5
19E0
331
1A1F
  5
1A1F
331
19F0
  5
19F0
331
129A
  5
129A
331
12A2
  5
12A2
331
19C1
  5
19C1
331
1A00
  5
1A00
331
1E55
  5
1E55
331
12AA
  5
12AA
331
19C9
  5
19C9
331
1A08
  5
1A08
331
12B2
  5
12B2
331
19D1
  5
19D1
331
1A10
  5
1A10
331
12BA
  5
12BA
331
19D9
  5
19D9
331
1A18
  5
1A18
331
19E1
  5
19E1
331
2D94
  5
2D94
331
19E9
  5
19E9
331
19F1
  5
19F1
331
129B
  5
129B
331
19F9
  5
19F9
331
12A3
  5
12A3
331
19C2
  5
19C2
331
1A01
  5
1A01
331
2D6D
  5
2D6D
331
12AB
  5
12AB
331
1A09
  5
1A09
331
12B3
  5
12B3
331
19D2
  5
19D2
331
1A11
  5
1A11
331
1A19
  5
1A19
  0
DIMASSOC
  5
63AD
102
{ACAD_REACTORS
330
63AC
102
}
330
63AC
100
AcDbDimAssoc
330
63AB
 90
        3
 70
     0
 71
     0
  1
AcDbOsnapPointRef
 72
     1
331
634C
 73
     0
 91
        0
 40
0.0
 10
0.0
 20
0.0
 30
2.000000000000000E+50
 75
     0
  1
AcDbOsnapPointRef
 72
     6
331
6362
 73
     0
 91
        0
 40
1.570796326794896
 10
0.0
 20
0.0
 30
0.0
332
6364
 74
     0
 92
        0
 75
     0
  0
XRECORD
  5
65D2
102
{ACAD_REACTORS
330
65D1
102
}
330
65D1
100
AcDbXrecord
280
     1
102
SHADEPLOT
 70
     0
  0
XRECORD
  5
65D4
102
{ACAD_REACTORS
330
65D3
102
}
330
65D3
100
AcDbXrecord
280
     1
102
SHADEPLOT
 70
     0
  0
LAYOUT
  5
1E
102
{ACAD_XDICTIONARY
360
2F8
102
}
102
{ACAD_REACTORS
330
1A
102
}
330
1A
100
AcDbPlotSettings
  1

  2
Win2PDF
  4
A4
  6

 40
3.174999952316284
 41
3.174999952316284
 42
3.175003051757812
 43
3.17498779296875
 44
209.9944915771484
 45
296.989501953125
 46
3.685141627801613
 47
5.316937037654781
 48
-2.741527483742856
 49
-4.405153099064477
140
286.9528414930985
141
199.6619049309473
142
1.0
143
1.0
 70
   692
 72
     1
 73
     1
 74
     1
  7
monochrome.ctb
 75
    16
147
1.0
148
-0.0004994157001192
149
0.0145041244205686
100
AcDbLayout
  1
Layout1
 70
     1
 71
     1
 10
-8.491425414923412
 20
-6.874645704538465
 11
288.4980765382016
 21
203.11984587261
 12
0.0
 22
0.0
 32
0.0
 14
-0.0035503062384805
 24
-0.0079124889571744
 34
-0.0015258207003583
 15
280.0102028124818
 25
196.2531136348917
 35
0.0000000349246037
146
0.0
 13
0.0
 23
0.0
 33
0.0
 16
1.0
 26
0.0
 36
0.0
 17
0.0
 27
1.0
 37
0.0
 76
     0
330
1B
331
2D8
1001
ACAD_PSEXT
1000
Win2PDF
1000
Win2PDF
1000
PDFFILE:
1000

1070
     0
  0
LAYOUT
  5
22
102
{ACAD_XDICTIONARY
360
65CF
102
}
102
{ACAD_REACTORS
330
1A
102
}
330
1A
100
AcDbPlotSettings
  1

  2
\\pallas\ColorLaserJet Büro
  4
A4
  6

 40
6.805083274841308
 41
5.027085304260253
 42
6.805084228515625
 43
5.027069091796875
 44
209.9733276367187
 45
296.9683227539062
 46
0.0
 47
0.0
 48
0.0
 49
0.0
140
0.0
141
0.0
142
1.0
143
1.82975238375777
 70
 11952
 72
     1
 73
     1
 74
     0
  7

 75
     0
147
0.5465220370126233
148
-1003.732693658126
149
-531.8054935907698
100
AcDbLayout
  1
Model
 70
     1
 71
     0
 10
0.0
 20
0.0
 11
12.0
 21
9.0
 12
0.0
 22
0.0
 32
0.0
 14
0.0
 24
0.0
 34
0.0
 15
0.0
 25
0.0
 35
0.0
146
0.0
 13
0.0
 23
0.0
 33
0.0
 16
1.0
 26
0.0
 36
0.0
 17
0.0
 27
1.0
 37
0.0
 76
     0
330
1F
1001
ACAD_PSEXT
1000
\\pallas\ColorLaserJet Büro
1000
HP Color LaserJet 4550 PCL
1000
Serverraum
1000
HP ColorLaserJet 4550N
1070
     0
  0
MLINESTYLE
  5
18
102
{ACAD_REACTORS
330
17
102
}
330
17
100
AcDbMlineStyle
  2
STANDARD
 70
     0
  3

 62
   256
 51
90.0
 52
90.0
 71
     2
 49
0.5
 62
   256
  6
BYLAYER
 49
-0.5
 62
   256
  6
BYLAYER
  0
ACDBPLACEHOLDER
  5
F
102
{ACAD_REACTORS
330
E
102
}
330
E
  0
TABLESTYLE
  5
11B
102
{ACAD_REACTORS
330
11A
102
}
330
11A
100
AcDbTableStyle
  3
Standard
 70
     0
 71
     0
 40
1.5
 41
1.5
280
     0
281
     0
  7
STANDARD
140
4.5
170
     2
 62
     0
 63
     7
283
     0
274
    -2
284
     1
 64
     0
275
    -2
285
     1
 65
     0
276
    -2
286
     1
 66
     0
277
    -2
287
     1
 67
     0
278
    -2
288
     1
 68
     0
279
    -2
289
     1
 69
     0
  7
STANDARD
140
6.0
170
     5
 62
     0
 63
     7
283
     0
274
    -2
284
     1
 64
     0
275
    -2
285
     1
 65
     0
276
    -2
286
     1
 66
     0
277
    -2
287
     1
 67
     0
278
    -2
288
     1
 68
     0
279
    -2
289
     1
 69
     0
  7
STANDARD
140
4.5
170
     5
 62
     0
 63
     7
283
     0
274
    -2
284
     1
 64
     0
275
    -2
285
     1
 65
     0
276
    -2
286
     1
 66
     0
277
    -2
287
     1
 67
     0
278
    -2
288
     1
 68
     0
279
    -2
289
     1
 69
     0
  0
DICTIONARYVAR
  5
138
102
{ACAD_REACTORS
330
94
102
}
330
94
100
DictionaryVariables
280
     0
  1
STANDARD
  0
DICTIONARYVAR
  5
96
102
{ACAD_REACTORS
330
94
102
}
330
94
100
DictionaryVariables
280
     0
  1
2
  0
DICTIONARYVAR
  5
95
102
{ACAD_REACTORS
330
94
102
}
330
94
100
DictionaryVariables
280
     0
  1
0
  0
DICTIONARYVAR
  5
1B03
102
{ACAD_REACTORS
330
94
102
}
330
94
100
DictionaryVariables
280
     0
  1

  0
DICTIONARY
  5
272
102
{ACAD_REACTORS
330
5B
102
}
330
5B
100
AcDbDictionary
281
     1
  0
DICTIONARY
  5
61
102
{ACAD_REACTORS
330
5B
102
}
330
5B
100
AcDbDictionary
281
     1
  0
XRECORD
  5
123
102
{ACAD_REACTORS
330
5B
102
}
330
5B
100
AcDbXrecord
280
     1
 90
-1023410169
  0
DICTIONARY
  5
2F8
330
1E
100
AcDbDictionary
280
     1
281
     1
  3
ACAD_XREC_ROUNDTRIP
360
65CE
  3
ADSK_XREC_LAYOUTTHUMBNAIL
360
2F9
  0
DICTIONARY
  5
65CF
330
22
100
AcDbDictionary
280
     1
281
     1
  3
ACAD_XREC_ROUNDTRIP
360
65D0
  0
XRECORD
  5
65CE
102
{ACAD_REACTORS
330
2F8
102
}
330
2F8
100
AcDbXrecord
280
     1
102
SHADEPLOT
 70
     1
102
SHADEPLOTRESLEVEL
 70
     2
102
SHADEPLOTCUSTOMDPI
 70
   300
  0
XRECORD
  5
2F9
102
{ACAD_REACTORS
330
2F8
102
}
330
2F8
100
AcDbXrecord
280
     1
310
28000000B40000007F00000001000800000000004C590000000000000000000000010000000000000000000000000000FFFFFF000000000000000000000000000000000000000000000000000000000000000000330000006600000099000000CC000000FF00000000330000333300006633000099330000CC330000FF3300
310
0000660000336600006666000099660000CC660000FF66000000990000339900006699000099990000CC990000FF99000000CC000033CC000066CC000099CC0000CCCC0000FFCC000000FF000033FF000066FF000099FF0000CCFF0000FFFF000000003300330033006600330099003300CC003300FF003300003333003333
310
33006633330099333300CC333300FF33330000663300336633006666330099663300CC663300FF66330000993300339933006699330099993300CC993300FF99330000CC330033CC330066CC330099CC3300CCCC3300FFCC330000FF330033FF330066FF330099FF3300CCFF3300FFFF330000006600330066006600660099
310
006600CC006600FF00660000336600333366006633660099336600CC336600FF33660000666600336666006666660099666600CC666600FF66660000996600339966006699660099996600CC996600FF99660000CC660033CC660066CC660099CC6600CCCC6600FFCC660000FF660033FF660066FF660099FF6600CCFF6600
310
FFFF660000009900330099006600990099009900CC009900FF00990000339900333399006633990099339900CC339900FF33990000669900336699006666990099669900CC669900FF66990000999900339999006699990099999900CC999900FF99990000CC990033CC990066CC990099CC9900CCCC9900FFCC990000FF99
310
0033FF990066FF990099FF9900CCFF9900FFFF99000000CC003300CC006600CC009900CC00CC00CC00FF00CC000033CC003333CC006633CC009933CC00CC33CC00FF33CC000066CC003366CC006666CC009966CC00CC66CC00FF66CC000099CC003399CC006699CC009999CC00CC99CC00FF99CC0000CCCC0033CCCC0066CC
310
CC0099CCCC00CCCCCC00FFCCCC0000FFCC0033FFCC0066FFCC0099FFCC00CCFFCC00FFFFCC000000FF003300FF006600FF009900FF00CC00FF00FF00FF000033FF003333FF006633FF009933FF00CC33FF00FF33FF000066FF003366FF006666FF009966FF00CC66FF00FF66FF000099FF003399FF006699FF009999FF00CC
310
99FF00FF99FF0000CCFF0033CCFF0066CCFF0099CCFF00CCCCFF00FFCCFF0000FFFF0033FFFF0066FFFF0099FFFF00CCFFFF00FFFFFF00000000000D0D0D001A1A1A00282828003535350043434300505050005D5D5D006B6B6B00787878008686860093939300A1A1A100AEAEAE00BBBBBB00C9C9C900D6D6D600E4E4E400
310
F1F1F100FFFFFF0000000000000000000000000000000000000000000000000000000000000000000000000000000000F5F5F5F5F5F5F5F5F5F5F5F5F5F5F5F5F5F5F5F5F5F5F5F5F5F5F5F5F5F5F5F5F5F5F5F5F5F5F5F5F5F5F5F5F5F5F5F5F5F5F5F5F5F5F5F5F5F5F5F5F5F5F5F5F5F5F5F5F5F5F5F5F5F5F5F5F5F5F5
310
F5F5F5F5F5F5F5F5F5F5F5F5F5F5F5F5F5F5F5F5F5F5F5F5F5F5F5F5F5F5F5F5F5F5F5F5F5F5F5F5F5F5F5F5F5F5F5F5F5F5F5F5F5F5F5F5F5F5F5F5F5F5F5F5F5F5F5F5F5F5F5F5F5F5F5F5F5F5F5F5F5F5F5F5F5F5F5F5F5F5F5F5F5F5F5F5F5F5F5F5F5F5E2E2E2E2E2E2E2E2E2E2E2E2E2E2E2E2E2E2E2E2E2E2E2E2E2
310
E2E2E2E2E2E2E2E2E2E2E2E2E2E2E2E2E2E2E2E2E2E2E2E2E2E2E2E2E2E2E2E2E2E2E2E2E2E2E2E2E2E2E2E2E2E2E2E2E2E2E2E2E2E2E2E2E2E2E2E2E2E2E2E2E2E2E2E2E2E2E2E2E2E2E2E2E2E2E2E2E2E2E2E2E2E2E2E2E2E2E2E2E2E2E2E2E2E2E2E2E2E2E2E2E2E2E2E2E2E2E2E2E2E2E2E2E2E2E2E2E2E2E2E2E2E2E2
310
E2E2E2E2E2E2E2E2E2E2E2E2E2E2E2E2E2E2E2E2E2E2E2E2E2F5F5F5E2F5F5F5F5F5F5F5F5E2E2E2E2E2E2E2E2E2F5F5F5F5F5F5F5F5F5F5F5F5F5F5F5F5E2E2E2E2E2E2E2E2E2F5F5F5F5F5F5F5F5F5F5F5F5F5F5F5F5E2E2E2E2E2E2E2E2E2F5F5F5F5F5F5F5F5F5F5F5F5F5F5F5F5E2E2E2E2E2E2E2E2E2F5F5F5F5F5F5
310
F5F5F5F5F5F5F5F5F5F5E2E2E2E2E2E2E2E2E2F5F5F5F5F5F5F5F5F5F5F5F5F5F5F5F5E2E2E2E2E2E2E2E2E2F5F5F5F5F5F5F5F5F5F5F5F5F5F5F5F5E2E2E2E2E2E2E2E2E2F5F5F5F5F5F5F5F5E2F5F5F5E2F5E2E2E2E2E2E2E2E2E2E2E2E2E2E2E2E2E2E2E2E2E2E2E2E2E2E2E2E2E2E2E2E2E2E2E2E2E2E2E2E2E2E2E2E2
310
E2E2E2E2E2E2E2E2E2E2E2E2E2E2E2E2E2E2E2E2E2E2E2E2E2E2E2E2E2E2E2E2E2E2E2E2E2E2E2E2E2E2E2E2E2E2E2E2E2E2E2E2E2E2E2E2E2E2E2E2E2E2E2E2E2E2E2E2E2E2E2E2E2E2E2E2E2E2E2E2E2E2E2E2E2E2E2E2E2E2E2E2E2E2E2E2E2E2E2E2E2E2E2E2E2E2E2E2E2E2E2E2E2E2E2E2E2E2E2E2E2E2E2E2E2E2E2
310
E2E2F5E2F5F5F5E2F5E2E2BEBEBEBEBEBEBEBEBEBEBEBEBEBEBEBEBEBEBEBEBEBEBEBEBEBEBEBEBEBEBEBEBEBEBEBEBEBEBEBEBEBEBEBEBEBEBEBEBEBEBEBEBEBEBEBEBEBEBEBEBEBEBEBEBEBEBEBEBEBEBEBEBEBEBEBEBEBEBEBEBEBEBEBEBEBEBEBEBEBEBEBEBEBEBEBEBEBEBEBEBEBEBEBEBEBEBEBEBEBEBEBEBEBEBEBE
310
BEBEBEBEBEBEBEBEBEBEBEBEBEBEBEBEBEBEBEBEBEBEBEBEBEBEBEBEBEBEBEBEBEBEBEBEBEBEBEBEBEBEBEBEBEBEBEBEBEBEBEBEBEE2E2F5E2F5F5F5E2F5E2E2BEE2E2E2E2E2E2C3E2E2E2E2E2E2E2E2E2E2E2E2E2E2E2E2E2E2E2E2E2E2E2C3E2E2E2E2E2E2E2E2E2E2E2C3E2E2E2E2E2E2E2E2C3E2E2E2E2E2E2E2E2E2E2
310
E2E2E2E2E2E2E2E2E2E2E2E2E2E2E2E2E2E2E2E2E2E2C3E2E2E2E2E2E2E2E2E2E2E2C3E2E2E2E2E2E2E2E2E2E2E2E2E2E2E2C3E2E2E2E2E2E2E2E2E2E2C3E2E2E2E2E2E2E2E2E2E2E2E2E2E2E2E2E2E2E2E2E2E2E2E2E2E2E2E2E2E2E2E2E2E2E2E2E2E2E2E2E2E2E2BEE2E2F5E2F5F5F5E2F5E2E2BEE2C3C3C3C3E2C3E2C3
310
C3C3C3C3C3C3C3C3C3C3C3E2E2E2E2E2E2E2E2E2E2C3E2C3C3C3C3C3E2E2E2E2E2C3C3C3C3C3C3E2E2E2C3E2E2E2E2E2E2E2E2E2C3C3C3C3C3C3C3C3C3C3C3C3C3C3C3C3C3C3E2E2E2E2E2C3C3C3C3C3C3E2E2C3C3C3E2C3E2E2C3C3C3C3C3C3C3C3C3C3E2E2E2C3E2E2E2C3C3C3C3C3E2E2C3E2E2E2E2E2E2E2E2E2C3C3C3
310
C3C3C3C3C3C3C3C3C3C3C3C3C3C3C3E2E2E2E2E2E2E2E2E2E2E2E2E2E2E2E2BEE2E2F5E2F5F5F5E2F5E2E2BEE2C3C3C3C3E2C3E2C3C3C3C3C3C3C3C3C3C3C3C3E2E2E2E2E2E2E2E2E2E2C3E2C3C3C3C3C3E2E2E2E2E2C3C3C3C3C3C3E2E2E2C3E2E2E2E2E2E2E2E2E2C3C3C3C3C3C3C3C3C3C3C3E2C3C3C3C3C3E2E2E2E2E2
310
E2C3C3C3C3C3C3E2E2C3C3C3C3C3E2E2C3C3C3C3C3C3C3C3C3C3E2E2E2C3E2E2E2C3C3C3C3C3E2E2C3E2E2E2E2E2E2E2E2E2C3C3C3C3C3C3C3C3C3C3C3E2C3C3C3C3C3E2E2E2E2E2E2E2E2E2E2E2E2E2E2E2E2E2BEE2E2F5E2F5F5F5E2F5E2E2BEC3C3C3C3C3C3C3C3C3C3C3C3C3C3C3C3C3C3C3C3C3C3C3C3C3C3C3C3C3C3
310
C3C3C3C3C3C3C3C3C3C3C3C3C3C3C3C3C3C3C3C3C3C3E2E2E2E2E2E2E2E2E2C3C3C3C3C3C3C3C3C3C3C3C3C3C3C3C3C3E2E2E2E2E2E2C3C3C3C3E2E2E2E2C3C3C3C3C3C3C3C3C3C3C3C3C3C3C3C3C3C3C3C3C3C3C3C3C3C3C3C3C3C3C3C3E2E2E2E2E2E2E2E2E2C3C3C3C3C3C3C3C3C3C3C3C3C3C3C3C3C3E2E2E2E2E2E2E2
310
E2E2E2E2E2E2E2E2E2E2BEE2E2F5E2F5F5F5E2F5E2E2BEE2E2E2E2E2E2C3E2E2E2E2E2E2E2E2E2E2E2E2E2E2E2E2E2E2E2E2E2E2E2C3E2E2E2E2E2E2E2E2E2E2E2C3E2E2E2E2E2E2E2E2C3E2E2E2E2E2E2E2E2E2E2E2E2E2E2E2E2E2E2E2E2E2E2E2E2E2E2E2E2E2E2E2E2C3C3C3E2E2E2E2E2C3C3C3C3C3C3C3C3C3E2E2C3
310
C3C3C3C3C3C3C3E2C3C3C3C3C3C3C3C3E2E2E2C3C3C3C3C3C3C3E2E2E2E2E2E2E2E2E2E2E2E2E2E2E2E2E2E2E2E2E2E2E2E2E2E2E2E2E2E2E2E2E2E2E2E2E2BEE2E2F5E2F5F5F5E2E2E2E2BEE2E2E2E2E2E2C3E2E2E2E2E2E2E2E2E2E2E2E2E2E2E2E2E2E2E2E2E2E2E2C3E2E2E2E2E2E2E2E2E2E2E2C3E2E2E2E2E2E2E2E2
310
C3E2E2E2E2E2E2E2E2E2E2E2E2E2E2E2E2E2E2E2E2E2E2E2E2E2E2E2E2E2E2E2E2C3C3C3C3E2E2E2E2C3C3C3C3C3C3C3C3C3E2E2C3E2E2C3E2C3C3E2E2C3C3C3C3C3C3C3C3E2E2E2C3C3C3C3C3C3C3E2E2E2E2E2E2E2E2E2E2E2E2E2E2E2E2E2E2E2E2E2E2E2E2E2E2E2E2E2E2E2E2E2E2E2E2E2BEE2E2E2E2F5F5F5E2E2E2
310
E2BEC3C3C3C3C3C3C3C3C3C3C3C3C3C3C3C3C3C3C3C3C3C3C3C3C3C3C3C3C3C3C3C3C3C3C3C3C3C3C3C3C3C3C3C3C3C3C3C3C3C3C3C3E2E2E2E2E2E2E2E2E2E2E2E2E2E2E2E2E2E2E2E2E2E2E2E2E2E2E2E2E2E2E2E2C3C3C3E2E2E2E2E2C3C3C3C3C3C3C3C3C3C3C3C3C3C3C3C3C3C3C3C3C3C3C3C3C3C3C3C3C3C3C3C3C3
310
C3C3C3C3C3E2E2E2E2E2E2E2E2E2E2E2E2E2E2E2E2E2E2E2E2E2E2E2E2E2E2E2E2E2E2E2E2E2E2E2E2E2BEE2E2E2E2F5F5F5E2E2E2E2BEE2E2E2E2E2E2C3E2E2E2E2E2E2E2E2E2E2E2E2E2E2E2E2E2E2E2E2E2E2E2C3E2E2E2E2E2E2E2E2E2E2E2C3E2E2E2E2E2E2E2E2C3E2E2E2E2E2E2E2E2E2E2E2E2E2E2E2E2E2E2E2E2
310
E2E2E2E2E2E2E2E2E2E2E2E2C3C3E2E2E2E2E2E2C3C3C3C3C3C3C3C3C3C3E2C3E2E2E2E2E2E2E2E2C3E2E2E2E2E2E2E2E2E2E2C3C3C3C3C3C3C3C3C3C3C3C3C3C3C3C3C3C3C3C3C3C3C3C3C3C3C3C3C3C3C3C3C3C3C3C3C3C3C3C3C3C3C3C3BEE2E2E2E2F5F5F5E2E2E2E2BEE2E2E2E2E2E2C3E2E2E2E2E2E2E2E2E2E2E2E2
310
E2E2E2E2E2E2E2E2E2E2E2C3E2E2E2E2E2E2E2E2E2E2E2C3E2E2E2E2E2E2E2E2C3E2E2E2E2E2E2E2E2E2E2E2E2E2E2E2E2E2E2E2E2E2E2E2E2E2E2E2E2E2E2E2E2C3C3E2E2E2E2E2E2C3C3C3C3C3C3C3C3C3C3E2C3E2E2E2E2E2E2E2E2C3E2E2E2E2E2E2E2E2E2E2C3E2E2C3C3C3C3C3C3C3C3C3C3C3C3C3C3C3E2C3C3C3C3
310
E2C3E2C3C3C3C3E2E2E2E2E2E2E2E2E2E2E2E2E2E2BEE2E2E2E2F5F5F5E2E2E2E2BEC3C3C3C3C3C3C3C3C3C3C3C3C3C3C3C3C3C3C3C3C3C3C3C3C3C3C3C3C3C3C3C3C3C3C3C3C3C3C3C3C3C3C3C3C3C3C3C3C3C3C3C3E2C3C3C3C3C3C3C3C3C3E2E2E2E2E2E2E2E2E2E2E2E2E2E2E2E2E2E2E2E2E2E2C3C3C3C3C3C3C3C3C3
310
C3C3C3C3C3C3C3C3C3C3C3C3C3C3C3C3C3C3C3C3C3C3C3C3C3C3C3C3C3C3C3E2E2C3C3C3E2C3C3C3C3C3C3C3C3C3C3C3E2C3C3C3C3C3C3C3C3C3C3C3E2E2E2E2E2E2E2E2E2E2E2E2E2E2BEE2E2E2E2F5F5F5E2E2E2E2BEE2E2E2E2E2E2C3E2E2E2E2E2E2E2E2E2E2E2E2E2E2E2E2E2E2E2E2E2E2E2C3E2E2E2E2E2E2E2E2E2
310
E2E2C3E2E2E2E2E2E2E2E2C3E2C3C3C3C3C3C3C3C3C3E2E2E2E2E2E2E2E2E2E2E2E2E2E2E2E2E2E2E2E2E2E2C3E2C3C3C3C3C3C3C3C3C3C3C3C3C3C3C3C3E2C3E2C3C3C3C3C3C3E2C3C3C3C3C3C3C3C3E2E2E2C3E2E2C3C3C3C3C3C3C3C3C3C3C3C3C3C3C3E2E2C3C3C3C3C3C3C3C3C3C3E2E2E2E2E2E2E2E2E2E2E2E2E2E2
310
BEE2E2E2E2F5F5F5E2E2E2E2BEE2E2E2E2E2E2C3E2E2E2E2E2E2E2E2E2E2E2E2E2E2E2E2E2E2E2E2E2E2E2C3E2E2E2E2E2E2E2E2E2E2E2C3E2E2E2E2E2E2E2E2C3E2C3C3C3C3C3C3C3C3C3E2E2E2E2E2E2E2E2E2E2E2E2E2E2E2E2E2E2E2E2E2E2C3E2C3C3C3C3C3C3C3C3C3C3C3C3C3C3C3C3E2C3E2C3C3E2C3C3E2E2C3C3
310
C3C3C3C3C3C3E2E2E2C3E2E2E2C3C3C3C3C3C3C3C3C3C3C3C3C3C3E2E2C3C3C3C3C3C3C3C3C3E2E2E2E2E2E2E2E2E2E2E2E2E2E2E2BEE2E2E2E2F5F5F5E2E2E2E2BEBEBEBEBEBEBEBEBEBEBEBEBEBEBEBEBEBEBEBEBEBEBEBEBEBEBEBEBEBEBEBEBEBEBEBEBEBEBEBEBEBEBEBEBEBEBEBEBEBEBEBEBEBEBEBEBEBEBEBEBEBE
310
BEBEBEBEBEBEBEBEBEBEBEBEBEBEBEBEBEBEBEBEBEBEBEBEBEBEBEBEBEBEBEBEBEBEBEBEBEBEBEBEBEBEBEBEBEBEBEBEBEBEBEBEBEBEBEBEBEBEBEBEBEBEBEBEBEBEBEBEBEBEBEBEBEBEBEBEBEBEBEBEBEBEBEBEBEBEBEBEBEBEBEBEBEBEBEBEBEBEBEBEBEBEBEBEBEBEBEE2E2E2E2F5F5F5E2E2E2E2BEC3C3C3C3C3C3C3E2
310
C3C3C3C3C3C3C3C3C3C3C3E2C3C3C3C3C3C3C3E2C3C3C3C3C3C3C3C3C3C3C3C3E2E2E2E2E2E2E2E2E2E2E2E2E2E2E2E2E2E2E2E2E2E2E2E2E2BEC3C3E2C3C3C3C3E2C3C3C3C3C3C3C3E2E2BEE2E2C3C3E2E2E2E2BEE2C3C3C3E2E2E2E2BEE2E2E2E2E2E2E2E2E2E2E2E2E2E2E2E2E2E2E2E2E2E2E2E2E2E2E2E2E2E2E2E2E2
310
E2E2E2E2E2E2E2E2E2E2E2E2E2E2E2E2E2E2E2E2E2E2E2E2E2E2E2E2E2E2E2E2BEE2E2E2E2F5F5F5E2F5E2E2BEE2C3C3C3C3C3C3E2C3C3C3C3C3C3C3C3C3C3C3E2C3C3C3C3C3C3C3E2C3C3C3C3C3C3C3C3C3C3C3C3E2E2E2E2E2E2E2E2E2E2E2E2E2E2E2E2E2E2E2E2E2E2E2E2E2BEC3C3C3C3C3C3C3E2C3C3C3C3C3C3C3E2
310
E2BEE2E2C3C3E2E2E2E2BEE2C3C3C3E2E2E2E2BEE2C3C3C3C3C3C3C3C3C3C3C3C3C3C3C3C3C3C3C3C3C3C3C3C3C3C3C3C3C3C3C3C3E2E2E2E2E2E2E2E2E2E2E2E2E2E2E2E2E2E2E2E2E2E2E2E2C3C3C3E2E2E2E2E2BEE2E2F5E2F5F5F5E2F5E2E2BEBEBEBEBEBEBEBEBEBEBEBEBEBEBEBEBEBEBEBEBEBEBEBEBEC3BEBEBEBE
310
BEBEBEBEBEBEBEBEBEBEC3BEBEBEBEBEBEBEBEBEBEBEBEBEBEBEBEBEBEBEBEBEBEBEBEBEBEBEBEBEBEBEBEBEBEBEBEBEBEC3BEC3BEBEBEBEBEBEBEBEBEBEBEBEBEBEBEBEBEBEBEBEBEE2C3E2C3C3E2C3E2C3E2E2C3E2C3E2C3E2C3C3E2C3E2E2C3E2C3C3C3C3C3E2E2C3E2E2E2E2E2E2E2E2E2E2E2E2E2E2E2E2C3C3C3C3E2
310
E2E2E2C3C3C3E2E2E2E2E2BEE2E2F5E2F5F5F5E2F5E2E2BEE2C3C3C3C3C3C3C3C3C3C3C3C3C3C3C3C3C3C3C3C3C3C3C3E2C3C3C3C3C3C3C3C3C3C3C3E2C3C3C3C3C3C3C3C3C3C3C3C3C3C3C3E2C3C3E2C3C3C3C3E2C3C3C3C3BEC3C3C3C3C3E2C3C3C3C3C3C3C3C3C3E2E2BEE2C3C3C3C3C3E2E2BEE2C3C3C3C3C3E2E2BEE2
310
C3E2E2C3E2C3E2C3C3E2C3E2E2E2C3E2E2E2E2C3E2C3C3E2C3C3C3C3C3E2E2C3E2E2E2E2E2E2E2E2E2E2E2E2E2E2E2E2C3C3C3C3E2E2E2E2E2C3C3E2E2E2E2E2BEE2E2F5E2F5F5F5E2F5E2E2BEE2C3C3C3C3C3C3C3C3C3C3C3C3C3C3C3C3C3C3C3C3C3C3C3C3C3C3C3C3C3C3C3C3C3C3C3C3C3C3C3C3C3C3C3C3C3C3C3C3C3
310
C3C3C3C3C3E2C3C3C3C3E2C3C3C3C3BEC3C3C3C3C3C3C3C3C3C3C3C3C3C3C3E2E2BEE2C3C3C3C3C3E2E2BEE2C3C3C3C3C3E2E2BEE2C3C3C3C3C3C3C3C3C3C3C3C3C3C3C3C3C3C3C3C3C3C3C3C3C3C3C3C3C3E2E2C3E2E2E2E2E2E2E2E2E2E2E2E2E2E2E2E2E2C3C3E2E2E2E2E2C3C3C3E2E2E2E2E2BEE2E2F5E2F5F5F5E2F5
310
E2E2BEBEBEBEBEBEBEBEBEBEBEBEBEBEBEBEBEBEBEBEBEBEBEBEBEBEBEBEBEBEBEBEBEBEBEBEBEBEBEBEBEBEBEBEBEBEBEBEBEBEBEBEBEBEBEBEBEBEBEBEBEBEBEBEBEBEBEBEBEBEBEBEBEBEBEBEBEBEBEBEBEBEBEBEBEBEBEBEBEBEBEBEBEBEBEBEBEBEBEBEBEBEBEE2C3E2C3C3E2C3E2C3C3E2C3C3C3E2C3E2C3C3E2C3E2
310
C3C3E2C3E2C3E2C3C3E2C3E2E2E2E2E2E2E2E2E2E2E2E2E2E2E2E2E2C3C3E2E2E2E2E2E2C3C3E2E2E2E2E2BEE2E2F5E2F5F5F5E2F5E2E2BEE2C3C3C3C3C3C3C3C3C3C3C3C3C3C3E2C3E2C3C3C3E2C3C3C3C3C3C3E2E2E2E2E2E2E2E2E2E2E2E2E2E2E2E2E2E2E2E2E2E2E2E2E2E2E2E2E2E2E2E2E2E2E2E2E2BEE2E2E2E2E2
310
E2E2E2E2BEBEBEBEBEBEE2E2BEE2C3C3C3C3C3E2E2BEE2C3C3C3C3C3C3E2BEE2C3E2C3C3E2C3E2E2E2E2C3E2E2E2C3E2E2C3E2C3E2E2C3E2C3E2C3E2C3C3E2C3E2E2E2E2E2E2E2E2E2E2E2E2E2E2E2E2E2C3C3E2E2E2E2E2E2C3C3E2E2E2E2E2BEE2E2F5E2F5F5F5E2F5E2E2BEE2C3C3C3C3C3C3C3C3C3C3C3C3C3C3E2C3E2
310
C3C3C3E2C3C3C3C3C3C3E2E2E2E2E2E2E2E2E2E2E2E2E2E2E2E2E2E2E2E2E2E2E2E2E2E2E2E2E2E2E2E2E2E2E2E2E2BEE2E2E2BEBEBEBEBEBEE2E2E2E2E2E2E2E2BEE2E2C3C3C3C3E2E2BEE2C3C3C3C3C3E2E2BEE2C3C3C3C3C3C3C3C3C3C3C3C3C3C3C3C3C3C3C3C3C3C3C3C3C3E2C3E2C3C3E2C3E2E2E2E2E2E2E2E2E2E2
310
E2E2E2E2E2E2E2C3C3E2E2E2E2E2E2E2C3E2E2E2E2E2BEE2E2F5E2F5F5F5E2F5E2E2BEBEBEBEBEBEBEBEBEBEBEBEBEBEBEBEBEBEBEBEBEBEBEBEBEBEBEBEBEBEBEBEBEBEBEBEBEBEBEBEBEBEBEBEBEBEBEBEBEBEBEBEBEBEBEBEBEBEBEBEBEBEBEBEBEBEBEBEBEBEBEBEBEBEBEBEBEBEBEBEBEBEBEBEBEBEBEBEBEBEBEBEBE
310
BEBEBEBEBEBEBEBEBEBEE2C3E2C3C3E2C3E2C3C3E2C3E2C3E2C3E2C3C3E2C3E2C3C3E2C3E2C3E2C3C3E2C3E2E2E2E2E2E2E2E2E2E2E2E2E2E2E2E2E2C3E2E2E2E2E2E2E2C3C3E2E2E2E2E2BEE2E2F5E2F5F5F5E2F5E2E2BEE2C3C3C3C3C3C3C3C3E2C3C3C3C3C3C3C3C3C3E2C3C3C3C3C3C3C3C3E2C3C3C3C3C3C3C3C3C3C3
310
C3C3C3C3C3C3C3C3C3C3C3C3C3C3C3C3C3C3C3C3C3C3C3C3C3C3BEC3C3C3C3C3E2C3C3C3C3C3E2C3C3C3C3C3BEC3C3C3BEE2C3C3E2BEC3C3C3BEE2C3C3E2BEE2C3E2C3C3E2C3E2E2E2E2C3E2C3E2C3E2E2C3E2C3E2E2E2E2C3E2C3E2C3C3E2C3E2E2E2E2E2E2E2E2E2E2E2E2E2E2E2E2E2C3E2E2E2E2E2E2E2E2C3E2E2E2E2
310
E2BEE2E2F5E2F5F5F5E2F5E2E2BEE2C3C3C3C3C3C3C3C3E2C3C3C3C3C3C3C3C3C3E2C3C3C3C3C3C3C3C3E2C3C3C3C3C3C3C3C3C3C3C3C3E2C3C3C3C3C3C3C3C3C3C3C3E2C3C3C3C3C3C3C3C3C3C3C3BEC3C3C3C3C3C3C3C3C3C3C3E2C3C3C3C3C3BEC3C3C3BEE2C3C3E2BEC3C3C3BEE2C3C3E2BEE2C3C3C3C3C3C3C3C3C3C3
310
C3C3C3C3C3C3C3C3C3C3C3C3C3C3C3E2C3E2C3C3C3C3E2E2E2E2E2E2E2E2E2E2E2E2E2E2E2E2E2C3E2E2E2E2E2E2E2E2C3E2E2E2E2E2BEE2E2F5E2F5F5F5E2F5E2E2BEBEBEBEBEBEBEBEBEBEBEBEBEBEBEBEBEBEBEBEBEBEBEBEBEBEBEBEBEBEBEBEBEBEBEBEBEBEBEBEBEBEBEBEBEBEBEBEBEBEBEBEBEBEBEBEBEBEBEBEBE
310
BEBEBEBEBEBEBEBEBEBEBEBEBEBEBEBEBEBEBEBEBEBEBEBEBEBEBEBEBEBEBEBEBEBEBEBEBEBEBEBEBEBEE2C3E2E2C3E2C3E2C3C3E2C3E2C3E2C3E2C3C3E2C3E2C3C3E2C3E2C3E2C3C3C3C3E2E2E2E2E2E2E2E2E2E2E2E2E2E2E2E2E2C3C3C3C3C3C3C3C3C3C3E2E2E2E2E2BEE2E2F5E2F5F5F5E2F5E2E2BEC3C3C3C3C3C3C3
310
E2C3C3C3C3C3C3C3C3C3C3C3E2E2C3C3C3E2C3C3C3C3C3C3C3C3E2C3C3E2C3C3C3C3C3E2E2E2E2E2E2E2E2E2E2E2E2E2E2E2E2E2E2E2E2E2E2E2BEC3C3C3C3C3C3C3E2C3E2E2C3C3C3C3E2E2BEE2C3C3BEE2C3C3E2BEE2C3C3BEE2C3C3E2BEE2C3E2C3C3E2C3E2C3E2E2C3E2C3E2C3E2E2E2E2C3E2E2E2E2C3E2C3E2C3C3E2
310
C3E2E2E2E2E2C3C3C3C3C3C3C3C3E2E2E2E2E2E2E2E2E2E2E2E2E2E2E2E2E2E2E2BEE2E2F5E2F5F5F5E2F5E2E2BEE2C3C3C3C3C3C3E2C3C3C3C3C3C3C3C3C3C3C3C3C3C3C3C3E2C3C3C3C3C3C3C3C3C3C3C3C3C3C3C3C3C3E2E2E2E2E2E2E2E2E2E2E2E2E2E2E2E2E2E2E2E2E2E2E2BEC3C3C3C3C3C3C3E2C3E2E2C3C3C3C3
310
E2E2BEE2C3C3BEE2C3C3E2BEC3C3C3BEE2C3C3E2BEE2C3C3C3C3C3C3C3C3C3C3C3C3C3C3C3C3C3C3C3C3C3C3C3C3C3E2E2E2C3C3C3C3E2E2E2E2E2C3C3C3C3C3C3C3C3C3C3C3C3E2E2E2E2C3E2E2E2E2E2E2E2E2E2E2BEE2E2F5E2F5F5F5E2F5E2E2BEBEBEBEBEBEBEBEBEBEBEBEBEBEBEBEBEBEBEBEBEBEBEBEBEBEBEBEBE
310
BEBEBEBEBEBEBEBEBEBEBEBEBEBEBEBEBEBEBEBEBEBEBEBEBEBEBEBEBEBEBEBEBEBEBEBEBEBEBEBEBEBEBEBEBEBEBEBEBEBEBEBEBEBEBEBEBEBEBEBEBEBEBEBEBEBEBEBEBEBEBEBEBEBEE2C3C3C3C3C3C3E2C3C3E2C3E2C3E2C3E2C3C3C3C3E2C3C3E2C3E2E2E2C3C3C3C3E2E2E2E2E2C3C3C3C3E2E2E2E2E2E2C3C3E2E2C3
310
C3E2C3C3E2E2E2E2E2E2E2E2BEE2E2F5E2F5F5F5E2F5E2E2BEE2C3C3C3C3C3C3C3C3C3C3C3C3C3C3C3E2C3C3C3C3C3C3C3C3C3C3C3C3C3C3C3C3C3C3C3C3C3C3C3C3C3C3C3C3C3C3C3C3C3C3C3E2C3C3C3C3C3C3C3C3C3E2E2E2BEC3C3C3C3E2C3C3C3C3C3E2C3C3C3C3C3E2BEE2E2E2E2C3C3C3C3E2E2E2E2E2E2E2E2E2BE
310
E2C3C3C3C3C3C3E2C3E2E2C3E2C3E2C3E2C3C3E2C3E2C3C3E2C3E2E2E2C3C3C3C3E2E2E2E2E2E2E2E2E2E2E2E2E2E2E2C3C3E2C3E2E2E2E2E2C3E2E2E2E2E2E2E2BEE2E2F5E2F5F5F5E2F5E2E2BEC3C3C3C3C3C3C3C3C3C3C3C3C3C3C3C3E2C3C3C3C3C3C3C3C3C3C3C3C3C3C3C3C3C3C3C3C3C3C3C3C3C3C3C3C3C3E2C3C3
310
C3C3C3E2C3C3C3C3C3C3C3C3C3E2E2E2BEC3C3C3C3C3C3C3C3C3C3E2C3C3C3C3C3E2BEE2E2E2E2C3C3C3C3C3E2E2E2E2E2E2E2E2BEE2C3C3C3C3C3C3C3C3C3C3C3C3C3C3C3C3C3C3C3C3C3C3C3C3C3C3C3C3C3C3C3C3E2E2E2E2E2E2E2E2E2E2E2E2E2E2E2C3C3E2C3E2E2E2E2E2E2C3E2E2E2E2E2E2BEE2E2F5E2F5F5F5E2
310
E2E2E2BEBEBEBEBEBEBEBEBEBEBEBEBEBEBEBEBEBEBEBEBEBEBEBEBEBEBEBEBEBEBEBEBEBEBEBEBEBEBEBEBEBEBEBEBEBEBEBEBEBEBEBEBEBEBEBEBEBEBEBEBEBEBEBEBEBEBEBEBEBEBEBEBEBEBEBEBEBEBEBEBEBEBEBEBEBEBEBEBEBEBEBEBEBEBEBEBEBEBEBEBEBEBEE2C3C3C3C3C3C3C3C3C3C3C3C3C3E2C3C3C3C3C3C3
310
C3C3C3C3C3C3C3C3C3E2C3E2E2E2E2E2E2E2E2E2E2E2E2E2E2E2E2C3C3C3E2E2E2E2E2E2E2C3E2E2E2E2E2E2BEE2E2E2E2F5F5F5E2E2E2E2BEE2C3C3C3C3C3E2C3C3C3C3C3C3C3E2E2E2E2E2E2E2E2E2E2E2E2E2E2E2BEE2E2E2E2E2E2E2E2E2E2E2C3C3C3E2C3C3C3C3C3C3E2E2E2E2E2E2E2E2E2E2E2E2E2E2BEE2E2E2E2
310
E2E2E2E2E2E2E2E2E2E2E2E2E2E2E2E2E2E2E2E2E2E2E2E2E2E2E2E2E2E2E2BEE2C3C3C3C3C3C3C3C3C3C3C3C3C3E2C3C3C3C3C3C3C3C3C3C3C3C3C3E2C3C3C3E2E2E2E2E2E2E2E2E2E2E2E2E2E2E2E2C3C3E2C3E2E2E2E2E2E2C3E2E2E2E2E2E2BEE2E2E2E2F5F5F5E2E2E2E2BEC3C3C3C3C3C3C3C3C3C3C3C3C3C3E2E2E2
310
E2E2E2E2E2E2E2E2E2E2E2E2BEE2E2E2E2E2E2E2E2E2E2E2C3C3C3E2C3C3C3C3C3C3E2E2E2E2E2E2E2E2E2E2E2E2E2E2BEE2E2E2E2E2E2E2E2E2E2E22828E2E2E228E2E2E2E2E2E2E2E2E2E2E2E2E2E2E2E2E2E2BEE2C3C3C3C3C3C3C3C3C3C3E2C3C3C3C3C3C3C3C3E2C3C3C3C3E2E2E2E2E2E2E2E2E2E2E2E2E2E2E2E2E2
310
E2E2E2E2E2E2C3C3E2C3E2E2E2E2E2C3E2E2E2E2E2E2E2BEE2E2E2E2F5F5F5E2E2E2E2BEBEBEBEBEBEBEBEBEBEBEBEBEBEBEBEBEBEBEBEBEBEBEBEBEBEBEBEBEBEBEBEBEBEBEBEBEBEBEBEBEBEBEBEBEBEC3BEBEBEBEC3BEBEBEBEBEBEBEBEBEBEBEBEBEBEBEE2E2E2E2E2E2E2E2E2E2E2282828C32828E2E2E2E2E2E2E2E2
310
E2E2E2E2E2E2E2E2E2E2BEE2C3C3C3C3E2C3C3C3C3C3E2C3C3C3C3C3C3C3C3C3C3C3C3E2E2E2E2E2E2E2E2E2E2E2E2E2E2E2C3C3C3C3C3E2E2E2E2C3C3E2E2C3E2E2E2C3E2E2E2E2E2E2E2E2BEE2E2E2E2F5F5F5E2E2E2E2BEE2C3C3C3C3C3E2C3C3C3C3C3C3C3C3C3E2C3C3C3C3C3C3E2C3C3C3E2E2BEE2E2E2E2E2E2E2E2
310
E2E2E2E2C3C3C3C3C3E2C3C3C3C3C3C3C3C3E2C3E2E2E2E2E2E2E2BEE2E2E2E2E2E2E2E2E2E2E228E2C3C3E228E2E2E2E2E2E2E2E2E2E2E2E2E2E2E2E2E2E2BEE2C3C3C3C3E2C3C3C3C3C3E2C3C3C3C3C3C3C3C3E2C3C3E2E2E2E2E2E2E2E2E2E2E2E2E2E2E2E2C3C3C3C3C3E2C3C3C3C3C3E2E2E2C3C3C3E2E2E2E2E2E2E2
310
E2E2BEE2E2E2E2F5F5F5E2E2E2E2BEE2C3C3C3C3C3E2C3C3C3C3C3C3C3C3C3C3C3C3C3C3C3C3C3C3C3C3E2E2BEE2E2E2E2E2E2E2E2E2E2E2C3C3C3C3C3C3C3C3C3C3C3C3C3C3C3C3C3E2E2E2E2E2E2E2BEE2E2E2E2E2E2E2E2E2E2E228E2E2E2E2BEBEBEBEBEBEBEBEBEBEBEBEBEE2E2E2E2E2E2BEE2E2E2E2E2E2E2E2E2E2
310
E2E2E2E2E2E2E2E2E2E2E2E2E2E2E2E2E2E2E2E2E2E2E2E2E2E2E2E2E2C3C3C3C3C3C3E2E2E2E2E2E2E2E2E2E2E2E2E2E2E2E2E2E2E2E2BEE2E2E2E2F5F5F5E2E2E2E2BEBEBEBEBEBEBEBEBEBEBEBEBEBEC3BEBEBEBEC3C3C3C3BEBEBEC3C3BEBEBEBEBEBEBEBEBEBEBEBEBEBEBEBEBEBEBEBEC3C3C3BEBEBEBEBEBEC3C3BE
310
BEBEBEBEBEBEBEE2E2E2E2E2E2E2E2E2E2E228E2E2E2E2BEE2E2E2E2E2E2E2E2E2E2E2BEE2E2E2E2E2E2BEE2E2E2E2E2E2E2E2E2E2E2E2E2E2E2E2E2E2E2E2E2E2E2E2E2E2E2E2E2E2E2E2E2E2E2E2E2E2E2E2E2E2E2E2E2E2E2C3C3C3C3C3C3C3C3C3C3C3C3C3E2E2E2E2E2BEE2E2E2E2F5F5F5E2E2E2E2BEC3C3C3C3E2C3
310
C3C3C3C3C3C3C3E2C3C3C3C3E2C3C3C3C3C3C3E2E2E2E2BEE2E2E2E2E2E2E2E2E2E2E2C3C3C3C3E2E2E2E2E2E2E2E2E2E2E2E2E2E2E2E2E2E2E2E2BEE2E2E2E2E2E2E2E2E2E2E228E2E2E2E2BEE2E2E2E2E2E2E2E2E2E2E2BEE2E2E2E2E2E2BEE2E2E2E2E2E2E2E2E2E2E2E2E2E2E2E2E2E2E2E2E2E2E2E2E2E2E2E2E2E2E2
310
E2E2E2E2E2E2E2E2E2E2E2E2E2E2E2E2C3C3C3C3C3C3C3C3C3C3C3C3C3E2E2E2E2E2BEE2E2E2E2F5F5F5E2F5E2E2BEC3C3C3C3C3C3C3C3C3C3C3C3C3C3C3C3C3C3C3C3C3C3C3C3C3E2E2E2E2BEE2E2E2E2E2E2E2E2E2E2E2C3C3C3C3E2E2E2E2E2E2E2E2E2E2E2E2E2E2E2E2E2E2E2E2BEE2E2E2E2E2E2E2E2E2E2E228E2E2
310
E2E2BEE2E2E2E2E2E2E2E2E2E2E2BEE2E2E2E2E2E2BEE2E2E2E2E2E2E2E2E2E2E2E2E2E2E2E2E2E2E2E2E2E2E2E2E2E2E2E2E2E2E2E2E2E2E2E2E2E2E2E2E2E2E2E2E2E2E2E2E2E2E2E2E2E2E2E2E2E2E2E2E2E2E2E2E2BEE2E2F5E2F5F5F5E2F5E2E2BEBEBEBEBEBEBEBEBEBEBEBEBEBEBEBEBEBEBEBEBEBEBEBEBEBEBEBE
310
BEBEBEBEBEBEBEBEBEBEBEBEBEBEBEBEBEBEBEBEBEBEBEBEBEBEBEBEBEBEBEBEBEBEBEBEBEBEBEE2E2E2E2E2E2E2E2E2E2E228E2E2E2E2BEE2E2E2E2E2E2E2E2E2E2E2BEE2E2E2E2E2E2BEE2E2E2E2E2E2E2E2E2E2E2E2E2E2E2E2E2E2E2E2E2E2E2E2E2E2E2E2E2E2E2E2E2E2E2E2E2E2E2E2E2E2E2E2E2E2E2E2E2E2E2E2
310
E2E2E2E2E2E2E2E2E2E2E2E2E2BEE2E2F5E2F5F5F5E2F5E2E2BEC3C3C3C3E2C3C3C3C3C3C3C3C3E2E2E2E2E2E2E2E2E2E2E2E2E2E2E2E2BEE2E2E2E2E2E2E2E2E2E2E2E2C3C3E2E2E2E2E2E2E2E2E2E2E2E2E2E2E2E2E2E2E2E2E2BEE2E2E2E2E2E2E2E2E2E2E228E2E2E2E2BEE2E2E2E2E2E2E2E2E2E2E2BEE2E2E2E2E2E2
310
BEE2E2E2E2E2E2E2E2E2E2DCDCDCDCDCDCDCDCDCDCDCDCDCDCDCDCDCDCDCDCDCDCDCDCDCDCDCDCDCDCDCDCDCDCDCDCDCDCDCDCDCDCDCDCDCDCE2E2E2E2E2E2E2E2E2BEE2E2F5E2F5F5F5E2F5E2E2BEC3C3C3C3C3C3C3C3C3C3C3C3C3E2E2E2E2E2E2E2E2E2E2E2E2E2E2E2E2BEE2E2E2E2E2E2E2E2E2E2E2C3C3C3E2E2E2E2
310
E2E2E2E2E2E2E2E2E2E2E2E2E2E2E2E2E2BEE2E2E2E2E2E2E2E2E2E2E228E2E2E2E2BEE2E2E2E2E2E2E2E2E2E2E2BEE2E2E2E2E2E2BEE2E2E2E2E2E2E2E2E2E2DCE2E2E2E2E2DCE2DCE2E2E2E2E2E2E2E2DCE2E2E2E2DCE2E2E2DCE2DCDCDCE2E2E2E2DCDCDCDCDCDCDCDCE2E2DCE2E2E2E2E2E2E2E2E2BEE2E2F5E2F5F5F5
310
E2F5E2E2BEBEBEBEBEBEBEBEBEBEBEBEBEBEBEBEBEBEBEBEBEBEBEBEBEBEBEBEBEBEBEBEBEBEBEBEBEBEBEBEBEBEBEBEBEBEBEBEBEBEBEBEBEBEBEBEBEBEBEBEBEBEBEBEBEBEBEE2E2E2E2E2E2E2E2E2E2E228E2E2E2E2BEBEBEE2E2E2E2E2E2E2BEBEBEE2E2E2E2E2E2BEE2E2E2E2E2E2E2E2E2E2DCE2E2E2E2E2DCE2DCDC
310
DCDCE2E2E2E2E2DCE2E2E2DCDCE2E2E2DCE2DCDCE2E2E2E2E2DCDCDCDCE2E2E2DCDCE2DCE2E2E2E2E2E2E2E2E2BEE2E2F5E2F5F5F5E2F5E2E2BEE2C3C3C3C3C3E2C3C3C3C3C3C3C3C3C3C3C3E2C3C3E2C3C3E2E2E2E2E2BEE2E2E2E2E2E2E2E2E2E2E2E2C3C3C3C3C3E2C3C3C3C3C3C3C3E2E2E2E2E2E2E2E2E2E2BEE2E2E2
310
E2E2E2E2E2E2E2E228E2E2E2E2BEBEBEE2E2E2E2E2E2E2BEBEBEE2E2E2E2E2E2BEE2E2E2E2E2E2E2E2E2E2DCE2E2E2E2E2DCDCE2E2E2E2E2E2E2E2E2DCE2E2E2E2DCE2E2E2DCDCDCDCE2E2E2E2E2DCDCDCE2E2E2E2DCDCE2DCE2E2E2E2E2E2E2E2E2BEE2E2F5E2F5F5F5E2F5E2E2BEE2C3C3C3C3C3C3C3C3C3C3C3C3C3C3C3
310
C3C3E2C3C3C3C3C3E2E2E2E2E2BEE2E2E2E2E2E2E2E2E2E2E2C3C3C3C3C3C3C3C3C3C3C3C3C3C3E2E2E2E2E2E2E2E2E2E2BEE2E228E2E2E228E2E2E2BEBEBEBEBEBEBEE2BEE2E2E2E2E2E2E2BEE2BEBEBEBEBEBEBEBEE2E2E2E2E2E2E2E2E2E2DCE2E2E2E2E2DCE2E2E2E2E2E2E2E2E2E2DCDCDCDCDCDCDCDCDCDCDCDCDCDC
310
DCDCDCDCDCE2E2E2E2E2E2DCDCE2DCE2E2E2E2E2E2E2E2E2BEE2E2F5E2F5F5F5E2F5E2E2BEBEBEBEBEBEBEBEBEBEBEBEBEBEBEBEBEBEBEBEBEBEBEBEBEBEBEBEBEBEBEBEBEBEBEBEBEBEBEBEBEBEBEC3C3BEC3C3C3C3C3BEC3C3C3C3BEBEBEBEBEBEBEBEBEBEBE282828282828282828ECBEECECECECECBEECBEECECECECEC
310
ECECBEECBEECECECECECBEECE2E2E2E2E2E2E2E2E2E2DCE2E2E2E2E2DCE2E2DCDCDCE2E2E2E2E2DCE2E2E2DCDCE2E2E2DCDCDCDCDCE2E2E2E2DCDCDCE2E2E2E2DCDCE2DCE2E2E2E2E2E2E2E2E2BEE2E2F5E2F5F5F5E2F5E2E2BEE2C3C3C3C3C3C3C3C3C3C3C3C3C3E2C3C3C3C3E2C3C3E2C3C3E2E2E2E2BEE2E2E2E2E2E2E2
310
E2E2E2E2C3C3C3C3E2C3C3C3C3C3C3E2E2E2E2E2E2E2E2E2E2E2E2E2BEE2E2E2E2C3C3E2E2E2E2BEBEBEBEBEBEBEBEBEE2E2E2E2E2E2E2BEBEBEBEBEBEBEBEBEBEE2E2E2E2E2E2E2E2E2E2DCE2E2E2E2E2DCE2E2E2E2E2E2E2E2E2E2DCE2E2E2DCDCE2E2E2DCDCDCDCDCE2E2E2E2DCDCDCE2DCDCDCDCE2E2DCE2E2E2E2E2E2
310
E2E2E2BEE2E2F5E2F5F5F5E2F5E2E2BEE2C3C3C3C3C3C3C3C3C3C3C3C3C3E2C3C3C3C3E2C3C3C3C3C3E2E2E2E2BEE2E2E2E2E2E2E2E2E2E2E2C3C3C3C3E2C3C3C3C3C3C3E2E2E2E2E2E2E2E2E2E2E2E2E2BEE2E2E2E2C3C3E2E2E2E2E228E2E2E2E2BE28BEE2E2E2E2E2E2E2BE28BEE2E2E2E2E2E2BEE2E2E2E2E2E2E2E2E2
310
E2DCE2E2E2E2E2E2E2E2E2E2E2E2E2E2E2E2DCDCDCDCDCDCDCDCDCDCDCDCDCDCDCDCDCDCDCDCE2DCE2E2E2E2E2E2DCE2E2E2E2E2E2E2E2E2BEE2E2F5E2F5F5F5E2F5E2E2BEBEBEBEBEBEBEBEBEBEBEBEBEBEBEBEBEBEBEBEBEBEBEBEBEBEBEBEBEBEBEBEBEBEBEBEBEBEBEBEBEBEBEBEBEBEBEC3BEBEBEBEC3BEBEBEBEBEBE
310
BEBEBEBEBEBEBEBEE2E2E2E2E2E2E2E2E2E2E228E2E2E2E2BEBE2828E2E2E2E2E228282828E2E2E2E2E2E2BEE2E2E2E2E2E2E2E2E2E2DCE2E2E2E2E2DCE2DCE2E2E2E2E2E2E2E2DCE2E2E2DCDCE2E2E2DCDCDCDCDCE2E2E2E2DCDCDCDCDCDCDCDCE2E2DCE2E2E2E2E2E2E2E2E2BEE2E2F5E2F5F5F5E2F5E2E2BEE2C3C3C3C3
310
C3C3C3C3C3C3C3C3C3C3C3C3C3C3C3C3C3C3C3C3C3C3E2E2BEE2E2E2E2E2E2E2E2E2E2E2C3C3C3C3C3C3C3C3E2E2E2E2E2E2E2E2E2E2E2E2E2E2E2E2BEE2E2E2E2E2E2E2E2E2E2E228C3C3E2E2BEE228E228E2E2E2E22828E2BE28E2E2E2E2E2BEE2E2E2E2E2E2E2E2E2E2DCE2E2E2E2E2DCE2DCDCDCDCE2E2E2E2E2DCE2E2
310
E2DCDCE2E2E2DCDCDCDCDCE2E2E2E2DCDCDCE2E2E2E2DCDCE2DCE2E2E2E2E2E2E2E2E2BEE2E2F5E2F5F5F5E2F5E2E2BEE2C3C3C3C3C3C3C3C3C3C3C3C3C3C3C3C3C3C3C3C3C3C3C3C3C3C3E2E2BEE2E2E2E2E2E2E2E2E2E2E2E2C3C3C3C3C3C3C3E2E2E2E2E2E2E2E2E2E2E2E2E2E2E2E2BEE2E2E2E2E2E2E2E2E2E2E228C3
310
C3E2E2BEE2E2E228E2E2E228E2E2E2BEE228E2E2E2E2BEE2E2E2E2E2E2E2E2E2E2DCE2E2E2E2E2DCDCE2E2E2E2E2E2E2E2E2DCE2E2E2DCDCE2E2E2DCDCDCDCDCE2E2E2E2DCE2DCE2E2E2E2DCDCE2DCE2E2E2E2E2E2E2E2E2BEE2E2F5E2F5F5F5E2F5E2E2BEBEBEBEBEBEBEBEBEBEBEBEBEBEBEBEBEBEBEBEBEBEBEBEBEBEBE
310
BEBEBEBEBEBEBEBEBEBEBEBEBEBEBEBEBEBEBEBEBEBEBEBEBEBEBEBEBEBEBEBEBEBEBEBEBEBEBEBEE2E2E2E2E2E2E2E2E2E2E228C3E2E2E2BEE2E2E2E228E228E2E2E2E2BEE228E2E2E2E2BEE2E2E2E2E2E2E2E2E2E2DCE2E2E2E2E2E2E2E2E2E2E2E2E2E2E2E2DCDCDCDCDCDCDCDCDCDCDCDCDCDCDCDCDCDCDCE2E2E2E2E2
310
E2DCDCE2DCE2E2E2E2E2E2E2E2E2BEE2E2F5E2F5F5F5E2F5E2E2BEE2C3C3C3C3C3C3C3C3C3C3C3C3C3C3C3E2C3C3C3C3C3C3C3C3C3C3C3E2BEE2E2E2E2E2E2E2E2E2E2E2C3C3C3C3C3C3C3C3E2E2E2E2E2E2E2E2E2E2E2E2E2E2E2E2BEE2E2E2E2E2E2E2E2E2E228E2E2E2E2E2BEE2E2E2C3C3C3C3C3C3C3E2BEE2E228E2E2
310
E2BEE2E2E2E2E2E2E2E2E2E2DCE2E2E2E2E2DCE2E2E2E2E2E2E2E2E2E2DCE2E2E2E2DCE2E2E2DCE2DCDCDCE2E2E2E2DCDCDCE2E2E2E2DCDCE2DCE2E2E2E2E2E2E2E2E2BEE2E2F5E2F5F5F5E2F5E2E2BEE2C3C3C3C3C3C3C3C3C3C3C3C3C3C3C3E2C3C3C3C3C3C3C3C3C3C3C3E2BEE2E2E2E2E2E2E2E2E2E2E2C3C3C3C3C3C3
310
C3C3E2E2E2E2E2E2E2E2E2E2E2E2E2E2E2E2BE28282828282828282828282828E2E2E2BEE2E2E2C3C3C3C3C3C3C3E2BEE2E228E2E2E2BEE2E2E2E2E2E2E2E2E2E2DCE2E2E2E2E2DCE2E2DCDCDCE2E2E2E2E2DCE2E2E2DCDCE2E2E2DCDCDCDCDCE2E2E2E2DCDCE2E2DCDCDCDCE2E2DCE2E2E2E2E2E2E2E2E2BEE2E2F5E2F5F5
310
F5E2E2E2E2BEBEBEBEBEBEBEBEBEBEBEBEBEBEBEBEBEBEBEBEBEBEBEBEBEBEBEBEBEBEBEBEBEBEBEBEBEBEBEBEBEBEBEBEBEBEBEBEBEBEBEBEBEBEBEBEBEBEBEBEBEBEBEBEBEBEBEC3C3C3C3C3C3C3C3C3C3C3C3C3E2E2E2BEBEBEBEBEBEBEBEBEBEBEBEBEE2E2E228E2E2BEE2E2E2E2E2E2E2E2E2E2DCDCDCDCDCDCDCDCDC
310
DCDCDCDCDCDCDCDCDCDCDCDCDCDCDCDCDCDCDCDCDCDCDCDCDCDCDCDCDCDCDCDCDCDCDCDCDCE2E2E2E2E2E2E2E2E2BEE2E2E2E2F5F5F5E2E2E2E2BEC3C3C3C3C3E2C3C3C3C3C3E2E2E2E2E2E2E2E2E2E2E2E2E2E2E2E2E2E2BEE2E2E2E2E2E2E2E2E2E2E2E2C3C3E2E2E2E2E2E2E2E2E2E2E2E2E2E2E2E2E2E2E2E2E2BEE2C3
310
C3C3E2C3C3C3C3C3C3C3C3E2E2E2E2E2E2E2E2E2E2E2E2C3C3C3C3C3C3E228E2E2BEE2E2E2E2E2E2E2E2E2E2DCE2E2E2E2E2E2E2E2E2E2E2E2E2E2E2E2DCDCDCDCE2DCDCDCE2DCE2E2E2E2E2E2E2E2DCE2E2E2E2E2E2E2E2E2DCE2E2E2E2E2E2E2E2E2BEE2E2E2E2F5F5F5E2E2E2E2BEE2C3C3C3C3C3C3C3C3C3C3E2E2E2E2
310
E2E2E2E2E2E2E2E2E2E2E2E2E2E2BEE2E2E2E2E2E2E2E2E2E2E2C3C3C3E2E2E2E2E2E2E2E2E2E2E2E2E2E2E2E2E2E2E2E2E2BEC3C3C3C3C3C3C3C3C3C3E2E2E2E2E2E2E2E2E2E2E2E2E2E2E2C3C3C3C3C3C3E22828E2BEE2E2E2E2E2E2E2E2E2E2DCE2E2E2E2E2DCDCDCDCDCDCDCE2E2E2E2DCDCDCDCE2DCDCE2E2DCE2DCDC
310
DCDCDCE2E2DCE2DCDCDCDCDCDCDCE2DCE2E2E2E2E2E2E2E2E2BEE2E2E2E2F5F5F5E2E2E2E2BEBEBEBEBEBEBEBEBEBEBEBEBEBEBEBEBEBEBEBEBEBEBEBEBEBEBEBEBEBEBEBEBEBEBEBEBEBEBEBEBEBEBEBEBEBEBEBEBEBEBEBEBEBEBEBEBEBEBEBEBEBEBEBEBEBEBEC3C3C3C3C3C3C3C3C3C3C3E2E2E2E2E2E2E2E2E2E2E2E2
310
E2E2C3C3C3C3C3C3E2E2E2E2BEE2E2E2E2E2E2E2E2E2E2DCE2E2E2E2E2DCDCDCDCDCDCDCE2E2E2E2DCDCDCDCDCDCDCDCDCDCE2DCDCDCDCDCE2E2DCE2DCDCDCDCDCDCDCE2DCE2E2E2E2E2E2E2E2E2BEE2E2E2E2F5F5F5E2E2E2E2BEE2C3C3C3C3C3C3C3C3C3C3C3C3E2E2E2E2E2E2E2E2E2E2E2E2E2E2E2E2BEE2E2E2E2E2E2
310
E2E2E2E2E2C3C3C3C3E2E2E2E2E2E2E2E2E2E2E2E2E2E2E2E2E2E2E2E2BEC3C3C3C3C3C3C3C3C3C3C3C3C3E2E2E2E2E2E2E2E2E2E2E2E2C3C3C3C3C3C3E2E2E2E2BEE2E2E2E2E2E2E2E2E2E2DCE2E2E2E2E2E2E2E2E2E2E2E2E2E2E2E2DCDCDCDCDCDCDCDCDCDCE2E2E2E2E2E2E2E2DCE2E2E2E2E2E2E2E2E2DCE2E2E2E2E2
310
E2E2E2E2BEE2E2E2E2F5F5F5E2E2E2E2BEC3C3C3C3C3C3C3C3C3C3C3C3C3E2E2E2E2E2E2E2E2E2E2E2E2E2E2E2E2BEE2E2E2E2E2E2E2E2E2E2E2C3C3C3C3E2E2E2E2E2E2E2E2E2E2E2E2E2E2E2E2E2E2E2E2BEC3C3C3C3C3E2C3C3C3C3C3C3E2E2E2E2E2E2E2E2E2E2E2E2E2E2E2E2E2E2E2E2E2E2E2BEE2E2E2E2E2E2E2E2
310
E2E2DCDCDCDCDCDCDCDCDCDCDCDCDCDCDCDCDCDCDCDCDCDCDCDCDCDCDCDCDCDCDCDCDCDCDCDCDCDCDCDCDCDCDCDCDCDCE2E2E2E2E2E2E2E2E2BEE2E2E2E2F5F5F5E2E2E2E2BEBEBEBEBEBEBEBEBEBEBEBEBEBEBEBEBEBEBEBEBEBEBEBEBEBEBEBEBEBEBEBEBEBEBEBEBEBEBEBEBEBEBEBEBEBEBEBEBEBEBEBEBEBEBEBEBEBE
310
BEBEBEBEBEBEBEBEBEE2E2E2E2E2E2E2E2E2E2E2E2E2E2E2E2E2E2E2E2E2E2E2E2E2E2E2E2E2E2E2E2E2E2E2BEE2E2E2E2E2E2E2E2E2E2DCE2E2E2E2DCDCDCDCDCDCDCE2E2E2E2E2DCE2E2E2E2E2E2E2E2E2E2DCDCDCDCDCE2E2E2E2E2E2E2E2E2E2E2E2DCE2E2E2E2E2E2E2E2E2BEE2E2E2E2F5F5F5E2E2E2E2BEC3C3E2C3
310
C3C3C3C3C3C3C3C3E2E2E2E2E2E2E2E2E2E2BEBEBEBEBEE2E2BEE2E2E2E2E2E2E2E2E2E2E2E2E2E2E2E2E2E2E2E2E2E2E2E2E2E2E2E2E2E2E2E2E2E2E2BEE2E2E2E2E2E2E2E2E2E2E2E2E2E2E2E2E2E2E2E2E2E2E2E2E2E2E2E2E2E2E2E2E2E2E2BEE2E2E2E2E2E2E2E2E2E2DCDCDCDCDCDCDCDCDCDCDCDCDCDCDCDCDCDCE2
310
E2E2E2E2E2E2E2E2E2DCDCDCDCDCE2E2E2E2E2E2E2E2E2E2E2E2DCE2E2E2E2E2E2E2E2E2BEE2E2E2E2F5F5F5E2E2E2E2BEC3C3C3C3C3C3C3C3C3C3C3C3E2E2E2E2E2BEBEBEBEBEE2E2E2E2E2E2E2BEE2E2E2E2E2E2E2E2E2E2E2E2E2E2E2E2E2E2E2E2E2E2E2E2E2E2E2E2E2E2E2E2E2E2E2BEC3E2C3C3C3C3C3C3C3C3C3C3
310
C3C3C3C3C3C3C3C3C3C3C3C3C3C3C3C3E2C3C3C3C3C3E2BEE2E2E2E2E2E2E2E2E2E2DCDCDCDCDCDCDCDCDCDCDCDCDCDCDCDCDCDCE2E2E2E2E2E2E2E2E2E2DCDCDCDCDCE2E2E2E2E2E2E2E2E2E2E2E2DCE2E2E2E2E2E2E2E2E2BEE2E2E2E2F5F5F5E2F5E2E2BEC3C3C3C3C3C3C3C3C3C3C3C3BEBEBEBEBEE2E2E2E2E2E2E2E2
310
E2E2E2E2BEE2E2E2E2E2E2E2E2E2E2E2E2E2E2E2E2E2E2E2E2E2E2E2E2E2E2E2E2E2E2E2E2E2E2E2BEC3C3C3C3C3C3C3C3C3C3C3C3C3C3C3C3C3C3C3C3C3C3C3C3C3C3E2C3C3C3C3C3C3C3E2BEE2E2E2E2E2E2E2E2E2E2DCDCDCDCDCDCDCDCDCDCDCDCDCDCDCDCDCDCE2E2E2E2E2E2E2E2E2E2E2E2E2E2E2E2E2E2E2E2E2E2
310
E2E2E2E2E2DCE2E2E2E2E2E2E2E2E2BEE2E2F5E2F5F5F5E2F5E2E2BEE2E2E2E2E2E2E2BEBEBEBEBEE2E2E2E2E2E2C3C3C3C3C3C3C3C3C3C3E2BEE2E2E2E2E2E2E2E2E2E2E2C3C3C3C3C3C3C3E2E2E2E2E2E2E2E2E2E2E2E2E2E2E2E2E2BEC3C3C3C3C3C3C3C3C3C3C3C3C3C3C3C3C3C3C3C3C3E2C3C3C3C3E2C3C3C3C3C3C3
310
C3E2BEE2E2E2E2E2E2E2E2E2E2DCDCDCDCDCDCDCDCDCDCDCDCDCDCDCDCDCDCDCDCDCDCDCDCDCDCDCDCDCDCDCDCDCDCDCDCDCDCDCDCDCDCDCDCDCDCE2E2E2E2E2E2E2E2E2BEE2E2F5E2F5F5F5E2F5E2E2BEE2E2BEBEBEBEBEE2E2E2E2E2E2E2E2E2E2E2C3C3C3C3C3C3C3C3C3C3E2BEE2E2E2E2E2E2E2E2E2E2E2C3C3C3C3C3
310
C3C3E2E2E2E2E2E2E2E2E2E2E2E2E2E2E2E2E2BEE2E2E2E2E2E2E2E2E2E2E2E2E2E2E2E2E2E2E2E2E2E2E2E2E2E2E2E2E2E2E2E2E2E2E2BEE2E2E2E2E2E2E2E2E2E2E2E2E2E2E2E2E2E2E2E2E2E2E2E2E2E2E2E2E2E2E2E2E2E2E2E2E2E2E2E2E2E2E2E2E2E2E2E2E2E2E2E2E2E2E2E2E2E2E2E2E2E2E2E2E2BEE2E2F5E2F5
310
F5F5E2F5E2E2BEBEBEBEBEBEBEBEBEBEBEBEBEBEBEBEBEBEBEBEBEBEBEBEBEBEBEBEBEBEBEBEBEBEBEBEBEBEBEBEBEBEBEBEBEBEBEBEBEBEBEBEBEBEBEBEBEBEBEBEBEBEBEBEBEBEBEBEBEBEBEBEBEBEBEBEBEBEBEBEBEBEBEBEBEBEBEBEBEBEBEBEBEBEBEBEBEBEBEBEBEBEBEBEBEBEBEBEBEBEBEBEBEBEBEBEBEBEBEBEBE
310
BEBEBEBEBEBEBEBEBEBEBEBEBEBEBEBEBEBEBEBEBEBEBEBEBEBEBEBEBEBEBEBEBEBEBEBEBEBEBEBEBEBEBEBEBEBEBEBEE2E2F5E2F5F5F5E2F5E2E2BEE2E2E2E2E2E2E2E2E2E2E2E2E2E2E2E2E2E2E2E2E2E2E2E2E2E2E2E2E2E2E2E2E2E2E2E2E2E2E2E2E2E2E2E2E2E2E2E2E2E2E2E2E2E2E2E2E2E2E2E2E2E2E2E2E2E2E2
310
E2E2E2E2E2E2E2E2E2E2E2E2E2E2E2E2E2E2E2E2E2E2E2E2E2E2E2E2E2E2E2E2E2E2E2E2E2E2E2E2E2E2E2E2E2E2E2E2E2E2E2E2E2E2E2E2E2E2E2E2E2E2E2E2E2E2E2E2E2E2E2E2E2E2E2E2E2E2E2E2E2E2E2E2E2E2E2E2E2E2E2E2E2E2E2E2E2E2E2E2BEE2E2F5E2F5F5F5E2F5E2E2BEE2E2E2E2E2E2E2E2E2E2E2E2E2E2
310
E2E2E2E2E2E2E2E2E2E2E2E2E2E2E2E2E2E2E2E2E2E2E2E2E2E2E2E2E2E2E2E2E2E2E2E2E2E2E2E2E2E2E2E2E2E2E2E2E2E2E2E2E2E2E2E2E2E2E2E2E2E2E2E2E2E2E2E2E2E2E2E2E2E2E2E2E2E2E2E2E2E2E2E2E2E2E2E2E2E2E2E2E2E2E2E2E2E2E2E2E2E2E2E2E2E2E2E2E2E2E2E2E2E2E2E2E2E2E2E2E2E2E2E2E2E2E2
310
E2E2E2E2E2E2E2E2E2E2E2E2E2E2E2E2E2E2E2E2E2E2E2E2E2E2BEE2E2F5E2F5F5F5E2F5E2E2BEE2E2E2E2E2E2E2E2E2E2E2E2E2E2E2E2E2E2E2E2E2E2E2E2E2E2E2E2E2E2E2E2E2E2E2E2E2E2E2E2E2E2E2E2E2E2E2E2E2E2E2E2E2E2E2E2E2E2E2E2E2E2E2E2E2E2E2E2E2E2E2E2E2E2E2E2E2E2E2E2E2E2E2E2E2E2E2E2
310
E2E2E2E2E2E2E2E2E2E2E2E2E2E2E2E2E2E2E2E2E2E2E2E2E2E2E2E2E2E2E2E2E2E2E2E2E2E2E2E2E2E2E2E2E2E2E2E2E2E2E2E2E2E2E2E2E2E2E2E2E2E2E2E2E2E2E2E2E2E2E2E2E2E2E2E2E2E2E2BEE2E2F5E2F5F5F5E2F5E2E2BEE2E2E2E2E2E2E2E2E2E2E2E2E2E2E2E2E2E2E2E2E2E2E2E2E2E2E2E2E2E2E2E2E2E2E2
310
E2E2E2E2E2E2E2E2E2E2E2E2E2E2E2E2E2E2E2E2E2E2E2E2E2E228C3C3C3C3C3C3C3C3C3C3C3C3C3C3C3C3C328282828E2E2E2E2E2E2E2E2E2E2E2E2E2E2E2E2E2E2E2E2E2E2E2E2E2E2E2E2E2E2E2E2E2E2E2E2E2E2E2E2E2E2E2E2E2E2E2E2E2E2E2E2E2E2E2E2E2E2E2E2E2E2E2E2E2E2E2E2E2E2E2E2E2E2E2E2E2E2E2
310
E2E2E2E2E2BEE2E2F5E2F5F5F5E2F5E2E2BEE2E2E2E2E2E2E2E2E2E2E2E2E2E2E2E2E2E2E2E2E2E2E2E2E2E2E2E2E2E2E2E2E2E2E2E2E2E2E2E2E2E2E2E2E2E2E2E2E2E2E2E2E2E2E2E2E2E2E2E2E2E2C3C3C3C3C3C3C3C3C3C3C3C3C3C3C3C3C3E2E2E2E228E2E2E2E2E2E2E2E2E2E2E2E2E2E2E2E2E2E2E2E2E2E2E2E2E2
310
E2E2E2E2E2E2E2E2E2E2E2E2E2E2E2E2E2E2E2E2E2E2E2E2E2E2E2E2E2E2E2E2E2E2E2E2E2E2E2E2E2E2E2E2E2E2E2E2E2E2E2E2E2E2E2E2E2E2BEE2E2F5E2F5F5F5E2F5E2E2BEE2E2E2E2E2E2E2E2E2E2E2E2E2E2E2E2E2E2E2E2E2E2E2E2E2E2E2E2E2E2E2E2E2E2E2E2E2E2E2E2E2E2E2E2E2E2E2E2E2E2E2E2E2E2E2E2
310
E2E2E2E2E2E2C3C3C3C3C3C3C3C3C3C3C3C3C3C3C3C3C3C3C3E2E2E228E2E2E2E2E2E2E2E2E2E2E2E2E2E2E2E2E2E2E2E2E2E2E2E2E2E2E2E2E2E2E2E2E2E2E2E2E2E2E2E2E2E2E2E2E2E2E2E2E2E2E2E2E2E2E2E2E2E2E2E2E2E2E2E2E2E2E2E2E2E2E2E2E2E2E2E2E2E2E2E2E2E2BEE2E2F5E2F5F5F5E2F5E2E2BEE2E2E2
310
E2E2E2E2E2E2E2E2E2E2E2E2E2E2E2E2E2E2E2E2E2E2E2E2E2E2E2E2E2E2E2E2E2E2E2E2E2E2E2E2E2E2E2E2E2E2E2E2E2E2E2E2E2E2E2E2E2E2E2C3C3C3C3C3C3C3C3C3C3C3C3C3C3C3C3C3C3C3E2E2E228E2E2E2E2E2E2E2E2E2E2E2E2E2E2E2E2E2E2E2E2E2E2E2E2E2E2E2E2E2E2E2E2E2E2E2E2E2E2E2E2E2E2E2E2E2
310
E2E2E2E2E2E2E2E2E2E2E2E2E2E2E2E2E2E2E2E2E2E2E2E2E2E2E2E2E2E2E2E2E2E2E2E2E2BEE2E2F5E2F5F5F5E2F5E2E2BEE2E2E2E2E2E2E2E2E2E2E2E2E2E2E2E2E2E2E2E2E2E2E2E2E2E2E2E2E2E2E2E2E2E2E2E2E2E2E2E2E2E2E2E2E2E2E2E2E2E2E2E2E2E2E2E2E2E2E2E2E2E2E2E2E2E2E2E2E2E2E2E2E2E2E2E2E2
310
E2E2E2E2E2E2E2E2BEBEBEE2E2E2E2E2E2E2E2E2E2E2E2E2E2E2E2E2E2E2E2E2E2E2E2E2E2E2E2E2E2E2E2E2E2E2E2E2E2E2E2E2E2E2E2E2E2E2E2E2E2E2E2E2E2E2E2E2E2E2E2E2E2E2E2E2E2E2E2E2E2E2E2E2E2E2E2E2E2E2BEE2E2F5E2F5F5F5E2F5E2E2BEE2E2E2E2E2E2E2E2E2E2E2E2E2E2E2E2E2E2E2E2E2E2E2E2
310
E2E2E2E2E2E2E2E2E2E2E2E2E2E2E2E2E2E2E2E2E2E2E2E2E2E2E2E2E2E2E2E2E2E2E2E2E2E2E2E2E2E2E2E2E2E2E2E2E2E2E2E2E2E2E2E2E2E2E2E2E2BE28BEE2E2E2E2E2E2E2E2E2E2E2E2E2E2E2E2E2E2E2E2E2E2E2E2E2E2E2E2E2E2E2E2E2E2E2E2E2E2E2E2E2E2E2E2E2E2E2E2E2E2E2E2E2E2E2E2E2E2E2E2E2E2E2
310
E2E2E2E2E2E2E2E2E2E2E2E2E2E2E2E2BEE2E2F5E2F5F5F5E2F5E2E2BEE2E2E2E2E2E2E2E2E2E2E2E2E2E2E2E2E2E2E2E2E2E2E2E2E2E2E2E2E2E2E2E2E2E2E2E2E2E2E2E2E2E2E2E2E2E2E2E2E2E2E2E2E2E2E2E2E2E2E2E2E2E2E2E2E2E2E2E2E22828282828282828282828282828E2E2BEBEBEE2E2E2E2E2E2E2E2E2E2
310
E2E2E2E2E2E2E2E2E2E2E2E2E2E2E2E2E2E2E2E2E2E2E2E2E2E2E2E2E2E2E2E2E2E2E2E2E2E2E2E2E2E2E2E2E2E2E2E2E2E2E2E2E2E2E2E2E2E2E2E2E2E2E2E2E2E2E2E2E2BEE2E2F5E2F5F5F5E2F5E2E2BEE2E2E2E2E2E2E2E2E2E2E2E2E2E2E2E2E2E2E2E2E2E2E2E2E2E2E2E2E2E2E2E2E2E2E2E2E2E2E2E2E2E2E2E2E2
310
E2E2E2E2E2E2E2E2E2E2E2E2E2E2E2E2E2E2E2E2E2E2E2E2E2C3C3C3C3C3C3C3C3C3E2E2E2E228E2BEBEE2E2E2E2E2E2E2E2E2E2E2E2E2E2E2E2E2E2E2E2E2E2E2E2E2E2E2E2E2E2E2E2E2E2E2E2E2E2E2E2E2E2E2E2E2E2E2E2E2E2E2E2E2E2E2E2E2E2E2E2E2E2E2E2E2E2E2E2E2E2E2E2E2E2E2E2E2E2E2E2BEE2E2F5E2
310
F5F5F5E2F5E2E2BEE2E2E2E2E2E2E2E2E2E2E2E2E2E2E2E2E2E2E2E2E2E2E2E2E2E2E2E2E2E2E2E2E2E2E2E2E2E2E2E2E2E2E2E2E2E2E2E2E2E2E2E2E2E2E2E2E2E2E2C3C328E2E2E2E2E2E2E2E2C3C3C3C3C3C3C3C3C3E2E2E2E228E2BEBEE2E2E2E2E2E2E2E2E2E2E2E2E2E2E2E2E2E2E2E2E2E2E2E2E2E2E2E2E2E2E2E2
310
E2E2E2E2E2E2E2E2E2E2E2E2E2E2E2E2E2E2E2E2E2E2E2E2E2E2E2E2E2E2E2E2E2E2E2E2E2E2E2E2E2E2E2E2E2E2E2E2BEE2E2F5E2F5F5F5E2E2E2E2BEE2E2E2E2E2E2E2E2E2E2E2E2E2E2E2E2E2E2E2E2E2E2E2E2E2E2E2E2E2E2C3C3C3C3C3C3C3C3C3C3E2E2E2E2E2E2E2E2E2E2E2E2E2E2E2E2E2E2E2C3C328E2E228E2
310
E2E2E2E2C3C3C3C3C3C3C3C3C3C3C3E2E2E228BEBEBEE2E2E2E2E2E2E2E2E2E2E2E2E2E2E2E2E2E2E2E2E2E2E2E2E2E2E2E2E2E2E2E2E2E2E2E2E2E2E2E2E2E2E2E2E2E2E2E2E2E2E2E2E2E2E2E2E2E2E2E2E2E2E2E2E2E2E2E2E2E2E2E2E2E2E2E2E2E2E2BEE2E2E2E2F5F5F5E2E2E2E2BEE2E2E2E2E2E2E2E2E2E2E2E2E2
310
E2E2E2E2E2E2E2E2E2E2E2E2E2E2E2E2E2C3C3C3C3C3C3C3C3C3C3E2E2E2E2E2E2E2E2E2E2E2E2E2E2E2E2E2E2E2C3C328C3C328E2E2E2E2E2C3C3C3C3C3C3C3C3C3C3C3E2E2E228BEBEE2E2E2E2E2E2C3C3C3C3C3C3C3C3C3E2E2E2E2E2E2E2E2E2E2E2E2E2E2E2E2E2E2E2E2E2E2E2E2E2E2E2E2E2E2E2E2E2E2E2E2E2E2
310
E2E2E2E2E2E2E2E2E2E2E2E2E2E2E2E2E2E2E2E2E2E2E2E2E2E2E2BEE2E2E2E2F5F5F5E2E2E2E2BEE2E2E2E2E2E2E2E2E2E2E2E2E2E2E2E2E2E2E2E2E2E2E2E2E2E2E2E2E22828282828282828282828BEBEBEE2E2E2E2E2E2E2E2E2E2E2E2E2E2E2E2C3C328C3C328E2E2E2E2E2E2E2E2E2E2E2E2E2E2E2E2E2E2E2E228BE
310
E2E2E2E2E2E2C3C3C3C3C3C3C3C3C3E2E2E2E2E2E2E2E2E2E2E2E2E2E2E2E2BEBEE2E2E2E2E2E2E2E2E2E2E2E2E2E2E2E2E2E2E2E2E2E2E2E2E2E2E2E2E2E2E2E2E2E2E2E2E2E2E2E2E2E2E2E2E2E2E2BEE2E2E2E2F5F5F5E2E2E2E2BEE2E2E2E2E2E2E2E2E2E2E2E2E2E2E2E2E2E2E2E2E2E2E2E2E2E2E2E2E2E22828E2E2
310
E2E2E2E2E2E2E2BEBEBEE2E2E2E2E2E2E2E2E2E2E2E2E2E2E2E2C3C3C3C328E2E2E2E2E2E2E2E2E2E2E2E2E2E2E2E2E2E2E2E2BE28E2E2E2E2E2E2C3C3C3C3C3C3C3C3C3C3C3C3C3C3E2E2E2E2E2E2E2E2E2E2E2BEBEBEE2E2E2E2E2E2E2E2E2E2E2E2E2E2E2E2E2E2E2E2E2E2E2E2E2E2E2E2E2E2E2E2E2E2E2E2E2E2E2E2
310
E2E2E2E2E2E2BEE2E2E2E2F5F5F5E2E2E2E2BEE2E2E2E2E2E2E2E2E2E2E2E2E2E2E2E2E2E2E2E2E2E2E2E2E2E2E2E2E2E2E2E228E2E2E2E2E2E2E2E2BEBEE2E2E2E2E2E2E2E2E2E2E2E2E2E2E2E2E2C328E2C328E2E2E2E2E2E2E2E2E2E2E2E2E2E2E2E2E2E2E2E2BEBEE2E2E2E2E2E2C3C3C3C3C3C3C3C3C3C3C3C3C3C328
310
282828E2E2E2E2E2E2E2BEBEE2E2E2E2E2E2E2E2E2E2E2E2E2E2E2E2E2E2E2E2E2E2E2E2E2E2E2E2E2E2E2E2E2E2E2E2E2E2E2E2E2E2E2E2E2E2E2BEE2E2E2E2F5F5F5E2E2E2E2BEE2E2E2E2E2E2E2E2E2E2E2E2E2E2E2E2E2E2E2E2E2E2E2E2E2E2E2E2E2E2E2E2E22828BEBEBEBEBEBEECBEBEBEBEBEBEE2E2E2E2E2E2E2
310
E2E2E2E2E2C328E2C328282828282828282828E2BEBEBEBEBEBEBEBEBEBEBEBEBEE2E2E2E2E2C3C3C3C3C3C3C3C3C3C3C3E2E2E2E2E2E2E228E2BEBEBEBEBEBEBEBEBEBEBEBEBEE2E2E2E2E2E2E2E2E2E2E2E2E2E2E2E2E2E2E2E2E2E2E2E2E2E2E2E2E2E2E2E2E2E2E2E2E2E2E2E2E2BEE2E2E2E2F5F5F5E2E2E2E2BEE2E2
310
E2E2E2E2E2E2E2E2E2E2E2E2E2E2E2E2E2E2E2E2E2E2E2E2E2E2E2E2E2E2E2E2BEBEECE2E2E2E2ECE2E2E2E2BEECBEBEE2E2E2E2E2E2E2E2E2E2E228E2E22828C3C3C3C3C3C3C32828BEBEBEBEBEBEBEBEBEBEBEBEBEE2E2E2E2E2C3C3C3C3C3C3C3C3C3C3C3E2E2E2E2E2E2E2BEBEECBEE2E2E2E2ECE2E2E2E2ECBEBEE2E2
310
E2E2E2E2E2E2E2E2E2E2E2E2E2E2E2E2E2E2E2E2E2E2E2E2E2E2E2E2E2E2E2E2E2E2E2E2E2E2BEE2E2E2E2F5F5F5E2E2E2E2BEE2E2E2E2E2E2E2E2E2E2E2E2E2E2E2E2E2E2E2E2E2E2E2E2E2E2E2E2E2E2E2E2E2E2BEBEECE2E2E2E2ECE2E2E2E2BEECBEBEE2E2E2E2E2E2E2E2E2E2E228E2E22828C3E228E2E228E22828BE
310
E2E2E2E2BEE2E2BEE2E2E2BEE2E2E2E2E2C3C3C3C3C3C3C3C3C3E2E2E2E2E2E2E2E2E2BEECECECE2E2E2E2ECE2E2E2ECECECBEE2E2E2E2E2E2E2E2E2E2E2E2E2E2E2E2E2E2E2E2E2E2E2E2E2E2E2E2E2E2E2E2E2E2E2E2E2E2E2E2BEE2E2E2E2F5F5F5E2F5E2E2BEE2E2E2E2E2E2E2E2E2E2E2E2E2E2E2E2E2E2E2E2E2E2E2
310
E2E2E2E2E2E2E2E2E2E2E2BEE2ECE2E2E2E2ECE2E2E2E2E2ECE2BEE2E2E2E2E2E2E2E2E2E2E228E2E228282828282828282828E2BEE2E2E2E2BEBEBEBEE2E2E2BEE2E2E2E22828E2E2E2E2E2E2E2E2E2E2E2E2E2E2E2E2E2BEBEECBEE2E2E2E2ECE2E2E2E2ECBEBEE2E2E2E2E2E2E2E2E2E2E2E2E2E2E2E2E2E2E2E2E2E2E2
310
E2E2E2E2E2E2E2E2E2E2E2E2E2E2E2E2E2BEE2E2F5E2F5F5F5E2F5E2E2BEE2E2E2E2E2E2E2E2E2E2E2E2E2E2E2E2E2E2E2E2E2E2E2E2E2E2E2E2E2E2E2E2E2E2BEE2E2E2E2BEBEBEBEBEE2E2E2E2E2BEE2E2E2E2E2E2E2E2E2E2E228282828282828282828282828BEBEE2E2E2E2BEE2E2BEE2E2E2BEE2E2E228E2E2E2E2E2
310
E2E2E2E2E2E2E2E2E2E2E2E2E2E2BEE228E2E2E2E2ECECECE2E2E2E2E2BEE2E2E2E2E2E2E2E2E2E2E2E2E2E2E2E2E2E2E2E2E2E2E2E2E2E2E2E2E2E2E2E2E2E2E2E2E2E2E2E2BEE2E2F5E2F5F5F5E2F5E2E2BEE2E2E2E2E2E2E2E2E2E2E2E2E2E2E2E2E2E2E2E2E2E2E2E2E2E2E2E2E2E2E2E2E2E2BEE2E2E2E2BEE2ECE2E2
310
BEE2E2E2E2BEE2E2E2E2E2E2E2E2E2E2E22828E228E2E2E2E2E2E2E2E2E2BEBEE2E2E2BEBEE2E2BEE2E2E2BEE2E2E228E2E2E2E228E2E2E2E2E2E2E2E2E2E2E2E2E2E2BEE2E228E2E2ECE2ECECE2E2E2E2E2BEE2E2E2E2E2E2E2E2E2E2E2E2E2E2E2E2E2E2E2E2E2E2E2E2E2E2E2E2E2E2E2E2E2E2E2E2E2E2E2E2BEE2E2F5
310
E2F5F5F5E2F5E2E2BEE2E2E2E2E2E2E2E2E2E2E2E2E2E2E2E2E2E2E2E2E2E2E2E2E2E2E2E2E2E2E2E2E2E2BEE2E2E2BEE2E2ECE2E2E2BEE2E2E2BEE2E2E2E2E2E2E2E2E2E2E228E2E228E2E2E2E2E2E2E2E2E2BEBEE2E2E2BEE2E2E2BEE2E2E2BEE2E228E2E2E2E2E228E2E2E2E2E2E2E2E2E2E2E2E2E2E2BEE2E2E228ECE2
310
E2ECE2ECECE2E2E2BEE2E2E2E2E2E2E2E2E2E2E2E2E2E2E2E2E2E2E2E2E2E2E2E2E2E2E2E2E2E2E2E2E2E2E2E2E2E2E2E2BEE2E2F5E2F5F5F5E2F5E2E2BEE2E2E2E2E2E2E2E2E2E2E2E2E2E2E2E2E2E2E2E2E2E2E2E2E2E2E2E2E2E2E2E2E2E2BEE2E2E2BEE2E2BEBEE2E2BEE2E2E2BEE2E2E2E2E2E2E2E2E2E2E228E2E228
310
28BEBEBEBEBEBEBEBEBEBEE2E2E2BEE2E2E2BEE2E2E2BEBEBE28BEBE28282828E2E2E2E2E2E2E2E2E2E2E2E2E2E2BEE2E2E2BEE2E2BEBEE2E2BEE2E2E2BEE2E2E2E2E2E2E2E2E2E2E2E2E2E2E2E2E2E2E2E2E2E2E2E2E2E2E2E2E2E2E2E2E2E2E2E2E2E2E2E2BEE2E2F5E2F5F5F5E2F5E2E2BEE2E2E2E2E2E2E2E2E2E2E2E2
310
E2E2E2E2E2E2E2E2E2E2E2E2E2E2E2E2E2E2E2E2E2E2BEECECBEECECBEBEBEECECBEECECECBEE2E2E2E2E2E2E2E2E2E2E228E2E228E2BEECECECECECECECBEBEECECECBEECECECBEECECECBEECEC28ECBEECE2E228E2E2E2E2E2E2E2E2E2E2E2E2E2E2BEECECECBEBEECBEBEBEECBE28ECECBEECE2E2E2E2E2E2E2E2E2E2E2
310
E2E2E2E2E2E2E2E2E2E2E2E2E2E2E2E2E2E2E2E2E2E2E2E2E2E2E2E2BEE2E2F5E2F5F5F5E2F5E2E2BEE2E2E2E2E2E2E2E2E2E2E2E2E2E2E2E2E2E2E2E2E2E2E2E2E2E2E2E2E2E2E2E2E2E2BEE2E2E2BEE2E2BEE2E2E2BEE2E2E2BEE2E2E2E2E2E2E2E2E2E2E228E2E22828BEBEBEBEBE2828BEBEBEE2E2E2BEE2E2E2BEE2E2
310
E2BEBEBEBEBEBE28282828E2E2E2E2E2E2E2E2E2E2E2E2E2E2BEE2E2E228ECE2E2BEE2E2EC28E2E2BEE2E2E2E2E2E2E2E2E2E2E2E2E2E2E2E2E2E2E2E2E2E2E2E2E2E2E2E2E2E2E2E2E2E2E2E2E2E2E2E2BEE2E2F5E2F5F5F5E2F5E2E2BEE2E2E2E2E2E2E2E2E2E2E2E2E2E2E2E2E2E2E2E2E2E2E2E2E2E2E2E2E2E2E2E2E2
310
E2BEE2E2E2BEE2E2ECE2E2E2BEE2E2E2BEE2E2E2E2E2E2E2E2E2E2E228E2E228E228E2E2E2E2E228E2BEBEE2E2E2BEBEE2E2BEE2E2E2BEE2E2E2E228E2E2E228E2E2E2E2E2E2E2E2E2E2E2E2E2E2BEE2E2E228ECECE2ECE2EC2828E2E2BEE2E2E2E2E2E2E2E2E2E2E2E2E2E2E2E2E2E2E2E2E2E2E2E2E2E2E2E2E2E2E2E2E2
310
E2E2E2E2E2E2E2BEE2E2F5E2F5F5F5E2F5E2E2BEE2E2E2E2E2E2E2E2E2E2E2E2E2E2E2E2E2E2E2E2E2E2E2E2E2E2E2E2E2E2E2E2E2E2BEE2E2E2E2BEE2ECE2BEBEE2E2E2E2BEE2E2E2E2E2E2E2E2E2E2E22828E228E228E2E2E2E2E228E2BEBEE2E2E2E2BEE2E2BEE2E2E2BEE2E2E2E228E2E2E228E2E2E2E2E2E2E2E2E2E2
310
E2E2E2E2BEE2E2E228E2ECECECECE228E228E2BEE2E2E2E2E2E2E2E2E2E2E2E2E2E2E2E2E2E2E2E2E2E2E2E2E2E2E2E2E2E2E2E2E2E2E2E2E2E2E2E2BEE2E2F5E2F5F5F5E2F5E2E2BEE2E2E2E2E2E2E2E2E2E2E2E2E2E2E2E2E2E2E2E2E2E2E2E2E2E2E2E2E2E2E2E2E2E2BEE2ECE2E2E2BEBEBEE2E2E2E2ECE2BEE2E2E2E2
310
E2E2E2E2E2282828282828282828282828282828BEBEE2E2E2E2BEE2E2BEE2E2E2BEE2E2E2E228E2E2E228E2E2E2E2E2E2E2E2E2E2E2E2E2E2BEE2ECE228E2E2E2ECE2E228E2EC28BEE2E2E2E2E2E2E2E2E2E2E2E2E2E2E2E2E2E2E2E2E2E2E2E2E2E2E2E2E2E2E2E2E2E2E2E2E2E2E2E2BEE2E2F5E2F5F5F5E2F5E2E2BEE2
310
E2E2E2E2E2E2E2E2E2E2E2E2E2E2E2E2E2E2E2E2E2E2E2E2E2E2E2E2E2E2E2E2E2BEECECE2E2E2E2ECE2E2E2E2ECECECBEE2E2E2E2E2E2E2E2E228C328E2E228E228E2E2E2E228C32828BEE2E2E2E2BEBEBEBEE2E2E2BEE2E2E2E228E2C3E228E2E2E2E2E2E2E2E2E2E2E2E2E2E2BEECECEC28E2E2E2ECE2E228ECECECBEE2
310
E2E2E2E2E2E2E2E2E2E2E2E2E2E2E2E2E2E2E2E2E2E2E2E2E2E2E2E2E2E2E2E2E2E2E2E2E2E2E2BEE2E2F5E2F5F5F5E2F5E2E2BEE2E2E2E2E2E2E2E2E2E2E2E2E2E2E2E2E2E2E2E2E2E2E2E2E2E2E2E2E2E2E2E2E2E228BE28E2E2E2E2ECE2E2E2E2BE28E2BEE2E2E2E2E2E2E2E2E228C328E2E228E228E2E2E2E228E22828
310
BEBEBEBEBEBEBEBEBEBEBEBEBEE2E2E2E228E2C3E228E2E2E2E2E2E2E2E2E2E2E2E2E2E2BEBEECBE28E2E2E2ECE2E228E2ECBEBEE2E2E2E2E2E2E2E2E2E2E2E2E2E2E2E2E2E2E2E2E2E2E2E2E2E2E2E2E2E2E2E2E2E2E2E2E2E2E2E2BEE2E2F5E2F5F5F5E2F5E2E2BEE2E2E2E2E2E2E2E2E2E2E2E2E2E2E2E2E2E2E2E2E2E2
310
E2E2E2E2E2E2E2E2E2E2E2E228BEBEBEBEBEBEBEBEBEBEBEBEBEBE28E2E2E2E2E2E2E2E2E228C328282828E228E2E2E2E228282828BEBEBEBEBEBEBEBEBEBEBEBEBEE2E2E2E228C3C3C328E2E2E2E2E2E2E2E2E2E2E2E2E2E2E2BEBEBEBEBEBEBEBEBEBEBEBEBEBE28E2E2E2E2E2E2E2E2E2E2E2E2E2E2E2E2E2E2E2E2E2E2
310
E2E2E2E2E2E2E2E2E2E2E2E2E2E2E2E2E2E2BEE2E2F5E2F5F5F5E2F5E2E2BEE2E2E2E2E2E2E2E2E2E2E2E2E2E2E2E2E2E2E2E2E2E2E2E2E2E2E2E2E2E2E2E2E2E228E228E2E2E2E2E2E2E2E2E2E228E228E2E2E2E2E2E2E2E2E228C32828C328E228E2E2E2E2C3E2E22828E2E2E2E2E2E2E2E2E2E2E228E2E2E2E228E2C3C3
310
28E2E2E2E2E2E2E2E2E2E2E2E2E2E2E2E2E2E228E2E2E2E2E2E228E2E2E22828E2E2E2E2E2E2E2E2E2E2E2E2E2E2E2E2E2E2E2E2E2E2E2E2E2E2E2E2E2E2E2E2E2E2E2E2E2E2E2BEE2E2F5E2F5F5F5E2F5E2E2BEE2E2E2E2E2E2E2E2E2E2E2E2E2E2E2E2E2E2E2E2E2E2E2E2E2E2E2E2E2E2E2E2E2E228E22828C3C3C3C3C3
310
2828282828E228E2E2E2E2E2E2E2E2E228C32828C328E228E2E2E228C3282828282828E2E2E2E2E2E2E2E2E228E2E2E2E228E2C3C328E2E2E2E2E2E2E2E2E2E2E2E2E2E2E2E2E2E22828C3C3C3C32828E2E2E2E2C3C3C3C3C32828E2E2E2E2E2E2E2E2E2E2E2E2E2E2E2E2E2E2E2E2E2E2E2E2E2E2E2E2E2E2E2E2E2BEE2E2
310
F5E2F5F5F5E2F5E2E2BEE2E2E2E2E2E2E2E2E2E2E2E2E2E2E2E2E2E2E2E2E2E2E2E2E2E2E2E2E2E2E2E2E2E228E2E2E2C3C3C3E2E2E2E2E2E2E2E228E2E2E2E2E2E2E2E2E228C32828C328E228E2E2E2E2C3E2E2E228E2E2E2E2E2E2E2E2E2E2E228E2E2E2E228E2C3C328E2E2E2E2E2E2E2E2E2E2E2E2E2E2E2E2E2E2E2E2
310
C3C3C3C3E2E2E2E2E2E2E2E2E2E2E2E2E2E2E2E2E2E2E2E2E2E2E2E2E2E2E2E2E2E2E2E2E2E2E2E2E2E2E2E2E2E2E2E2E2E2BEE2E2F5E2F5F5F5E2E2E2E2BEE2E2E2E2E2E2E2E2E2E2E2E2E2E2E2E2E2E2E2E2E2E2E2E2E2E2E2E2E2E2E2E2E2E22828282828C3C3C3C328282828282828E2E2E2E2E2E2E2E2E228C32828C3
310
28E22828C3C3C3C328282828282828C3C3C3C3C328282828C3C3C3C328E2E2E228E2E2E2E2E2E2E2E2E2E2E2E2E2E2E2E2E2E2E2E2E2E2E2E2E2E2E2E2E2E2E2E2E2E2E2E2E2E2E2E2E2E2E2E2E2E2E2E2E2E2E2E2E2E2E2E2E2E2E2E2E2E2E2E2E2E2E2E2E2E2BEE2E2E2E2F5F5F5E2E2E2E2BEE2E2E2E2E2E2E2E2E2E2E2
310
E2E2E2E2E2E2E2E2E2E2E2E2E2E2E2E2E2E2E2E2E2E2E2E2E2E2E2E2C3C3C3C3E2E2E2E2E2E2E2E2E2E2E2E2E2E2E2E228C32828C328E2E2E2C3C3C3C3E2E2E2E2E2E2E2C3C3C3C3C3E2E2E2C3C3C3C3C3E2E2E2E2E2E2E2E2E2E2E2E2E2E2E2E2E2E2E2E2E2E2E2E2E2E2E2E2E2E2E2E2E2E2E2E2E2E2E2E2E2E2E2E2E2E2
310
E2E2E2E2E2E2E2E2E2E2E2E2E2E2E2E2E2E2E2E2E2E2E2E2E2E2E2E2E2BEE2E2E2E2F5F5F5E2E2E2E2BEE2E2E2E2E2E2E2E2E2E2E2E2E2E2E2E2E2E2E2E2E2E2E2E2E2E2E2E2E2E2E2E2E2E2E2E2E2E2E2C3C3E2E2E2E2E2E2E2E2E2E2E2E2E2E2E2E2E2E228E22828E228E2E2E2E2E2E2E2E2E2E2E2E2E2E2E2E2E2E2E2E2
310
E2E2E2E2E2E2E2E2E2E2E2E2E2E2E2E2E2E2E2E2E2E2E2E2E2E2E2E2E2E2E2E2E2E2E2E2E2E2E2E2E2E2E2E2E2E2E2E2E2E2E2E2E2E2E2E2E2E2E2E2E2E2E2E2E2E2E2E2E2E2E2E2E2E2E2E2E2E2E2E2E2E2BEE2E2E2E2F5F5F5E2E2E2E2BEE2E2E2E2E2E2E2E2E2E2E2E2E2E2E2E2E2E2E2E2E2E2E2E2E2E2E2E2E2E2E2E2
310
E2E2E2E2E2E2E2E2E2E2E2E2E2E2E2E2E2E2E2E2E2E2E2E2E2E2E2282828282828E2E2E2E2E2E2E2E2E2E2E2E2E2E2E2E2E2E2E2E2E2E2E2E2E2E2E2E2E2E2E2E2E2E2E2E2E2E2E2E2E2E2E2E2E2E2E2E2E2E2E2E2E2E2E2E2E2E2E2E2E2E2E2E2E2E2E2E2E2E2E2E2E2E2E2E2E2E2E2E2E2E2E2E2E2E2E2E2E2E2E2E2E2E2
310
E2E2E2E2E2E2E2E2BEE2E2E2E2F5F5F5E2E2E2E2BEE2E2E2E2E2E2E2E2E2E2E2E2E2E2E2E2E2E2E2E2E2E2E2E2E2E2E2E2E2E2E2E228282828282828282828282828282828282828E2E2E2E2E2E2E2E2E2E2E2E2E2E2E2E2E2E2E2E2E2E2E2E2E2E22828282828282828E2E2E2E2E2E2E2E2E2E2E2E2E2E2E2E2E2E2E2E2E2
310
E2E2E2E2E2E2E2E2E22828282828282828E2E2E2E2E2E2E2E2E2E2E2E2E2E2E2E2E2E2E2E2E2E2E2E2E2E2E2E2E2E2E2E2E2E2E2E2E2E2E2E2E2E2E2E2BEE2E2E2E2F5F5F5E2E2E2E2BEE2E2E2E2E2E2E2E2E2E2E2E2E2E2E2E2E2E2E2E2E2E2E2E2E2E2E2E2E2E2E2E228282828282828282828282828282828282828E2E2
310
E2E2E2E2E2E2E2E2E2E2E2E2E2E2E2E2E2E2E2E2E2E2E2E22828282828282828E2E2E2E2E2E2E2E2E2E2E2E2E2E2E2E2E2E2E2E2E2E2E2E2E2E2E2E2E2E22828282828282828E2E2E2E2E2E2E2E2E2E2E2E2E2E2E2E2E2E2E2E2E2E2E2E2E2E2E2E2E2E2E2E2E2E2E2E2E2E2E2E2E2E2E2E2BEE2E2E2E2F5F5F5E2E2E2E2BE
310
E2E2E2E2E2E2E2E2E2E2E2E2E2E2E2E2E2E2E2E2E2E2E2E2E2E2E2E2E2E2E2E2E2E2E2E2E2E2E2E2E2E2E2E2E2E2E2E2E2E2E2E2E2E2E2E2E2E2E2E2E2E2E2E2E2E2E2E2E2E2E2E2E2E2E2E2E2E2E2E2E2E2E2E2E2E2E2E2E2E2E2E2E2E2E2E2E2E2E2E2E2E2E2E2E2E2E2E2E2E2E2E2E2E2E2E2E2E2E2E2E2E2E2E2E2E2E2
310
E2E2E2E2E2E2E2E2E2E2E2E2E2E2E2E2E2E2E2E2E2E2E2E2E2E2E2E2E2E2E2E2E2E2E2E2E2E2E2E2BEE2E2E2E2F5F5F5E2E2E2E2BEE2E2E2E2E2E2E2E2E2E2E2E2E2E2E2E2E2E2E2E2E2E2E2E2E2E2E2E2E2E2E2E2E2E2E2E2E2E2E2E2E2E2E2E2E2E2E2E2E2E2E2E2E2E2E2E2E2E2E2E2E2E2E2E2E2E2E2E2E2E2E2E2E2E2
310
E2E2E2E2E2E2E2E2E2E2E2E2E2E2E2E2E2E2E2E2E2E2E2E2E2E2E2E2E2E2E2E2E2E2E2E2E2E2E2E2E2E2E2E2E2E2E2E2E2E2E2E2E2E2E2E2E2E2E2E2E2E2E2E2E2E2E2E2E2E2E2E2E2E2E2E2E2E2E2E2E2E2E2E2E2E2E2E2E2E2E2E2E2BEE2E2E2E2F5F5F5E2E2E2E2BEE2E2E2E2E2E2E2E2E2E2E2E2E2E2E2E2E2E2E2E2E2
310
E2E2E2E2E2E2E2E2E2E2E2E2E2E2E2E2E2E2E2E2E2E2E2E2E2E2E2E2E2E2E2E2E2E2E2E2E2E2E2E2E2E2E2E2E2E2E2E2E2E2E2E2E2E2E2E2E2E2E2E2E2E2E2E2E2E2E2E2E2E2E2E2E2E2E2E2E2E2E2E2E2E2E2E2E2E2E2E2E2E2E2E2E2E2E2E2E2E2E2E2E2E2E2E2E2E2E2E2E2E2E2E2E2E2E2E2E2E2E2E2E2E2E2E2E2E2E2
310
E2E2E2E2E2E2E2E2E2E2E2E2E2E2E2E2E2E2E2BEE2E2E2E2F5F5F5E2F5E2E2BEE2E2E2E2E2E2E2E2E2E2E2E2E2E2E2E2E2E2E2E2E2E2E2E2E2E2E2E2E2E2E2E2E2E2E2E2E2E2E2E2E2E2E2E2E2E2E2E2E2E2E2E2E2E2E2E2E2E2E2E2E2E2E2E2E2E2E2E2E2E2E2E2E2E2E2E2E2E2E2E2E2E2E2E2E2E2E2E2E2E2E2E2E2E2E2
310
E2E2E2E2E2E2E2E2E2E2E2E2E2E2E2E2E2E2E2E2E2E2E2E2E2E2E2E2E2E2E2E2E2E2E2E2E2E2E2E2E2E2E2E2E2E2E2E2E2E2E2E2E2E2E2E2E2E2E2E2E2E2E2E2E2E2E2E2E2E2E2E2BEE2E2F5E2F5F5F5E2F5E2E2BEE2E2E2E2E2E2E2E2E2E2E2E2E2E2E2E2E2E2E2E2E2E2E2E2E2E2E2E2E2E2E2E2E2E2E2E2E2E2E2E2E2E2
310
E2E2E2E2E2E2E2E2E2E2E2E2E2E2E2E2E2E2E2E2E2E2E2E2E2E2E2E2E2E2E2E2E2E2E2E2E2E2E2E2E2E2E2E2E2E2E2E2E2E2E2E2E2E2E2E2E2E2E2E2E2E2E2E2E2E2E2E2E2E2E2E2E2E2E2E2E2E2E2E2E2E2E2E2E2E2E2E2E2E2E2E2E2E2E2E2E2E2E2E2E2E2E2E2E2E2E2E2E2E2E2E2E2E2E2E2E2E2E2E2E2E2E2E2E2BEE2
310
E2F5E2F5F5F5E2F5E2E2BEE2E2E2E2E2E2E2E2E2E2E2E2E2E2E2E2E2E2E2E2E2E2E2E2E2E2E2E2E2E2E2E2E2E2E2E2E2E2E2E2E2E2E2E2E2E2E2E2E2E2E2E2E2E2E2E2E2E2E2E2E2E2E2E2E2E2E2E2E2E2E2E2E2E2E2E2E2E2E2E2E2E2E2E2E2E2E2E2E2E2E2E2E2E2E2E2E2E2E2E2E2E2E2E2E2E2E2E2E2E2E2E2E2E2E2E2
310
E2E2E2E2E2E2E2E2E2E2E2E2E2E2E2E2E2E2E2E2E2E2E2E2E2E2E2E2E2E2E2E2E2E2E2E2E2E2E2E2E2E2E2E2E2E2E2E2E2E2E2BEE2E2F5E2F5F5F5E2F5E2E2BEE2E2E2E2E2E2E2E2E2E2E2E2E2E2E2E2E2E2E2E2E2E2E2E2E2E2E2E2E2E2E2E2E2E2E2E2E2E2E2E2E2E2E2E2E2E2E2E2E2E2E2E2E2E2E2E2E2E2E2E2E2E2E2
310
E2E2E2E2E2E2E2E2E2E2E2E2E2E2E2E2E2E2E2E2E2E2E2E2E2E2E2E2E2E2E2E2E2E2E2E2E2E2E2E2E2E2E2E2E2E2E2E2E2E2E2E2E2E2E2E2E2E2E2E2E2E2E2E2E2E2E2E2E2E2E2E2E2E2E2E2E2E2E2E2E2E2E2E2E2E2E2E2E2E2E2E2E2E2E2E2E2E2E2E2E2E2E2E2BEE2E2F5E2F5F5F5E2F5E2E2BEE2E2E2E2E2E2E2E2E2E2
310
E2E2E2E2E2E2E2E2E2E2E2E2E2E2E2E2E2E2E2E2E2E2E2E2E2E2E2E2E2E2E2E2E2E2E2E2E2E2E2E2E2E2E2E2E2E2E2E2E2E2E2E2E2E2E2E2E2E2E2E2E2E2E2E2E2E2E2E2E2E2E2E2E2E2E2E2E2E2E2E2E2E2E2E2E2E2E2E2E2E2E2E2E2E2E2E2E2E2E2E2E2E2E2E2E2E2E2E2E2E2E2E2E2E2E2E2E2E2E2E2E2E2E2E2E2E2E2
310
E2E2E2E2E2E2E2E2E2E2E2E2E2E2E2E2E2E2E2E2E2E2E2E2E2E2E2E2E2E2BEE2E2F5E2F5F5F5E2F5E2E2BEBEBEBEBEBEBEBEBEBEBEBEBEBEBEBEBEBEBEBEBEBEBEBEBEBEBEBEBEBEBEBEBEBEBEBEBEBEBEBEBEBEBEBEBEBEBEBEBEBEBEBEBEBEBEBEBEBEBEBEBEBEBEBEBEBEBEBEBEBEBEBEBEBEBEBEBEBEBEBEBEBEBEBEBE
310
BEBEBEBEBEBEBEBEBEBEBEBEBEBEBEBEBEBEBEBEBEBEBEBEBEBEBEBEBEBEBEBEBEBEBEBEBEBEBEBEBEBEBEBEBEBEBEBEBEBEBEBEBEBEBEBEBEBEBEBEBEBEBEBEBEBEBEBEBEBEBEBEBEBEBEBEBEBEBEBEBEBEBEBEE2E2F5E2F5F5F5E2F5E2E2E2E2E2E2E2E2E2E2E2E2E2E2E2E2E2E2E2E2E2E2E2E2E2E2E2E2E2E2E2E2E2E2
310
E2E2E2E2E2E2E2E2E2E2E2E2E2E2E2E2E2E2E2E2E2E2E2E2E2E2E2E2E2E2E2E2E2E2E2E2E2E2E2E2E2E2E2E2E2E2E2E2E2E2E2E2E2E2E2E2E2E2E2E2E2E2E2E2E2E2E2E2E2E2E2E2E2E2E2E2E2E2E2E2E2E2E2E2E2E2E2E2E2E2E2E2E2E2E2E2E2E2E2E2E2E2E2E2E2E2E2E2E2E2E2E2E2E2E2E2E2E2E2E2E2E2E2E2E2E2E2
310
E2E2E2E2E2E2E2E2E2E2E2E2F5E2F5F5F5E2F5F5F5F5F5F5F5F5E2E2E2E2E2E2E2E2E2F5F5F5F5F5F5F5F5F5F5F5F5F5F5F5F5E2E2E2E2E2E2E2E2E2F5F5F5F5F5F5F5F5F5F5F5F5F5F5F5F5E2E2E2E2E2E2E2E2E2F5F5F5F5F5F5F5F5F5F5F5F5F5F5F5F5E2E2E2E2E2E2E2E2E2F5F5F5F5F5F5F5F5F5F5F5F5F5F5F5F5E2
310
E2E2E2E2E2E2E2E2F5F5F5F5F5F5F5F5F5F5F5F5F5F5F5F5E2E2E2E2E2E2E2E2E2F5F5F5F5F5F5F5F5F5F5F5F5F5F5F5F5E2E2E2E2E2E2E2E2E2F5F5F5F5F5F5F5F5E2F5F5F5E2E2E2E2E2E2E2E2E2E2E2E2E2E2E2E2E2E2E2E2E2E2E2E2E2E2E2E2E2E2E2E2E2E2E2E2E2E2E2E2E2E2E2E2E2E2E2E2E2E2E2E2E2E2E2E2E2
310
E2E2E2E2E2E2E2E2E2E2E2E2E2E2E2E2E2E2E2E2E2E2E2E2E2E2E2E2E2E2E2E2E2E2E2E2E2E2E2E2E2E2E2E2E2E2E2E2E2E2E2E2E2E2E2E2E2E2E2E2E2E2E2E2E2E2E2E2E2E2E2E2E2E2E2E2E2E2E2E2E2E2E2E2E2E2E2E2E2E2E2E2E2E2E2E2E2E2E2E2E2E2E2E2E2E2E2E2E2E2E2E2E2E2E2E2E2E2E2E2F5EFF5F5F5F5F5
310
F5F5F5F5F5F5F5F5F5F5F5F5F5F5F5F5F5F5F5F5F5F5F5F5F5F5F5F5F5F5F5F5F5F5F5F5F5F5F5F5F5F5F5F5F5F5F5F5F5F5F5F5F5F5F5F5F5F5F5F5F5F5F5F5F5F5F5F5F5F5F5F5F5F5F5F5F5F5F5F5F5F5F5F5F5F5F5F5F5F5F5F5F5F5F5F5F5F5F5F5F5F5F5F5F5F5F5F5F5F5F5F5F5F5F5F5F5F5F5F5F5F5F5F5F5F5F5
310
F5F5F5F5F5F5F5F5F5F5F5F5F5F5F5F5F5F5F5F5F5F5F5F5F5F5F5F5F5F5F5F5F5F5F5F5F5F5F5F5F5F5F5F5F5F5F5EF
  0
XRECORD
  5
65D0
102
{ACAD_REACTORS
330
65CF
102
}
330
65CF
100
AcDbXrecord
280
     1
102
SHADEPLOT
 70
     0
102
SHADEPLOTRESLEVEL
 70
     2
102
SHADEPLOTCUSTOMDPI
 70
   300
  0
ENDSEC
  0
EOF
