  0
SECTION
  2
HEADER
  9
$ACADVER
  1
AC1015
  9
$ACADMAINTVER
 70
    20
  9
$DWGCODEPAGE
  3
ANSI_1252
  9
$INSBASE
 10
0.0
 20
0.0
 30
0.0
  9
$EXTMIN
 10
739.7134580380781
 20
540.3217995660705
 30
0.0
  9
$EXTMAX
 10
1049.750051923345
 20
628.3459055111806
 30
0.0
  9
$LIMMIN
 10
0.0
 20
0.0
  9
$LIMMAX
 10
420.0
 20
297.0
  9
$ORTHOMODE
 70
     0
  9
$REGENMODE
 70
     1
  9
$FILLMODE
 70
     1
  9
$QTEXTMODE
 70
     0
  9
$MIRRTEXT
 70
     1
  9
$LTSCALE
 40
1.0
  9
$ATTMODE
 70
     1
  9
$TEXTSIZE
 40
2.399999999999999
  9
$TRACEWID
 40
1.0
  9
$TEXTSTYLE
  7
STANDARD
  9
$CLAYER
  8
SPEC
  9
$CELTYPE
  6
ByLayer
  9
$CECOLOR
 62
   256
  9
$CELTSCALE
 40
1.0
  9
$DISPSILH
 70
     0
  9
$DIMSCALE
 40
1.0
  9
$DIMASZ
 40
3.0
  9
$DIMEXO
 40
1.0
  9
$DIMDLI
 40
1.0
  9
$DIMRND
 40
0.0
  9
$DIMDLE
 40
0.0
  9
$DIMEXE
 40
1.0
  9
$DIMTP
 40
0.2
  9
$DIMTM
 40
-0.2
  9
$DIMTXT
 40
3.0
  9
$DIMCEN
 40
-0.05
  9
$DIMTSZ
 40
0.0
  9
$DIMTOL
 70
     0
  9
$DIMLIM
 70
     0
  9
$DIMTIH
 70
     0
  9
$DIMTOH
 70
     0
  9
$DIMSE1
 70
     0
  9
$DIMSE2
 70
     0
  9
$DIMTAD
 70
     1
  9
$DIMZIN
 70
     8
  9
$DIMBLK
  1

  9
$DIMASO
 70
     1
  9
$DIMSHO
 70
     1
  9
$DIMPOST
  1

  9
$DIMAPOST
  1

  9
$DIMALT
 70
     0
  9
$DIMALTD
 70
     2
  9
$DIMALTF
 40
25.4
  9
$DIMLFAC
 40
1.0
  9
$DIMTOFL
 70
     1
  9
$DIMTVP
 40
5.0
  9
$DIMTIX
 70
     0
  9
$DIMSOXD
 70
     0
  9
$DIMSAH
 70
     0
  9
$DIMBLK1
  1

  9
$DIMBLK2
  1

  9
$DIMSTYLE
  2
STANDARD
  9
$DIMCLRD
 70
     3
  9
$DIMCLRE
 70
     3
  9
$DIMCLRT
 70
     6
  9
$DIMTFAC
 40
0.8
  9
$DIMGAP
 40
1.0
  9
$DIMJUST
 70
     0
  9
$DIMSD1
 70
     0
  9
$DIMSD2
 70
     0
  9
$DIMTOLJ
 70
     1
  9
$DIMTZIN
 70
     8
  9
$DIMALTZ
 70
     0
  9
$DIMALTTZ
 70
     0
  9
$DIMUPT
 70
     0
  9
$DIMDEC
 70
     2
  9
$DIMTDEC
 70
     1
  9
$DIMALTU
 70
     2
  9
$DIMALTTD
 70
     2
  9
$DIMTXSTY
  7
STANDARD
  9
$DIMAUNIT
 70
     0
  9
$DIMADEC
 70
     0
  9
$DIMALTRND
 40
0.0
  9
$DIMAZIN
 70
     0
  9
$DIMDSEP
 70
    46
  9
$DIMATFIT
 70
     3
  9
$DIMFRAC
 70
     0
  9
$DIMLDRBLK
  1

  9
$DIMLUNIT
 70
     2
  9
$DIMLWD
 70
    -1
  9
$DIMLWE
 70
    -2
  9
$DIMTMOVE
 70
     0
  9
$LUNITS
 70
     2
  9
$LUPREC
 70
     2
  9
$SKETCHINC
 40
1.0
  9
$FILLETRAD
 40
0.5
  9
$AUNITS
 70
     0
  9
$AUPREC
 70
     0
  9
$MENU
  1
.
  9
$ELEVATION
 40
0.0
  9
$PELEVATION
 40
0.0
  9
$THICKNESS
 40
0.0
  9
$LIMCHECK
 70
     0
  9
$CHAMFERA
 40
3.0
  9
$CHAMFERB
 40
3.0
  9
$CHAMFERC
 40
3.5
  9
$CHAMFERD
 40
0.7853981633974483
  9
$SKPOLY
 70
     0
  9
$TDCREATE
 40
2453787.436149942
  9
$TDUCREATE
 40
2453787.352816609
  9
$TDUPDATE
 40
2453944.505251493
  9
$TDUUPDATE
 40
2453944.421918160
  9
$TDINDWG
 40
0.8319286343
  9
$TDUSRTIMER
 40
0.8310765509
  9
$USRTIMER
 70
     1
  9
$ANGBASE
 50
0.0
  9
$ANGDIR
 70
     0
  9
$PDMODE
 70
     0
  9
$PDSIZE
 40
0.0
  9
$PLINEWID
 40
0.0
  9
$SPLFRAME
 70
     0
  9
$SPLINETYPE
 70
     6
  9
$SPLINESEGS
 70
     8
  9
$HANDSEED
  5
60A7
  9
$SURFTAB1
 70
     6
  9
$SURFTAB2
 70
     6
  9
$SURFTYPE
 70
     6
  9
$SURFU
 70
     6
  9
$SURFV
 70
     6
  9
$UCSBASE
  2

  9
$UCSNAME
  2

  9
$UCSORG
 10
0.0
 20
0.0
 30
0.0
  9
$UCSXDIR
 10
1.0
 20
0.0
 30
0.0
  9
$UCSYDIR
 10
0.0
 20
1.0
 30
0.0
  9
$UCSORTHOREF
  2

  9
$UCSORTHOVIEW
 70
     0
  9
$UCSORGTOP
 10
0.0
 20
0.0
 30
0.0
  9
$UCSORGBOTTOM
 10
0.0
 20
0.0
 30
0.0
  9
$UCSORGLEFT
 10
0.0
 20
0.0
 30
0.0
  9
$UCSORGRIGHT
 10
0.0
 20
0.0
 30
0.0
  9
$UCSORGFRONT
 10
0.0
 20
0.0
 30
0.0
  9
$UCSORGBACK
 10
0.0
 20
0.0
 30
0.0
  9
$PUCSBASE
  2

  9
$PUCSNAME
  2

  9
$PUCSORG
 10
0.0
 20
0.0
 30
0.0
  9
$PUCSXDIR
 10
1.0
 20
0.0
 30
0.0
  9
$PUCSYDIR
 10
0.0
 20
1.0
 30
0.0
  9
$PUCSORTHOREF
  2

  9
$PUCSORTHOVIEW
 70
     0
  9
$PUCSORGTOP
 10
0.0
 20
0.0
 30
0.0
  9
$PUCSORGBOTTOM
 10
0.0
 20
0.0
 30
0.0
  9
$PUCSORGLEFT
 10
0.0
 20
0.0
 30
0.0
  9
$PUCSORGRIGHT
 10
0.0
 20
0.0
 30
0.0
  9
$PUCSORGFRONT
 10
0.0
 20
0.0
 30
0.0
  9
$PUCSORGBACK
 10
0.0
 20
0.0
 30
0.0
  9
$USERI1
 70
     0
  9
$USERI2
 70
     0
  9
$USERI3
 70
     0
  9
$USERI4
 70
     0
  9
$USERI5
 70
     0
  9
$USERR1
 40
0.0
  9
$USERR2
 40
0.0
  9
$USERR3
 40
0.0
  9
$USERR4
 40
0.0
  9
$USERR5
 40
0.0
  9
$WORLDVIEW
 70
     1
  9
$SHADEDGE
 70
     3
  9
$SHADEDIF
 70
    70
  9
$TILEMODE
 70
     0
  9
$MAXACTVP
 70
    64
  9
$PINSBASE
 10
0.0
 20
0.0
 30
0.0
  9
$PLIMCHECK
 70
     0
  9
$PEXTMIN
 10
-0.0166177473049629
 20
-0.0081673980498636
 30
-0.0015258207003583
  9
$PEXTMAX
 10
282.0590589484719
 20
196.1246882595993
 30
0.0000000349246037
  9
$PLIMMIN
 10
-7.462201817038192
 20
-6.955007155006001
  9
$PLIMMAX
 10
289.5273001360868
 20
203.0394844221425
  9
$UNITMODE
 70
     0
  9
$VISRETAIN
 70
     1
  9
$PLINEGEN
 70
     0
  9
$PSLTSCALE
 70
     1
  9
$TREEDEPTH
 70
  3020
  9
$CMLSTYLE
  2
Standard
  9
$CMLJUST
 70
     0
  9
$CMLSCALE
 40
20.0
  9
$PROXYGRAPHICS
 70
     1
  9
$MEASUREMENT
 70
     1
  9
$CELWEIGHT
370
    -1
  9
$ENDCAPS
280
     0
  9
$JOINSTYLE
280
     0
  9
$LWDISPLAY
290
     0
  9
$INSUNITS
 70
     4
  9
$HYPERLINKBASE
  1

  9
$STYLESHEET
  1

  9
$XEDIT
290
     1
  9
$CEPSNTYPE
380
     0
  9
$PSTYLEMODE
290
     1
  9
$FINGERPRINTGUID
  2
{65A8C6A1-B973-4B90-93E8-5CEEA7DDEAA7}
  9
$VERSIONGUID
  2
{71F44602-8217-4B94-ABFE-BA9AF4D2B0DA}
  9
$EXTNAMES
290
     1
  9
$PSVPSCALE
 40
1.0
  9
$OLESTARTUP
290
     0
  0
ENDSEC
  0
SECTION
  2
CLASSES
  0
CLASS
  1
ACDBDICTIONARYWDFLT
  2
AcDbDictionaryWithDefault
  3
ObjectDBX Classes
 90
        0
280
     0
281
     0
  0
CLASS
  1
ACDBPLACEHOLDER
  2
AcDbPlaceHolder
  3
ObjectDBX Classes
 90
        0
280
     0
281
     0
  0
CLASS
  1
LAYOUT
  2
AcDbLayout
  3
ObjectDBX Classes
 90
        0
280
     0
281
     0
  0
CLASS
  1
ACME_DOCUMENT
  2
AcMeDbDoc
  3
AcMeServices
 90
        0
280
     0
281
     0
  0
CLASS
  1
AMGSETTINGSOBJ
  2
AmgSettingsObj
  3
"AcadM|Product Description: AutoCAD Mechanical 2000|Company: Autodesk"
 90
        0
280
     0
281
     0
  0
CLASS
  1
ACMESCOPE
  2
AcMeScope
  3
AcMeServices
 90
        0
280
     0
281
     0
  0
CLASS
  1
ACMECOMMANDHISTORY
  2
AcMeCommandHistory
  3
AcMeServices
 90
        0
280
     0
281
     0
  0
CLASS
  1
ACIMSYSVARMAN
  2
AcImSysVarManager
  3
AcMeServices
 90
        0
280
     0
281
     0
  0
CLASS
  1
ACIMREALSYSVAR
  2
AcImRealSysVar
  3
AcMeServices
 90
        0
280
     0
281
     0
  0
CLASS
  1
ACIMINTSYSVAR
  2
AcImIntSysVar
  3
AcMeServices
 90
        0
280
     0
281
     0
  0
CLASS
  1
ACMEDRAWINGMAN
  2
AcMeDrawingMan
  3
AcMeServices
 90
        0
280
     0
281
     0
  0
CLASS
  1
ACMEVIEW
  2
AcMeView
  3
AcMeServices
 90
        0
280
     0
281
     0
  0
CLASS
  1
ACDBENTITYCACHE
  2
AcMeEntityCache
  3
AcMeServices
 90
        0
280
     0
281
     0
  0
CLASS
  1
GSMANAGER
  2
AcMeGSManager
  3
AcMeServices
 90
        0
280
     0
281
     0
  0
CLASS
  1
AMDTINTERNALREACTOR
  2
AmdtInternalReactor
  3
AcMeServices
 90
        0
280
     0
281
     0
  0
CLASS
  1
ACMESTATEMGR
  2
AcMeStateMgr
  3
AcMeServices
 90
        0
280
     0
281
     0
  0
CLASS
  1
ACGREFMASTER
  2
AcGrefMaster
  3
AcAttribServices
 90
        0
280
     0
281
     0
  0
CLASS
  1
ACME_DATABASE
  2
AcMeDbDatabase
  3
AcMeServices
 90
        0
280
     0
281
     0
  0
CLASS
  1
ACRFINSADJUSTERMGR
  2
AcRfInsAdjusterMgr
  3
AcMeServices
 90
        0
280
     0
281
     0
  0
CLASS
  1
ACGREFACADMASTER
  2
AcGrefacadMaster
  3
AcGrefServices
 90
        0
280
     0
281
     0
  0
CLASS
  1
AMIMASTER
  2
AmiMaster
  3
AmiServices
 90
        0
280
     0
281
     0
  0
CLASS
  1
ACMDATADICTIONARY
  2
AcmDataDictionary
  3
"AcmSymBB|Product Description: AutoCAD Mechanical 2004 DX|Company: Autodesk"
 90
        0
280
     0
281
     0
  0
CLASS
  1
ACMDATAENTRYBLOCK
  2
AcmDataEntryBlock
  3
"AcmSymBB|Product Description: AutoCAD Mechanical 2004 DX|Company: Autodesk"
 90
        0
280
     0
281
     0
  0
CLASS
  1
ACIMSTRSYSVAR
  2
AcImStrSysVar
  3
AcMeServices
 90
        0
280
     0
281
     0
  0
CLASS
  1
ACMSTANDARDISO
  2
AcmStandardISO
  3
"Amdt_StdImp|Product Description: AutoCAD Mechanical 2004 DX|Company: Autodesk"
 90
        0
280
     0
281
     0
  0
CLASS
  1
AMGOBJPROPCFG
  2
AmgObjPropCfg
  3
"AmgLay|Product Description: AutoCAD Mechanical 2000|Company: Autodesk"
 90
        1
280
     0
281
     0
  0
CLASS
  1
AMDTEDGESTANDARDISO
  2
AmdtEdgeStdISO
  3
"Amdt_StdImp|Product Description: AutoCAD Mechanical 2004 DX|Company: Autodesk"
 90
        0
280
     0
281
     0
  0
CLASS
  1
ACMSURFSTANDARDISO
  2
AcmSurfTextStdISO
  3
"Amdt_StdImp|Product Description: AutoCAD Mechanical 2004 DX|Company: Autodesk"
 90
        0
280
     0
281
     0
  0
CLASS
  1
ACMFCFSTANDARDISO
  2
AcmFCFStdISO
  3
"Amdt_StdImp|Product Description: AutoCAD Mechanical 2004 DX|Company: Autodesk"
 90
        0
280
     0
281
     0
  0
CLASS
  1
ACMWELDSTANDARDISO
  2
AcmWeldingStdISO
  3
"Amdt_StdImp|Product Description: AutoCAD Mechanical 2004 DX|Company: Autodesk"
 90
        0
280
     0
281
     0
  0
CLASS
  1
ACMIDSTANDARDISO
  2
AcmIdStdISO
  3
"Amdt_StdImp|Product Description: AutoCAD Mechanical 2004 DX|Company: Autodesk"
 90
        0
280
     0
281
     0
  0
CLASS
  1
ACMDATUMSTANDARDISO
  2
AcmDatumStdISO
  3
"Amdt_StdImp|Product Description: AutoCAD Mechanical 2004 DX|Company: Autodesk"
 90
        0
280
     0
281
     0
  0
CLASS
  1
ACMBOMSTANDARDISO
  2
AcmBOMStdISO
  3
"Amdt_StdImp|Product Description: AutoCAD Mechanical 2004 DX|Company: Autodesk"
 90
        0
280
     0
281
     0
  0
CLASS
  1
ACMDETAILSTANDARDISO
  2
AmdtDetailSymStdISO
  3
"Amdt_StdImp|Product Description: AutoCAD Mechanical 2004 DX|Company: Autodesk"
 90
        0
280
     0
281
     0
  0
CLASS
  1
ACMSECTIONSTANDARDISO
  2
AmdtSectionSymStdISO
  3
"Amdt_StdImp|Product Description: AutoCAD Mechanical 2004 DX|Company: Autodesk"
 90
        0
280
     0
281
     0
  0
CLASS
  1
ACMCENTERLINESTANDARDISO
  2
AmdtCenterLineStdISO
  3
"Amdt_StdImp|Product Description: AutoCAD Mechanical 2004 DX|Company: Autodesk"
 90
        0
280
     0
281
     0
  0
CLASS
  1
ACMNOTESTANDARDISO
  2
AmdtNoteStdISO
  3
"Amdt_StdImp|Product Description: AutoCAD Mechanical 2004 DX|Company: Autodesk"
 90
        0
280
     0
281
     0
  0
CLASS
  1
ACAMGLAYSTD
  2
AcAmgLayStd
  3
"AcAmgLayStd|Product Description: AutoCAD Mechanical 2000|Company: Autodesk"
 90
        0
280
     0
281
     0
  0
CLASS
  1
ACAMGDIMSTD
  2
AcAmgDimStd
  3
"AcAmgDimStd|Product Description: AutoCAD Mechanical 2000|Company: Autodesk"
 90
        0
280
     0
281
     0
  0
CLASS
  1
ACAMGHOLECHARTSTDISO
  2
AcAmgHoleChartStdISO
  3
ACMSYMBB_MODULE_NAME
 90
        0
280
     0
281
     0
  0
CLASS
  1
ACAMGTITLESTD
  2
AcAmgTitleStd
  3
"TITLEAPP"
 90
        0
280
     0
281
     0
  0
CLASS
  1
LAYER_INDEX
  2
AcDbLayerIndex
  3
ObjectDBX Classes
 90
    32768
280
     0
281
     0
  0
CLASS
  1
IDBUFFER
  2
AcDbIdBuffer
  3
ObjectDBX Classes
 90
    32768
280
     0
281
     0
  0
CLASS
  1
DICTIONARYVAR
  2
AcDbDictionaryVar
  3
ObjectDBX Classes
 90
        0
280
     0
281
     0
  0
CLASS
  1
AM_DRAWING_MGR
  2
AcDmDwgMgr
  3
AcMechDwgViewMgmt
 90
        0
280
     0
281
     0
  0
CLASS
  1
AM_DWG_DOCUMENT
  2
AcDmDwgDocument
  3
AcMechDwgViewMgmt
 90
        0
280
     0
281
     0
  0
CLASS
  1
AM_DWG_SHEET
  2
AcDmSheet
  3
AcMechDwgViewMgmt
 90
        0
280
     0
281
     0
  0
CLASS
  1
AM_VIEWDIMPARMAP
  2
AcDmViewDimParMap
  3
AcMechDwgViewMgmt
 90
        0
280
     0
281
     0
  0
CLASS
  1
AM_DWGMGR_NAME
  2
AcDmDwgMgrName
  3
AcMechDwgViewMgmt
 90
        0
280
     0
281
     0
  0
CLASS
  1
AMDTMENUSTATEMGR
  2
AmdtMenuStateMgr
  3
McadcomServices
 90
        0
280
     0
281
     0
  0
CLASS
  1
AMDTMCOMMENUSTATE
  2
AmdtMcomMenuState
  3
McadcomServices
 90
        0
280
     0
281
     0
  0
CLASS
  1
MAPIAMMOUDLE
  2
MApiAmModule
  3
MApiAmServices
 90
        0
280
     0
281
     0
  0
CLASS
  1
AMDTADMENUSTATE
  2
AmdtAdMenuState
  3
DesignerServices
 90
        0
280
     0
281
     0
  0
CLASS
  1
ADAPPL
  2
AcAdAppl
  3
DesignerServices
 90
        0
280
     0
281
     0
  0
CLASS
  1
DEPMGR
  2
AcAdDepMgr
  3
DesignerServices
 90
        0
280
     0
281
     0
  0
CLASS
  1
PARAMMGR
  2
AcAdParamMgr
  3
DesignerServices
 90
        0
280
     0
281
     0
  0
CLASS
  1
PARAMSCOPE
  2
AcAdParamScope
  3
DesignerServices
 90
        0
280
     0
281
     0
  0
CLASS
  1
NAMEDAPPL
  2
AcAdNamedAppl
  3
DesignerServices
 90
        0
280
     0
281
     0
  0
CLASS
  1
AMDTDMMENUSTATE
  2
AmdtDmMenuState
  3
AcMechDwgViewMgmt
 90
        0
280
     0
281
     0
  0
CLASS
  1
AMDTAMMENUSTATE
  2
AmdtAmMenuState
  3
DesignerAssemblies
 90
        0
280
     0
281
     0
  0
CLASS
  1
ACAMPROJECT
  2
AcAmProject
  3
DesignerAssemblies
 90
        0
280
     0
281
     0
  0
CLASS
  1
ACAMGRCOMPDEF
  2
AcAmGrCompDef
  3
DesignerAssemblies
 90
        0
280
     0
281
     0
  0
CLASS
  1
ACCMCONTEXT
  2
AcCmContext
  3
DesignerAssemblies
 90
        0
280
     0
281
     0
  0
CLASS
  1
ACAMCOMPDEF
  2
AcAmCompDef
  3
DesignerAssemblies
 90
        0
280
     0
281
     0
  0
CLASS
  1
ACAMCOMPDEFMGR
  2
AcAmCompDefMgr
  3
DesignerAssemblies
 90
        0
280
     0
281
     0
  0
CLASS
  1
AMCONTEXTMGR
  2
AcAmContextMgr
  3
DesignerAssemblies
 90
        0
280
     0
281
     0
  0
CLASS
  1
ACAMCONTEXTMODELER
  2
AcAmContextModeler
  3
DesignerAssemblies
 90
        0
280
     0
281
     0
  0
CLASS
  1
ACMTHREADLINESTANDARDISO
  2
AmdtThreadLineStdISO
  3
"Amdt_StdImp|Product Description: AutoCAD Mechanical 2004 DX|Company: Autodesk"
 90
        0
280
     0
281
     0
  0
CLASS
  1
CATALOGSTATE
  2
AcAmCatalogState
  3
DesignerAssemblies
 90
        0
280
     0
281
     0
  0
CLASS
  1
ACAMGRCOMPDEFSET
  2
AcAmGrCompDefSet
  3
DesignerAssemblies
 90
        0
280
     0
281
     0
  0
CLASS
  1
AMDTBROWSERDBTAB
  2
AmdtBrowserDbTab
  3
McadcomServices
 90
        0
280
     0
281
     0
  0
CLASS
  1
CBROWSERAPPOBJECT
  2
CBrowserAppObject
  3
McadcomServices
 90
        0
280
     0
281
     0
  0
CLASS
  1
DM_PLACEHOLDER
  2
AcDmSelsetPlaceholder
  3
AcMechDwgViewMgmt
 90
        0
280
     0
281
     0
  0
CLASS
  1
TABLESTYLE
  2
AcDbTableStyle
  3
ObjectDBX Classes
 90
     2047
280
     0
281
     0
  0
CLASS
  1
VAACXREFPANELOBJECT
  2
VaAcXREFPanelObject
  3
VAAC_ADDIN
 90
    32768
280
     0
281
     0
  0
CLASS
  1
VAACIMAGEINVENTORY
  2
VaAcImageInventory
  3
VAAC_ADDIN
 90
    32768
280
     0
281
     0
  0
CLASS
  1
AMDTNOTETEMPLATEDB
  2
AmdtNoteTemplateDB
  3
AMDT_STDIMP_MODULE_NAME
 90
        0
280
     0
281
     0
  0
CLASS
  1
ACAMGFILTERDAT
  2
AcAmgFilterDat
  3
"AcadM|Product Description: AutoCAD Mechanical 2000|Company: Autodesk"
 90
        0
280
     0
281
     0
  0
CLASS
  1
ACMBOM
  2
AcmBom
  3
"AcmSymBB|Product Description: AutoCAD Mechanical 2004 DX|Company: Autodesk"
 90
    32768
280
     0
281
     0
  0
CLASS
  1
AMDTFORMULAUPDATEDISPATCHER
  2
AmdtFormulaUpdateDispatcher
  3
AcMeServices
 90
    32768
280
     0
281
     0
  0
CLASS
  1
DIMASSOC
  2
AcDbDimAssoc
  3
"AcDbDimAssoc|Product Desc:     AcDim ARX App For Dimension|Company:          Autodesk, Inc.|WEB Address:      www.autodesk.com"
 90
        0
280
     0
281
     0
  0
CLASS
  1
SORTENTSTABLE
  2
AcDbSortentsTable
  3
ObjectDBX Classes
 90
        0
280
     0
281
     0
  0
CLASS
  1
ACRFATTGENMGR
  2
AcRfAttGeneralMgr
  3
AcAttribServices
 90
        0
280
     0
281
     0
  0
ENDSEC
  0
SECTION
  2
TABLES
  0
TABLE
  2
VPORT
  5
8
330
0
100
AcDbSymbolTable
 70
     1
  0
VPORT
  5
6029
330
8
100
AcDbSymbolTableRecord
100
AcDbViewportTableRecord
  2
*Active
 70
     0
 10
0.0
 20
0.0
 11
1.0
 21
1.0
 12
982.5354216090993
 22
650.7045720448829
 13
0.0
 23
0.0
 14
2.5
 24
2.5
 15
10.0
 25
10.0
 16
0.0
 26
0.0
 36
1.0
 17
0.0
 27
0.0
 37
0.0
 40
341.5644187449335
 41
1.577075098814229
 42
50.0
 43
0.0
 44
0.0
 50
0.0
 51
0.0
 71
     0
 72
   100
 73
     1
 74
     3
 75
     0
 76
     1
 77
     0
 78
     0
281
     0
 65
     1
110
0.0
120
0.0
130
0.0
111
1.0
121
0.0
131
0.0
112
0.0
122
1.0
132
0.0
 79
     0
146
0.0
  0
ENDTAB
  0
TABLE
  2
LTYPE
  5
5
330
0
100
AcDbSymbolTable
 70
    15
  0
LTYPE
  5
14
330
5
100
AcDbSymbolTableRecord
100
AcDbLinetypeTableRecord
  2
ByBlock
 70
     0
  3

 72
    65
 73
     0
 40
0.0
  0
LTYPE
  5
15
330
5
100
AcDbSymbolTableRecord
100
AcDbLinetypeTableRecord
  2
ByLayer
 70
     0
  3

 72
    65
 73
     0
 40
0.0
  0
LTYPE
  5
16
330
5
100
AcDbSymbolTableRecord
100
AcDbLinetypeTableRecord
  2
Continuous
 70
     0
  3
Solid line
 72
    65
 73
     0
 40
0.0
  0
LTYPE
  5
64
330
5
100
AcDbSymbolTableRecord
100
AcDbLinetypeTableRecord
  2
AM_ISO02W050
 70
     0
  3
__ __ __ __ __ __ __ __ __ __ __ __ __ __ __
 72
    65
 73
     2
 40
7.5
 49
6.0
 74
     0
 49
-1.5
 74
     0
  0
LTYPE
  5
65
330
5
100
AcDbSymbolTableRecord
100
AcDbLinetypeTableRecord
  2
AM_ISO08W050
 70
     0
  3
____ . ____ . ____ . ____ . ____ . ____ . ____
 72
    65
 73
     4
 40
18.0
 49
12.0
 74
     0
 49
-1.5
 74
     0
 49
3.0
 74
     0
 49
-1.5
 74
     0
  0
LTYPE
  5
66
330
5
100
AcDbSymbolTableRecord
100
AcDbLinetypeTableRecord
  2
AM_ISO09W050
 70
     0
  3
_____ . . _____ . . _____ . . ____ .. ____
 72
    65
 73
     6
 40
22.5
 49
12.0
 74
     0
 49
-1.5
 74
     0
 49
3.0
 74
     0
 49
-1.5
 74
     0
 49
3.0
 74
     0
 49
-1.5
 74
     0
  0
LTYPE
  5
67
330
5
100
AcDbSymbolTableRecord
100
AcDbLinetypeTableRecord
  2
Amconstr
 70
     0
  3
_______________________
 72
    65
 73
     2
 40
9999.0
 49
9999.0
 74
     0
 49
0.0
 74
     0
  0
LTYPE
  5
68
330
5
100
AcDbSymbolTableRecord
100
AcDbLinetypeTableRecord
  2
AM_ISO08W050x2
 70
     0
  3
__ . __ . __ . __ . __ . __
 72
    65
 73
     4
 40
9.0
 49
6.0
 74
     0
 49
-0.75
 74
     0
 49
1.5
 74
     0
 49
-0.75
 74
     0
  0
LTYPE
  5
69
330
5
100
AcDbSymbolTableRecord
100
AcDbLinetypeTableRecord
  2
AM_ISO02W050x2
 70
     0
  3
 _ _ _ _ _ _ _ _ _ _ _ _
 72
    65
 73
     2
 40
3.75
 49
3.0
 74
     0
 49
-0.75
 74
     0
  0
LTYPE
  5
6C
330
5
100
AcDbSymbolTableRecord
100
AcDbLinetypeTableRecord
  2
Amzigzag
 70
     0
  3
/\/-/\/-/\/-/\/-/\/-/\/
 72
    65
 73
     2
 40
11.0001
 49
0.0001
 74
     4
 75
   136
340
22C
 46
0.04
 50
0.0
 44
0.0
 45
0.0
 49
-11.0
 74
     0
  0
LTYPE
  5
7A
330
5
100
AcDbSymbolTableRecord
100
AcDbLinetypeTableRecord
  2
ACISOWELD
 70
     0
  3
_ _ _ _ _
 72
    65
 73
     2
 40
2.0
 49
2.0
 74
     0
 49
-1.0
 74
     0
  0
LTYPE
  5
7B
330
5
100
AcDbSymbolTableRecord
100
AcDbLinetypeTableRecord
  2
ACISOTGB
 70
     0
  3
__ . . __ . .
 72
    65
 73
     6
 40
9.0
 49
4.0
 74
     0
 49
-1.0
 74
     0
 49
1.0
 74
     0
 49
-1.0
 74
     0
 49
1.0
 74
     0
 49
-1.0
 74
     0
  0
LTYPE
  5
7C
330
5
100
AcDbSymbolTableRecord
100
AcDbLinetypeTableRecord
  2
ACISOTGL
 70
     0
  3
_ _ _ _ _
 72
    65
 73
     2
 40
3.0
 49
2.0
 74
     0
 49
-1.0
 74
     0
  0
LTYPE
  5
7E
330
5
100
AcDbSymbolTableRecord
100
AcDbLinetypeTableRecord
  2
CENTER
 70
     0
  3
__ . __
 72
    65
 73
     4
 40
7.0
 49
4.0
 74
     0
 49
-1.0
 74
     0
 49
1.0
 74
     0
 49
-1.0
 74
     0
  0
LTYPE
  5
D8
330
5
100
AcDbSymbolTableRecord
100
AcDbLinetypeTableRecord
  2
HIDDEN
 70
     0
  3
Hidden __ __ __ __ __ __ __ __ __ __ __ __ __ _
 72
    65
 73
     2
 40
9.524999999999998
 49
6.349999999999999
 74
     0
 49
-3.174999999999999
 74
     0
  0
LTYPE
  5
D9
330
5
100
AcDbSymbolTableRecord
100
AcDbLinetypeTableRecord
  2
PHANTOM2
 70
     0
  3
Phantom (.5x) ___ _ _ ___ _ _ ___ _ _ ___ _ _
 72
    65
 73
     6
 40
31.75
 49
15.875
 74
     0
 49
-3.174999999999999
 74
     0
 49
3.174999999999999
 74
     0
 49
-3.174999999999999
 74
     0
 49
3.174999999999999
 74
     0
 49
-3.174999999999999
 74
     0
  0
LTYPE
  5
3BD
330
5
100
AcDbSymbolTableRecord
100
AcDbLinetypeTableRecord
  2
CENTER2
 70
     0
  3
___ _ ___ _ ___ _ ___ _ ___ _ ___ _ ___ _ ___ _
 72
    65
 73
     4
 40
1.125
 49
0.75
 74
     0
 49
-0.125
 74
     0
 49
0.125
 74
     0
 49
-0.125
 74
     0
  0
ENDTAB
  0
TABLE
  2
LAYER
  5
2
102
{ACAD_XDICTIONARY
360
2F5
102
}
330
0
100
AcDbSymbolTable
 70
    13
  0
LAYER
  5
10
330
2
100
AcDbSymbolTableRecord
100
AcDbLayerTableRecord
  2
0
 70
     0
 62
     7
  6
Continuous
370
    -3
390
F
  0
LAYER
  5
3BE
330
2
100
AcDbSymbolTableRecord
100
AcDbLayerTableRecord
  2
SPEC
 70
     0
 62
     1
  6
Continuous
370
    -3
390
F
  0
LAYER
  5
3BF
330
2
100
AcDbSymbolTableRecord
100
AcDbLayerTableRecord
  2
CENTER
 70
     0
 62
   252
  6
CENTER2
370
    -3
390
F
  0
LAYER
  5
3C0
330
2
100
AcDbSymbolTableRecord
100
AcDbLayerTableRecord
  2
DATA
 70
     0
 62
     6
  6
Continuous
370
    -3
390
F
  0
LAYER
  5
3C1
330
2
100
AcDbSymbolTableRecord
100
AcDbLayerTableRecord
  2
DIM
 70
     0
 62
     3
  6
Continuous
370
    -3
390
F
  0
LAYER
  5
3C2
330
2
100
AcDbSymbolTableRecord
100
AcDbLayerTableRecord
  2
Defpoints
 70
     0
 62
     7
  6
Continuous
290
     0
370
    -3
390
F
  0
LAYER
  5
3C3
330
2
100
AcDbSymbolTableRecord
100
AcDbLayerTableRecord
  2
FRAME
 70
     0
 62
     1
  6
Continuous
370
    -3
390
F
  0
LAYER
  5
3C4
330
2
100
AcDbSymbolTableRecord
100
AcDbLayerTableRecord
  2
CONNECTOR
 70
     0
 62
     2
  6
Continuous
370
    -3
390
F
  0
LAYER
  5
3C5
330
2
100
AcDbSymbolTableRecord
100
AcDbLayerTableRecord
  2
SCHRIFT
 70
     0
 62
     1
  6
Continuous
370
    -3
390
F
  0
LAYER
  5
3E62
330
2
100
AcDbSymbolTableRecord
100
AcDbLayerTableRecord
  2
AM_VIEWS
 70
     0
 62
     1
  6
Continuous
370
    25
390
F
1001
AcAecLayerStandard
1000

1000

  0
LAYER
  5
41F0
330
2
100
AcDbSymbolTableRecord
100
AcDbLayerTableRecord
  2
AM_5
 70
     0
 62
     3
  6
Continuous
370
    25
390
F
1001
AcAecLayerStandard
1000

1000

  0
LAYER
  5
5549
330
2
100
AcDbSymbolTableRecord
100
AcDbLayerTableRecord
  2
AM_0
 70
     0
 62
     7
  6
Continuous
370
    50
390
F
1001
AcAecLayerStandard
1000

1000

  0
LAYER
  5
554B
330
2
100
AcDbSymbolTableRecord
100
AcDbLayerTableRecord
  2
AM_3
 70
     0
 62
     6
  6
AM_ISO02W050
370
    25
390
F
1001
AcAecLayerStandard
1000

1000

  0
ENDTAB
  0
TABLE
  2
STYLE
  5
3
330
0
100
AcDbSymbolTable
 70
    11
  0
STYLE
  5
11
330
3
100
AcDbSymbolTableRecord
100
AcDbTextStyleTableRecord
  2
STANDARD
 70
     0
 40
0.0
 41
1.0
 50
0.0
 71
     0
 42
2.399999999999999
  3
ARIAL.TTF
  4

1001
ACAD
1000
Arial
1071
       34
  0
STYLE
  5
6B
330
3
100
AcDbSymbolTableRecord
100
AcDbTextStyleTableRecord
  2

 70
     1
 40
0.0
 41
1.0
 50
0.0
 71
     0
 42
2.5
  3
ltypeshp.shx
  4

  0
STYLE
  5
6D
330
3
100
AcDbSymbolTableRecord
100
AcDbTextStyleTableRecord
  2
ACISOTS
 70
     0
 40
1.0
 41
1.0
 50
0.0
 71
     0
 42
2.5
  3
isocp.shx
  4
bigfont.shx
  0
STYLE
  5
79
330
3
100
AcDbSymbolTableRecord
100
AcDbTextStyleTableRecord
  2
ACISOGDT
 70
     0
 40
0.0
 41
1.0
 50
0.0
 71
     0
 42
2.5
  3
AMGDT
  4
bigfont.shx
  0
STYLE
  5
1ED
330
3
100
AcDbSymbolTableRecord
100
AcDbTextStyleTableRecord
  2
USER1
 70
     0
 40
0.0
 41
1.0
 50
0.0
 71
     0
 42
2.5
  3
TXT.SHX
  4
bigfont.shx
  0
STYLE
  5
1EE
330
3
100
AcDbSymbolTableRecord
100
AcDbTextStyleTableRecord
  2
USER2
 70
     0
 40
0.0
 41
1.0
 50
0.0
 71
     0
 42
2.5
  3
SIMPLEX.SHX
  4
bigfont.shx
  0
STYLE
  5
1EF
330
3
100
AcDbSymbolTableRecord
100
AcDbTextStyleTableRecord
  2
USER3
 70
     0
 40
0.0
 41
1.0
 50
0.0
 71
     0
 42
2.5
  3
ITALIC.SHX
  4
bigfont.shx
  0
STYLE
  5
22C
330
3
100
AcDbSymbolTableRecord
100
AcDbTextStyleTableRecord
  2

 70
     1
 40
0.0
 41
1.0
 50
0.0
 71
     0
 42
2.5
  3
genltshp.shx
  4

  0
STYLE
  5
3C6
330
3
100
AcDbSymbolTableRecord
100
AcDbTextStyleTableRecord
  2
ITALICT
 70
     0
 40
2.0
 41
1.0
 50
0.0
 71
     0
 42
2.0
  3
ITALICT.shx
  4

  0
STYLE
  5
3C7
330
3
100
AcDbSymbolTableRecord
100
AcDbTextStyleTableRecord
  2
ROMANS
 70
     0
 40
0.0
 41
0.8
 50
0.0
 71
     0
 42
3.0
  3
romans.shx
  4

  0
ENDTAB
  0
TABLE
  2
VIEW
  5
6
330
0
100
AcDbSymbolTable
 70
     2
  0
ENDTAB
  0
TABLE
  2
UCS
  5
7
330
0
100
AcDbSymbolTable
 70
     0
  0
ENDTAB
  0
TABLE
  2
APPID
  5
9
330
0
100
AcDbSymbolTable
 70
    29
  0
APPID
  5
12
330
9
100
AcDbSymbolTableRecord
100
AcDbRegAppTableRecord
  2
ACAD
 70
     0
  0
APPID
  5
46
330
9
100
AcDbSymbolTableRecord
100
AcDbRegAppTableRecord
  2
MCAD_NO_VIS
 70
     0
  0
APPID
  5
47
330
9
100
AcDbSymbolTableRecord
100
AcDbRegAppTableRecord
  2
ACAD_TEMP_GRAPHIC
 70
     0
  0
APPID
  5
58
330
9
100
AcDbSymbolTableRecord
100
AcDbRegAppTableRecord
  2
ACATTRIBSERVICES
 70
     0
  0
APPID
  5
EE
330
9
100
AcDbSymbolTableRecord
100
AcDbRegAppTableRecord
  2
AD_DRAW
 70
     0
  0
APPID
  5
10C
330
9
100
AcDbSymbolTableRecord
100
AcDbRegAppTableRecord
  2
DESIGNERASSEMBLIES
 70
     0
  0
APPID
  5
111
330
9
100
AcDbSymbolTableRecord
100
AcDbRegAppTableRecord
  2
ACADM_DIM_EDIT
 70
     0
  0
APPID
  5
112
330
9
100
AcDbSymbolTableRecord
100
AcDbRegAppTableRecord
  2
AMDT_DM_ADJ
 70
     0
  0
APPID
  5
1A3
330
9
100
AcDbSymbolTableRecord
100
AcDbRegAppTableRecord
  2
ACAD_DSTYLE_DIMARC_LENGTH_SYMBOL
 70
     0
  0
APPID
  5
1A4
330
9
100
AcDbSymbolTableRecord
100
AcDbRegAppTableRecord
  2
ACAD_DSTYLE_DIMJOGGED_JOGANGLE_SYMBOL
 70
     0
  0
APPID
  5
2D9
330
9
100
AcDbSymbolTableRecord
100
AcDbRegAppTableRecord
  2
ACAD_PSEXT
 70
     0
  0
APPID
  5
9AB
330
9
100
AcDbSymbolTableRecord
100
AcDbRegAppTableRecord
  2
ACAD_EXEMPT_FROM_CAD_STANDARDS
 70
     0
  0
APPID
  5
218E
330
9
100
AcDbSymbolTableRecord
100
AcDbRegAppTableRecord
  2
ACAD_DSTYLE_DIMTEXT_FILL
 70
     0
  0
APPID
  5
218F
330
9
100
AcDbSymbolTableRecord
100
AcDbRegAppTableRecord
  2
ACAD_DSTYLE_DIMEXT_LENGTH
 70
     0
  0
APPID
  5
2190
330
9
100
AcDbSymbolTableRecord
100
AcDbRegAppTableRecord
  2
ACAD_DSTYLE_DIMEXT_ENABLED
 70
     0
  0
APPID
  5
2191
330
9
100
AcDbSymbolTableRecord
100
AcDbRegAppTableRecord
  2
ACAD_DSTYLE_DIM_LINETYPE
 70
     0
  0
APPID
  5
2192
330
9
100
AcDbSymbolTableRecord
100
AcDbRegAppTableRecord
  2
ACAD_DSTYLE_DIM_EXT1_LINETYPE
 70
     0
  0
APPID
  5
2193
330
9
100
AcDbSymbolTableRecord
100
AcDbRegAppTableRecord
  2
ACAD_DSTYLE_DIM_EXT2_LINETYPE
 70
     0
  0
APPID
  5
3E63
330
9
100
AcDbSymbolTableRecord
100
AcDbRegAppTableRecord
  2
AcAecLayerStandard
 70
     0
  0
APPID
  5
3E64
330
9
100
AcDbSymbolTableRecord
100
AcDbRegAppTableRecord
  2
GENIUS_GENSCREG_15
 70
     0
  0
APPID
  5
3E65
330
9
100
AcDbSymbolTableRecord
100
AcDbRegAppTableRecord
  2
GENIUS_GENOBJ-N-SDF_13
 70
     0
  0
APPID
  5
3E66
330
9
100
AcDbSymbolTableRecord
100
AcDbRegAppTableRecord
  2
GENIUS_GENODEF_13
 70
     0
  0
APPID
  5
4E53
330
9
100
AcDbSymbolTableRecord
100
AcDbRegAppTableRecord
  2
GENIUS_GENREC_14
 70
     0
  0
APPID
  5
4E54
330
9
100
AcDbSymbolTableRecord
100
AcDbRegAppTableRecord
  2
GENIUS_GENOBJ-N-REC_13
 70
     0
  0
APPID
  5
4EB8
330
9
100
AcDbSymbolTableRecord
100
AcDbRegAppTableRecord
  2
GENIUS_GENDTOL_13
 70
     0
  0
APPID
  5
53A4
330
9
100
AcDbSymbolTableRecord
100
AcDbRegAppTableRecord
  2
GENIUS_GENFIL_13
 70
     0
  0
APPID
  5
53A5
330
9
100
AcDbSymbolTableRecord
100
AcDbRegAppTableRecord
  2
GENIUS_GENOBJ-N-CHA_13
 70
     0
  0
APPID
  5
59EC
330
9
100
AcDbSymbolTableRecord
100
AcDbRegAppTableRecord
  2
GENIUS_GENOBJ-N-FIL_13
 70
     0
  0
APPID
  5
5BA2
330
9
100
AcDbSymbolTableRecord
100
AcDbRegAppTableRecord
  2
RAK
 70
     0
  0
ENDTAB
  0
TABLE
  2
DIMSTYLE
  5
A
330
0
100
AcDbSymbolTable
 70
    10
100
AcDbDimStyleTable
 71
     4
340
3C8
340
8B
340
86
340
81
  0
DIMSTYLE
105
81
330
A
100
AcDbSymbolTableRecord
100
AcDbDimStyleTableRecord
  2
AM_ISO
 70
     0
  4
"
 41
2.5
 42
1.0
 43
10.0
 44
1.0
 47
0.1
 48
0.1
 73
     0
 74
     0
 77
     1
 78
     8
 79
     2
140
3.5
141
0.0
143
0.0393701
146
0.71
147
1.5
172
     1
176
   256
177
   256
178
     2
271
     2
272
     3
274
     4
283
     0
284
     8
340
11
371
    -1
372
    -1
1001
ACAD_DSTYLE_DIMARC_LENGTH_SYMBOL
1070
   379
1070
     1
1001
ACAD_DSTYLE_DIMJOGGED_JOGANGLE_SYMBOL
1070
   384
1040
0.7853981633974483
  0
DIMSTYLE
105
82
330
A
100
AcDbSymbolTableRecord
100
AcDbDimStyleTableRecord
  2
AM_ISO$3
 70
     0
  4
"
 41
2.5
 42
1.0
 43
10.0
 44
1.0
 47
0.1
 48
0.1
 73
     0
 77
     1
 78
     8
 79
     2
140
3.5
141
0.0
143
0.0393701
146
0.71
147
1.5
176
   256
177
   256
178
     2
271
     2
272
     3
274
     4
283
     0
284
     8
288
     1
289
     0
340
11
371
    -1
372
    -1
1001
ACAD_DSTYLE_DIMARC_LENGTH_SYMBOL
1070
   379
1070
     1
1001
ACAD_DSTYLE_DIMJOGGED_JOGANGLE_SYMBOL
1070
   384
1040
0.7853981633974483
  0
DIMSTYLE
105
83
330
A
100
AcDbSymbolTableRecord
100
AcDbDimStyleTableRecord
  2
AM_ISO$4
 70
     0
  4
"
 41
2.5
 42
1.0
 43
10.0
 44
1.0
 47
0.1
 48
0.1
 73
     0
 77
     1
 78
     8
 79
     2
140
3.5
141
0.0
143
0.0393701
146
0.71
147
1.5
176
   256
177
   256
178
     2
271
     2
272
     3
274
     4
283
     0
284
     8
288
     1
289
     0
340
11
371
    -1
372
    -1
1001
ACAD_DSTYLE_DIMARC_LENGTH_SYMBOL
1070
   379
1070
     1
1001
ACAD_DSTYLE_DIMJOGGED_JOGANGLE_SYMBOL
1070
   384
1040
0.7853981633974483
  0
DIMSTYLE
105
84
330
A
100
AcDbSymbolTableRecord
100
AcDbDimStyleTableRecord
  2
AM_ISO$6
 70
     0
  4
"
 41
2.5
 42
1.0
 43
10.0
 44
1.0
 47
0.1
 48
0.1
 73
     0
 74
     0
 78
     8
 79
     2
140
3.5
141
0.0
143
0.0393701
146
0.71
147
1.5
172
     1
176
   256
177
   256
178
     2
271
     2
272
     3
274
     4
283
     0
284
     8
340
11
371
    -1
372
    -1
1001
ACAD_DSTYLE_DIMARC_LENGTH_SYMBOL
1070
   379
1070
     1
1001
ACAD_DSTYLE_DIMJOGGED_JOGANGLE_SYMBOL
1070
   384
1040
0.7853981633974483
  0
DIMSTYLE
105
85
330
A
100
AcDbSymbolTableRecord
100
AcDbDimStyleTableRecord
  2
AM_ISO$7
 70
     0
  4
"
 41
2.5
 42
1.0
 43
10.0
 44
1.0
 47
0.1
 48
0.1
 73
     0
 74
     0
 77
     1
 78
     8
 79
     2
140
5.0
141
0.0
143
0.0393701
146
0.71
147
1.5
172
     1
176
   256
177
   256
178
     2
271
     2
272
     3
274
     4
283
     0
284
     8
340
11
371
    -1
372
    -1
1001
ACAD_DSTYLE_DIMARC_LENGTH_SYMBOL
1070
   379
1070
     1
1001
ACAD_DSTYLE_DIMJOGGED_JOGANGLE_SYMBOL
1070
   384
1040
0.7853981633974483
  0
DIMSTYLE
105
86
330
A
100
AcDbSymbolTableRecord
100
AcDbDimStyleTableRecord
  2
AM_ISO$SF
 70
     0
  4
"
 41
2.5
 42
1.0
 43
10.0
 44
1.0
 47
0.1
 48
0.1
 73
     0
 74
     0
 75
     1
 76
     1
 77
     1
 78
     8
 79
     2
140
3.5
141
0.0
143
0.0393701
146
0.71
147
1.5
172
     1
176
   256
177
   256
178
     2
271
     2
272
     3
274
     4
283
     0
284
     8
340
11
371
    -1
372
    -1
1001
ACAD_DSTYLE_DIMARC_LENGTH_SYMBOL
1070
   379
1070
     1
1001
ACAD_DSTYLE_DIMJOGGED_JOGANGLE_SYMBOL
1070
   384
1040
0.7853981633974483
  0
DIMSTYLE
105
8B
330
A
100
AcDbSymbolTableRecord
100
AcDbDimStyleTableRecord
  2
AM_ISO$SH
 70
     0
  4
"
 41
2.5
 42
1.0
 43
10.0
 44
1.0
 47
0.1
 48
0.1
 73
     0
 74
     0
 75
     1
 76
     1
 77
     1
 78
     8
 79
     2
140
3.5
141
0.0
143
0.0393701
144
2.0
146
0.71
147
1.5
172
     1
173
     1
176
   256
177
   256
178
     2
271
     2
272
     3
274
     4
283
     0
284
     8
340
11
343
87
371
    -1
372
    -1
1001
ACAD_DSTYLE_DIMARC_LENGTH_SYMBOL
1070
   379
1070
     1
1001
ACAD_DSTYLE_DIMJOGGED_JOGANGLE_SYMBOL
1070
   384
1040
0.7853981633974483
  0
DIMSTYLE
105
3C8
102
{ACAD_REACTORS
330
19C9
330
19F4
330
2E07
330
2E09
330
2E0A
330
2E5C
330
5DF3
330
5DF4
330
5DF5
330
5DA5
330
5DBE
330
5DC0
330
5DC1
330
5DD5
102
}
330
A
100
AcDbSymbolTableRecord
100
AcDbDimStyleTableRecord
  2
STANDARD
 70
     0
 41
3.0
 42
1.0
 43
1.0
 44
1.0
 48
0.000000001
 73
     0
 74
     0
 77
     1
 78
     8
140
3.0
141
-0.05
145
5.0
146
0.8
147
1.0
172
     1
176
     3
177
     3
178
     6
271
     2
272
     2
284
     8
340
11
371
    -1
1001
ACAD_DSTYLE_DIMEXT_LENGTH
1070
   378
1040
1.0
1001
ACAD_DSTYLE_DIMEXT_ENABLED
1070
   383
1070
     0
1001
ACAD_DSTYLE_DIMARC_LENGTH_SYMBOL
1070
   379
1070
     0
1001
ACAD_DSTYLE_DIMJOGGED_JOGANGLE_SYMBOL
1070
   384
1040
1.570796326794896
  0
DIMSTYLE
105
4DBB
102
{ACAD_REACTORS
330
19C9
330
5894
330
5E24
330
5E27
102
}
330
A
100
AcDbSymbolTableRecord
100
AcDbDimStyleTableRecord
  2
STANDARD$0
 70
     0
 41
3.0
 42
1.0
 43
1.0
 44
1.0
 48
0.000000001
 73
     0
 74
     0
 77
     1
 78
     8
140
3.0
141
-0.05
145
5.0
146
0.8
147
1.0
172
     1
176
     3
177
     3
178
     6
271
     2
272
     2
284
     8
340
11
371
    -1
1001
ACAD_DSTYLE_DIMEXT_LENGTH
1070
   378
1040
1.0
1001
ACAD_DSTYLE_DIMEXT_ENABLED
1070
   383
1070
     0
1001
ACAD_DSTYLE_DIMARC_LENGTH_SYMBOL
1070
   379
1070
     0
1001
ACAD_DSTYLE_DIMJOGGED_JOGANGLE_SYMBOL
1070
   384
1040
1.570796326794896
  0
ENDTAB
  0
TABLE
  2
BLOCK_RECORD
  5
1
330
0
100
AcDbSymbolTable
 70
    19
  0
BLOCK_RECORD
  5
1F
102
{ACAD_XDICTIONARY
360
8F
102
}
330
1
100
AcDbSymbolTableRecord
100
AcDbBlockTableRecord
  2
*Model_Space
340
22
  0
BLOCK_RECORD
  5
1B
102
{ACAD_XDICTIONARY
360
2D9F
102
}
330
1
100
AcDbSymbolTableRecord
100
AcDbBlockTableRecord
  2
*Paper_Space
340
1E
  0
BLOCK_RECORD
  5
87
330
1
100
AcDbSymbolTableRecord
100
AcDbBlockTableRecord
  2
GENAXEH
340
0
  0
BLOCK_RECORD
  5
2FB
330
1
100
AcDbSymbolTableRecord
100
AcDbBlockTableRecord
  2
_DatumFilled
340
0
  0
BLOCK_RECORD
  5
2FF
330
1
100
AcDbSymbolTableRecord
100
AcDbBlockTableRecord
  2
_None
340
0
  0
BLOCK_RECORD
  5
125D
102
{ACAD_XDICTIONARY
360
128A
102
}
330
1
100
AcDbSymbolTableRecord
100
AcDbBlockTableRecord
  2
A$C75C560CA
340
0
1001
ACAD
1000
DesignCenter Data
1002
{
1070
     1
1070
     4
1002
}
  0
BLOCK_RECORD
  5
1A4C
330
1
100
AcDbSymbolTableRecord
100
AcDbBlockTableRecord
  2
*D5
340
0
  0
BLOCK_RECORD
  5
2CC0
102
{ACAD_XDICTIONARY
360
2CC2
102
}
330
1
100
AcDbSymbolTableRecord
100
AcDbBlockTableRecord
  2
A$C718C4946
340
0
1001
ACAD
1000
DesignCenter Data
1002
{
1070
     1
1070
     4
1002
}
  0
BLOCK_RECORD
  5
58C7
330
1
100
AcDbSymbolTableRecord
100
AcDbBlockTableRecord
  2
*D7
340
0
  0
BLOCK_RECORD
  5
5E89
330
1
100
AcDbSymbolTableRecord
100
AcDbBlockTableRecord
  2
*D8
340
0
  0
BLOCK_RECORD
  5
5E95
330
1
100
AcDbSymbolTableRecord
100
AcDbBlockTableRecord
  2
*D9
340
0
  0
BLOCK_RECORD
  5
5EA1
330
1
100
AcDbSymbolTableRecord
100
AcDbBlockTableRecord
  2
*D10
340
0
  0
BLOCK_RECORD
  5
5EAF
330
1
100
AcDbSymbolTableRecord
100
AcDbBlockTableRecord
  2
*D11
340
0
  0
BLOCK_RECORD
  5
5EBB
330
1
100
AcDbSymbolTableRecord
100
AcDbBlockTableRecord
  2
*D12
340
0
  0
BLOCK_RECORD
  5
5EC7
330
1
100
AcDbSymbolTableRecord
100
AcDbBlockTableRecord
  2
*D13
340
0
  0
BLOCK_RECORD
  5
5ED5
330
1
100
AcDbSymbolTableRecord
100
AcDbBlockTableRecord
  2
*D14
340
0
  0
BLOCK_RECORD
  5
5EE1
330
1
100
AcDbSymbolTableRecord
100
AcDbBlockTableRecord
  2
*D15
340
0
  0
BLOCK_RECORD
  5
5EEE
330
1
100
AcDbSymbolTableRecord
100
AcDbBlockTableRecord
  2
*D16
340
0
  0
BLOCK_RECORD
  5
5F19
330
1
100
AcDbSymbolTableRecord
100
AcDbBlockTableRecord
  2
*D17
340
0
  0
ENDTAB
  0
ENDSEC
  0
SECTION
  2
BLOCKS
  0
BLOCK
  5
20
330
1F
100
AcDbEntity
  8
0
100
AcDbBlockBegin
  2
*Model_Space
 70
     0
 10
0.0
 20
0.0
 30
0.0
  3
*Model_Space
  1

  0
ENDBLK
  5
21
330
1F
100
AcDbEntity
  8
0
100
AcDbBlockEnd
  0
BLOCK
  5
1C
330
1B
100
AcDbEntity
 67
     1
  8
0
100
AcDbBlockBegin
  2
*Paper_Space
 70
     0
 10
0.0
 20
0.0
 30
0.0
  3
*Paper_Space
  1

  0
ENDBLK
  5
1D
330
1B
100
AcDbEntity
 67
     1
  8
0
100
AcDbBlockEnd
  0
BLOCK
  5
89
330
87
100
AcDbEntity
  8
0
100
AcDbBlockBegin
  2
GENAXEH
 70
     0
 10
0.0
 20
0.0
 30
0.0
  3
GENAXEH
  1

  0
LINE
  5
88
330
87
100
AcDbEntity
  8
0
100
AcDbLine
 10
-1.0
 20
0.0
 30
0.0
 11
1.0
 21
0.0
 31
0.0
  0
ENDBLK
  5
8A
330
87
100
AcDbEntity
  8
0
100
AcDbBlockEnd
  0
BLOCK
  5
2FC
330
2FB
100
AcDbEntity
  8
0
100
AcDbBlockBegin
  2
_DatumFilled
 70
     0
 10
0.0
 20
0.0
 30
0.0
  3
_DatumFilled
  1

  0
SOLID
  5
2FD
330
2FB
100
AcDbEntity
  8
0
  6
ByBlock
 62
     0
100
AcDbTrace
 10
0.0
 20
0.5773502700000001
 30
0.0
 11
-1.0
 21
0.0
 31
0.0
 12
0.0
 22
-0.5773502700000001
 32
0.0
 13
0.0
 23
-0.5773502700000001
 33
0.0
  0
ENDBLK
  5
2FE
330
2FB
100
AcDbEntity
  8
0
100
AcDbBlockEnd
  0
BLOCK
  5
300
330
2FF
100
AcDbEntity
  8
0
100
AcDbBlockBegin
  2
_None
 70
     0
 10
0.0
 20
0.0
 30
0.0
  3
_None
  1

  0
ENDBLK
  5
301
330
2FF
100
AcDbEntity
  8
0
100
AcDbBlockEnd
  0
BLOCK
  5
128B
330
125D
100
AcDbEntity
  8
0
100
AcDbBlockBegin
  2
A$C75C560CA
 70
     0
 10
0.0
 20
0.0
 30
0.0
  3
A$C75C560CA
  1

  0
TEXT
  5
125E
330
125D
100
AcDbEntity
  8
FRAME
100
AcDbText
 10
198.0618690923416
 20
18.19796331725411
 30
0.0
 40
2.6
  1
M 1:1.5
 41
0.7
  7
ROMANS
100
AcDbText
  0
MTEXT
  5
125F
330
125D
100
AcDbEntity
  8
DIM
100
AcDbMText
 10
147.8052230115329
 20
14.75214036007798
 30
0.0
 40
2.0
 41
25.0
 71
     1
 72
     5
  1
X       %%p0.5\P1PL     %%p0.2\P2PL     %%p0.1\PANGLE   %%p30'
  7
ROMANS
 73
     1
 44
1.0
1001
ACAD
1000
MTEXTBEGIN
1070
    73
1070
     1
1070
    44
1040
1.0
1070
    74
1070
     0
1000
MTEXTEND
  0
LWPOLYLINE
  5
1260
330
125D
100
AcDbEntity
  8
SPEC
100
AcDbPolyline
 90
        2
 70
     0
 43
0.0
 10
46.10857599724545
 20
22.43272629327407
 10
107.7609609669623
 20
22.43272629327407
  0
LINE
  5
1261
330
125D
100
AcDbEntity
  8
SPEC
  6
HIDDEN
100
AcDbLine
 10
95.76650416238317
 20
4.962468073120362
 30
0.0
 11
130.435771777227
 21
4.962468073120362
 31
0.0
  0
TEXT
  5
1262
330
125D
100
AcDbEntity
  8
DATA
 62
     1
100
AcDbText
 10
93.21139064254088
 20
5.812552698566491
 30
0.0
 40
4.0
  1
(ST4018M0406-B)
 41
0.7
  7
ROMANS
100
AcDbText
  0
TEXT
  5
1263
330
125D
100
AcDbEntity
  8
DATA
 62
     1
100
AcDbText
 10
231.317878293991
 20
2.415962237127928
 30
0.0
 40
4.0
  1
ST4018M0406
 41
0.7
  7
ROMANS
100
AcDbText
  0
TEXT
  5
1264
330
125D
100
AcDbEntity
  8
DATA
 62
     1
100
AcDbText
 10
93.38807665210561
 20
11.87217307676974
 30
0.0
 40
4.0
  1
ST4018M0406-A
 41
0.7
  7
ROMANS
100
AcDbText
  0
LWPOLYLINE
  5
1265
330
125D
100
AcDbEntity
  8
SPEC
100
AcDbPolyline
 90
        2
 70
     0
 43
0.0
 10
0.0
 20
22.43272629327407
 10
46.20410858955392
 20
22.43272629327407
  0
LINE
  5
1266
330
125D
100
AcDbEntity
  8
DIM
100
AcDbLine
 10
146.5280168612521
 20
16.58038901312318
 30
0.0
 11
213.8442914438065
 21
16.58038901312318
 31
0.0
  0
LINE
  5
1267
330
125D
100
AcDbEntity
  8
DIM
100
AcDbLine
 10
228.8020370376457
 20
12.55466422304016
 30
0.0
 11
228.8020370376457
 21
0.466065179059342
 31
0.0
  0
LINE
  5
1268
330
125D
100
AcDbEntity
  8
DIM
100
AcDbLine
 10
195.7433482585834
 20
22.43272629327407
 30
0.0
 11
195.7433482585834
 21
0.0
 31
0.0
  0
LINE
  5
1269
330
125D
100
AcDbEntity
  8
DIM
100
AcDbLine
 10
178.9743605596215
 20
22.40187586043203
 30
0.0
 11
178.9743605596215
 21
6.730972725647461
 31
0.0
  0
LINE
  5
126A
330
125D
100
AcDbEntity
  8
DIM
100
AcDbLine
 10
167.6954380838244
 20
0.0
 30
0.0
 11
167.6954380838244
 21
22.32683486367228
 31
0.0
  0
LINE
  5
126B
330
125D
100
AcDbEntity
  8
DIM
100
AcDbLine
 10
167.9351755979376
 20
22.43272629327407
 30
0.0
 11
167.9351755979376
 21
0.0
 31
0.0
  0
LINE
  5
126C
330
125D
100
AcDbEntity
  8
DIM
100
AcDbLine
 10
213.8442921475325
 20
22.43272629327407
 30
0.0
 11
213.8442921475325
 21
0.0
 31
0.0
  0
LINE
  5
126D
330
125D
100
AcDbEntity
  8
DIM
100
AcDbLine
 10
74.01093817688343
 20
22.44942325395482
 30
0.0
 11
74.01093817688343
 21
0.0031114061869175
 31
0.0
  0
LINE
  5
126E
330
125D
100
AcDbEntity
  8
DIM
100
AcDbLine
 10
89.1300425376794
 20
22.44942325395482
 30
0.0
 11
89.1300425376794
 21
-0.0380746962764533
 31
0.0
  0
LINE
  5
126F
330
125D
100
AcDbEntity
  8
DIM
100
AcDbLine
 10
52.48454273927814
 20
22.43272629327407
 30
0.0
 11
52.48454273927814
 21
-0.0273489207340845
 31
0.0
  0
LINE
  5
1270
330
125D
100
AcDbEntity
  8
DIM
100
AcDbLine
 10
0.0
 20
22.43272629327407
 30
0.0
 11
292.2263229886494
 21
22.43272629327407
 31
0.0
  0
LINE
  5
1271
330
125D
100
AcDbEntity
  8
DIM
100
AcDbLine
 10
89.1300425376794
 20
17.17069886361321
 30
0.0
 11
0.1625959174562013
 21
17.17069886361321
 31
0.0
  0
LINE
  5
1272
330
125D
100
AcDbEntity
  8
DIM
100
AcDbLine
 10
0.1625959174562013
 20
11.90867143395235
 30
0.0
 11
89.1300425376794
 21
11.90867143395235
 31
0.0
  0
LINE
  5
1273
330
125D
100
AcDbEntity
  8
DIM
100
AcDbLine
 10
0.3324718815085816
 20
6.646644004291488
 30
0.0
 11
89.1300425376794
 21
6.646644004291488
 31
0.0
  0
LINE
  5
1274
330
125D
100
AcDbEntity
  8
DIM
100
AcDbLine
 10
11.37444121259409
 20
22.43272629327407
 30
0.0
 11
11.37444121259409
 21
0.0
 31
0.0
  0
LINE
  5
1275
330
125D
100
AcDbEntity
  8
DIM
100
AcDbLine
 10
213.8442921475325
 20
6.719875644631542
 30
0.0
 11
167.6954380838244
 21
6.719875644631542
 31
0.0
  0
LINE
  5
1276
330
125D
100
AcDbEntity
  8
DIM
100
AcDbLine
 10
167.6954380838244
 20
11.60070934481985
 30
0.0
 11
213.8442921475325
 21
11.60070934481985
 31
0.0
  0
TEXT
  5
1277
330
125D
100
AcDbEntity
  8
DIM
100
AcDbText
 10
149.3843128235895
 20
18.01141814143534
 30
0.0
 40
2.5
  1
SCALE FREE
 41
0.7
  7
ROMANS
 72
     2
 11
165.3009794902561
 21
18.01141814143534
 31
0.0
100
AcDbText
  0
LINE
  5
1278
330
125D
100
AcDbEntity
  8
DIM
100
AcDbLine
 10
146.5280168612521
 20
22.43272629327407
 30
0.0
 11
146.5280168612521
 21
0.0
 31
0.0
  0
TEXT
  5
1279
330
125D
100
AcDbEntity
  8
DIM
100
AcDbText
 10
75.4322038344294
 20
2.370654514404577
 30
0.0
 40
3.0
  1
APVD
 41
0.7
  7
ROMANS
100
AcDbText
  0
TEXT
  5
127A
330
125D
100
AcDbEntity
  8
DIM
100
AcDbText
 10
55.94274150779165
 20
2.370654514404577
 30
0.0
 40
3.0
  1
DATE
 41
0.7
  7
ROMANS
100
AcDbText
  0
TEXT
  5
127B
330
125D
100
AcDbEntity
  8
DIM
100
AcDbText
 10
14.2016707071748
 20
2.370654514404577
 30
0.0
 40
3.0
  1
DESCRIPTION
 41
0.7
  7
ROMANS
100
AcDbText
  0
TEXT
  5
127C
330
125D
100
AcDbEntity
  8
DIM
100
AcDbText
 10
2.706016815254362
 20
2.370654514404577
 30
0.0
 40
3.0
  1
REV
 41
0.7
  7
ROMANS
 72
     2
 11
8.406016815254361
 21
2.370654514404577
 31
0.0
100
AcDbText
  0
TEXT
  5
127D
330
125D
100
AcDbEntity
  8
DIM
100
AcDbText
 10
169.8977377686171
 20
17.46653611070155
 30
0.0
 40
3.0
  1
APVD
 41
0.7
  7
ROMANS
 72
     2
 11
177.3977377686171
 21
17.46653611070155
 31
0.0
100
AcDbText
  0
TEXT
  5
127E
330
125D
100
AcDbEntity
  8
DIM
100
AcDbText
 10
169.0333720135623
 20
12.69433802244657
 30
0.0
 40
3.0
  1
CHKD
 41
0.7
  7
ROMANS
 72
     2
 11
177.2333720135623
 21
12.69433802244657
 31
0.0
100
AcDbText
  0
TEXT
  5
127F
330
125D
100
AcDbEntity
  8
DIM
100
AcDbText
 10
170.0393831475915
 20
7.524456556443624
 30
0.0
 40
3.0
  1
DRN
 41
0.7
  7
ROMANS
 72
     2
 11
176.0393831475915
 21
7.524456556443624
 31
0.0
100
AcDbText
  0
TEXT
  5
1280
330
125D
100
AcDbEntity
  8
DIM
100
AcDbText
 10
172.2752627425855
 20
2.329814948448756
 30
0.0
 40
3.0
  1
SIGNATURE
 41
0.7
  7
ROMANS
 72
     2
 11
188.7752627425855
 21
2.329814948448756
 31
0.0
100
AcDbText
  0
TEXT
  5
1281
330
125D
100
AcDbEntity
  8
DIM
100
AcDbText
 10
201.0406724436551
 20
2.224204435222077
 30
0.0
 40
3.0
  1
DATE
 41
0.7
  7
ROMANS
 72
     2
 11
208.240672443655
 21
2.224204435222077
 31
0.0
100
AcDbText
  0
TEXT
  5
1282
330
125D
100
AcDbEntity
  8
DIM
100
AcDbText
 10
218.9507052575232
 20
15.70268350642743
 30
0.0
 40
3.799999999999999
  1
STEPPING MOTOR
 41
0.8
  7
ITALICT
 72
     2
 11
263.9716576384756
 21
15.70268350642743
 31
0.0
100
AcDbText
  0
LINE
  5
1283
330
125D
100
AcDbEntity
  8
DIM
100
AcDbLine
 10
213.8442921475325
 20
12.57581317811855
 30
0.0
 11
291.9564623227739
 21
12.57581317811855
 31
0.0
  0
TEXT
  5
1284
330
125D
100
AcDbEntity
  8
DIM
100
AcDbText
 10
229.779050611357
 20
8.525813178118596
 30
0.0
 40
2.5
  1
DWG.NO
 41
0.7
  7
ROMANS
 72
     2
 11
239.529050611357
 21
8.525813178118596
 31
0.0
100
AcDbText
  0
TEXT
  5
1285
330
125D
100
AcDbEntity
  8
DATA
 62
     1
100
AcDbText
 10
92.69009844013249
 20
17.14709370037587
 30
0.0
 40
3.0
  1
NANOTEC:
 41
0.7
  7
ROMANS
100
AcDbText
  0
TEXT
  5
1286
330
125D
100
AcDbEntity
  8
FRAME
100
AcDbText
 10
196.2632570647433
 20
7.811243394680104
 30
0.0
 40
2.6
  1
14.02.06
 41
0.7
  7
ROMANS
100
AcDbText
  0
LINE
  5
1287
330
125D
100
AcDbEntity
  8
SPEC
100
AcDbLine
 10
0.0
 20
22.43272629327407
 30
0.0
 11
0.0
 21
124.0795686925671
 31
0.0
  0
TEXT
  5
1288
330
125D
100
AcDbEntity
  8
DIM
100
AcDbText
 10
1.48247182125101
 20
198.3559972407229
 30
0.0
 40
3.0
  1
DIMENSION (UNIT : mm)
 41
0.7
  7
ROMANS
100
AcDbText
  0
LWPOLYLINE
  5
1289
330
125D
100
AcDbEntity
  8
DIM
 62
     4
100
AcDbPolyline
 90
        4
 70
     1
 43
0.6
 10
0.0
 20
202.9639180777265
 10
0.0
 20
0.0
 10
291.9564623227739
 20
0.0
 10
291.9564623227739
 20
202.9639180777265
  0
ENDBLK
  5
128C
330
125D
100
AcDbEntity
  8
0
100
AcDbBlockEnd
  0
BLOCK
  5
1A56
330
1A4C
100
AcDbEntity
  8
0
100
AcDbBlockBegin
  2
*D5
 70
     1
 10
0.0
 20
0.0
 30
0.0
  3
*D5
  1

  0
LINE
  5
6042
330
1A4C
100
AcDbEntity
  8
DIM
 62
     3
370
    -2
100
AcDbLine
 10
129.9063688288351
 20
73.09868988223387
 30
0.0
 11
129.9063688288351
 21
54.91119174080847
 31
0.0
  0
LINE
  5
6043
330
1A4C
100
AcDbEntity
  8
DIM
 62
     3
370
    -2
100
AcDbLine
 10
139.0972407104071
 20
59.09299455805125
 30
0.0
 11
139.0972407104071
 21
54.91119174080847
 31
0.0
  0
LINE
  5
6044
330
1A4C
100
AcDbEntity
  8
DIM
 62
     3
100
AcDbLine
 10
132.3063688288351
 20
55.91119174080848
 30
0.0
 11
139.0972407104071
 21
55.91119174080848
 31
0.0
  0
SOLID
  5
6045
330
1A4C
100
AcDbEntity
  8
DIM
 62
     3
100
AcDbTrace
 10
132.3063688288351
 20
56.31119174080847
 30
0.0
 11
132.3063688288351
 21
55.51119174080848
 31
0.0
 12
129.9063688288351
 22
55.91119174080848
 32
0.0
 13
129.9063688288351
 23
55.91119174080848
 33
0.0
  0
MTEXT
  5
6046
330
1A4C
100
AcDbEntity
  8
DIM
 62
     6
100
AcDbMText
 10
134.4901433864878
 20
58.11119174080848
 30
0.0
 40
2.399999999999999
 41
0.0
 71
     5
 72
     1
  1
\A1;a
  7
ROMANS
 73
     1
 44
1.0
1001
ACAD
1000
MTEXTBEGIN
1070
    73
1070
     1
1070
    44
1040
1.0
1070
    74
1070
     0
1000
MTEXTEND
  0
POINT
  5
6047
330
1A4C
100
AcDbEntity
  8
Defpoints
 62
     0
100
AcDbPoint
 10
129.9063688288351
 20
74.09868988223387
 30
0.0
  0
POINT
  5
6048
330
1A4C
100
AcDbEntity
  8
Defpoints
 62
     0
100
AcDbPoint
 10
139.0972407104071
 20
60.09299455805124
 30
0.0
  0
POINT
  5
6049
330
1A4C
100
AcDbEntity
  8
Defpoints
 62
     0
100
AcDbPoint
 10
139.0972407104071
 20
55.91119174080848
 30
0.0
  0
ENDBLK
  5
1A57
330
1A4C
100
AcDbEntity
  8
0
100
AcDbBlockEnd
  0
BLOCK
  5
2CC3
330
2CC0
100
AcDbEntity
  8
0
100
AcDbBlockBegin
  2
A$C718C4946
 70
     0
 10
0.0
 20
0.0
 30
0.0
  3
A$C718C4946
  1

  0
TEXT
  5
2CC1
330
2CC0
100
AcDbEntity
  8
DATA
100
AcDbText
 10
-0.3199997827265406
 20
-0.0000001889967507
 30
0.0
 40
2.4
  1
60%%P15%
 41
0.7
  7
ROMANS
100
AcDbText
  0
ENDBLK
  5
2CC4
330
2CC0
100
AcDbEntity
  8
0
100
AcDbBlockEnd
  0
BLOCK
  5
58CE
330
58C7
100
AcDbEntity
  8
0
100
AcDbBlockBegin
  2
*D7
 70
     1
 10
0.0
 20
0.0
 30
0.0
  3
*D7
  1

  0
LINE
  5
58D0
330
58C7
100
AcDbEntity
  8
AM_5
 62
     3
100
AcDbLine
 10
122.7085668857451
 20
75.91139921940916
 30
0.0
 11
116.061486709883
 21
75.91139921940916
 31
0.0
  0
SOLID
  5
58D1
330
58C7
100
AcDbEntity
  8
AM_5
 62
     3
100
AcDbTrace
 10
122.7085668857451
 20
76.41139921940916
 30
0.0
 11
122.7085668857451
 21
75.41139921940916
 31
0.0
 12
125.7085668857451
 22
75.91139921940916
 32
0.0
 13
125.7085668857451
 23
75.91139921940916
 33
0.0
  0
SOLID
  5
58D2
330
58C7
100
AcDbEntity
  8
AM_5
 62
     3
100
AcDbTrace
 10
116.061486709883
 20
76.41139921940916
 30
0.0
 11
116.061486709883
 21
75.41139921940916
 31
0.0
 12
113.061486709883
 22
75.91139921940916
 32
0.0
 13
113.061486709883
 23
75.91139921940916
 33
0.0
  0
POINT
  5
58D3
330
58C7
100
AcDbEntity
  8
Defpoints
 62
     0
100
AcDbPoint
 10
125.7085668857451
 20
75.91139921940919
 30
0.0
  0
POINT
  5
58D4
330
58C7
100
AcDbEntity
  8
Defpoints
 62
     0
100
AcDbPoint
 10
113.061486709883
 20
75.91139921940916
 30
0.0
  0
POINT
  5
58D5
330
58C7
100
AcDbEntity
  8
Defpoints
 62
     0
100
AcDbPoint
 10
113.061486709883
 20
75.91139921940916
 30
0.0
  0
ENDBLK
  5
58CF
330
58C7
100
AcDbEntity
  8
0
100
AcDbBlockEnd
  0
BLOCK
  5
5E93
330
5E89
100
AcDbEntity
  8
0
100
AcDbBlockBegin
  2
*D8
 70
     1
 10
0.0
 20
0.0
 30
0.0
  3
*D8
  1

  0
LINE
  5
5EFC
330
5E89
100
AcDbEntity
  8
DIM
  6
ACISOTGL
 62
     3
370
    -2
100
AcDbLine
 10
989.1801307066037
 20
581.0692171061401
 30
0.0
 11
989.1801307066037
 21
606.1743455384263
 31
0.0
  0
LINE
  5
5EFD
330
5E89
100
AcDbEntity
  8
DIM
  6
ACISOTGL
 62
     3
370
    -2
100
AcDbLine
 10
1008.230130706604
 20
581.0692171061399
 30
0.0
 11
1008.230130706604
 21
606.1743455384263
 31
0.0
  0
LINE
  5
5EFE
330
5E89
100
AcDbEntity
  8
DIM
  6
ACISOTGL
 62
     3
100
AcDbLine
 10
992.1801307066036
 20
605.1743455384263
 30
0.0
 11
1005.230130706604
 21
605.1743455384263
 31
0.0
  0
SOLID
  5
5EFF
330
5E89
100
AcDbEntity
  8
DIM
  6
ACISOTGL
 62
     3
100
AcDbTrace
 10
992.1801307066036
 20
605.6743455384263
 30
0.0
 11
992.1801307066036
 21
604.6743455384263
 31
0.0
 12
989.1801307066037
 22
605.1743455384263
 32
0.0
 13
989.1801307066037
 23
605.1743455384263
 33
0.0
  0
SOLID
  5
5F00
330
5E89
100
AcDbEntity
  8
DIM
  6
ACISOTGL
 62
     3
100
AcDbTrace
 10
1005.230130706604
 20
605.6743455384263
 30
0.0
 11
1005.230130706604
 21
604.6743455384263
 31
0.0
 12
1008.230130706604
 22
605.1743455384263
 32
0.0
 13
1008.230130706604
 23
605.1743455384263
 33
0.0
  0
MTEXT
  5
5F01
330
5E89
100
AcDbEntity
  8
DIM
  6
ACISOTGL
 62
     6
100
AcDbMText
 10
998.756246733417
 20
607.7060645015913
 30
0.0
 40
3.0
 41
0.0
 71
     5
 72
     1
  1
\A1;19.05
 73
     1
 44
1.0
1001
ACAD
1000
MTEXTBEGIN
1070
    73
1070
     1
1070
    44
1040
1.0
1070
    74
1070
     0
1000
MTEXTEND
  0
POINT
  5
5F02
330
5E89
100
AcDbEntity
  8
Defpoints
  6
ACISOTGL
 62
     0
100
AcDbPoint
 10
989.1801307066037
 20
580.0692171061402
 30
0.0
  0
POINT
  5
5F03
330
5E89
100
AcDbEntity
  8
Defpoints
  6
ACISOTGL
 62
     0
100
AcDbPoint
 10
1008.230130706604
 20
580.0692171061399
 30
0.0
  0
POINT
  5
5F04
330
5E89
100
AcDbEntity
  8
Defpoints
  6
ACISOTGL
 62
     0
100
AcDbPoint
 10
1008.230130706604
 20
605.1743455384263
 30
0.0
  0
ENDBLK
  5
5E94
330
5E89
100
AcDbEntity
  8
0
100
AcDbBlockEnd
  0
BLOCK
  5
5E9F
330
5E95
100
AcDbEntity
  8
0
100
AcDbBlockBegin
  2
*D9
 70
     1
 10
0.0
 20
0.0
 30
0.0
  3
*D9
  1

  0
LINE
  5
5F05
330
5E95
100
AcDbEntity
  8
DIM
  6
ACISOTGL
 62
     3
370
    -2
100
AcDbLine
 10
910.7276012957104
 20
583.4501694918542
 30
0.0
 11
910.7276012957104
 21
612.5223133187754
 31
0.0
  0
LINE
  5
5F06
330
5E95
100
AcDbEntity
  8
DIM
  6
ACISOTGL
 62
     3
370
    -2
100
AcDbLine
 10
897.2304584385677
 20
600.4692171061399
 30
0.0
 11
897.2304584385677
 21
612.5223133187754
 31
0.0
  0
LINE
  5
5F07
330
5E95
100
AcDbEntity
  8
DIM
  6
ACISOTGL
 62
     3
100
AcDbLine
 10
907.7276012957105
 20
611.5223133187754
 30
0.0
 11
900.2304584385676
 21
611.5223133187754
 31
0.0
  0
SOLID
  5
5F08
330
5E95
100
AcDbEntity
  8
DIM
  6
ACISOTGL
 62
     3
100
AcDbTrace
 10
907.7276012957105
 20
612.0223133187754
 30
0.0
 11
907.7276012957105
 21
611.0223133187754
 31
0.0
 12
910.7276012957104
 22
611.5223133187754
 32
0.0
 13
910.7276012957104
 23
611.5223133187754
 33
0.0
  0
SOLID
  5
5F09
330
5E95
100
AcDbEntity
  8
DIM
  6
ACISOTGL
 62
     3
100
AcDbTrace
 10
900.2304584385676
 20
612.0223133187754
 30
0.0
 11
900.2304584385676
 21
611.0223133187754
 31
0.0
 12
897.2304584385677
 22
611.5223133187754
 32
0.0
 13
897.2304584385677
 23
611.5223133187754
 33
0.0
  0
MTEXT
  5
5F0A
330
5E95
100
AcDbEntity
  8
DIM
  6
ACISOTGL
 62
     6
100
AcDbMText
 10
903.4533302571711
 20
614.0550554743007
 30
0.0
 40
3.0
 41
0.0
 71
     5
 72
     1
  1
\A1;13.5{\H2.400000;±1}
 73
     1
 44
1.0
1001
ACAD
1000
MTEXTBEGIN
1070
    73
1070
     1
1070
    44
1040
1.0
1070
    74
1070
     0
1000
MTEXTEND
  0
POINT
  5
5F0B
330
5E95
100
AcDbEntity
  8
Defpoints
  6
ACISOTGL
 62
     0
100
AcDbPoint
 10
910.7276012957104
 20
582.4501694918542
 30
0.0
  0
POINT
  5
5F0C
330
5E95
100
AcDbEntity
  8
Defpoints
  6
ACISOTGL
 62
     0
100
AcDbPoint
 10
897.2304584385677
 20
599.4692171061399
 30
0.0
  0
POINT
  5
5F0D
330
5E95
100
AcDbEntity
  8
Defpoints
  6
ACISOTGL
 62
     0
100
AcDbPoint
 10
897.2304584385677
 20
611.5223133187754
 30
0.0
  0
ENDBLK
  5
5EA0
330
5E95
100
AcDbEntity
  8
0
100
AcDbBlockEnd
  0
BLOCK
  5
5EAD
330
5EA1
100
AcDbEntity
  8
0
100
AcDbBlockBegin
  2
*D10
 70
     1
 10
0.0
 20
0.0
 30
0.0
  3
*D10
  1

  0
LINE
  5
5F0E
330
5EA1
100
AcDbEntity
  8
DIM
  6
ACISOTGL
 62
     3
370
    -2
100
AcDbLine
 10
911.7276012957104
 20
577.5692171061399
 30
0.0
 11
922.2001513067906
 21
577.5692171061399
 31
0.0
  0
LINE
  5
5F0F
330
5EA1
100
AcDbEntity
  8
DIM
  6
ACISOTGL
 62
     3
370
    -2
100
AcDbLine
 10
911.7276012957104
 20
582.5692171061403
 30
0.0
 11
922.2001513067906
 21
582.5692171061403
 31
0.0
  0
LINE
  5
5F10
330
5EA1
100
AcDbEntity
  8
DIM
  6
ACISOTGL
 62
     3
100
AcDbLine
 10
921.2001513067907
 20
574.5692171061399
 30
0.0
 11
921.2001513067907
 21
571.5692171061399
 31
0.0
  0
LINE
  5
5F11
330
5EA1
100
AcDbEntity
  8
DIM
  6
ACISOTGL
 62
     3
100
AcDbLine
 10
921.2001513067907
 20
585.5692171061402
 30
0.0
 11
921.2001513067907
 21
611.2623990767304
 31
0.0
  0
LINE
  5
5F12
330
5EA1
100
AcDbEntity
  8
DIM
  6
ACISOTGL
 62
     3
100
AcDbLine
 10
921.2001513067907
 20
577.5692171061399
 30
0.0
 11
921.2001513067907
 21
582.5692171061403
 31
0.0
  0
SOLID
  5
5F13
330
5EA1
100
AcDbEntity
  8
DIM
  6
ACISOTGL
 62
     3
100
AcDbTrace
 10
920.7001513067908
 20
574.5692171061399
 30
0.0
 11
921.7001513067907
 21
574.5692171061399
 31
0.0
 12
921.2001513067907
 22
577.5692171061399
 32
0.0
 13
921.2001513067907
 23
577.5692171061399
 33
0.0
  0
SOLID
  5
5F14
330
5EA1
100
AcDbEntity
  8
DIM
  6
ACISOTGL
 62
     3
100
AcDbTrace
 10
920.7001513067908
 20
585.5692171061402
 30
0.0
 11
921.7001513067907
 21
585.5692171061402
 31
0.0
 12
921.2001513067907
 22
582.5692171061403
 32
0.0
 13
921.2001513067907
 23
582.5692171061403
 33
0.0
  0
MTEXT
  5
5F15
330
5EA1
100
AcDbEntity
  8
DIM
  6
ACISOTGL
 62
     6
100
AcDbMText
 10
917.2882140625887
 20
602.9279516006052
 30
0.0
 40
3.0
 41
0.0
 71
     5
 72
     1
  1
\A1;%%c5{\H2.400000;\S 0^ -0.013;}
 11
0.0000000000000001
 21
1.0
 31
0.0
 73
     1
 44
1.0
1001
ACAD
1000
MTEXTBEGIN
1070
    73
1070
     1
1070
    44
1040
1.0
1070
    74
1070
     0
1000
MTEXTEND
  0
POINT
  5
5F16
330
5EA1
100
AcDbEntity
  8
Defpoints
  6
ACISOTGL
 62
     0
100
AcDbPoint
 10
910.7276012957104
 20
577.5692171061399
 30
0.0
  0
POINT
  5
5F17
330
5EA1
100
AcDbEntity
  8
Defpoints
  6
ACISOTGL
 62
     0
100
AcDbPoint
 10
910.7276012957104
 20
582.5692171061403
 30
0.0
  0
POINT
  5
5F18
330
5EA1
100
AcDbEntity
  8
Defpoints
  6
ACISOTGL
 62
     0
100
AcDbPoint
 10
921.2001513067907
 20
582.5692171061403
 30
0.0
  0
ENDBLK
  5
5EAE
330
5EA1
100
AcDbEntity
  8
0
100
AcDbBlockEnd
  0
BLOCK
  5
5EB9
330
5EAF
100
AcDbEntity
  8
0
100
AcDbBlockBegin
  2
*D11
 70
     1
 10
0.0
 20
0.0
 30
0.0
  3
*D11
  1

  0
LINE
  5
5F25
330
5EAF
100
AcDbEntity
  8
AM_5
 62
     3
370
    -2
100
AcDbLine
 10
753.4551134272613
 20
596.9692171061401
 30
0.0
 11
753.4551134272613
 21
612.3105688259699
 31
0.0
  0
LINE
  5
5F26
330
5EAF
100
AcDbEntity
  8
AM_5
 62
     3
370
    -2
100
AcDbLine
 10
792.2551134272614
 20
596.9692171061405
 30
0.0
 11
792.2551134272614
 21
612.3105688259699
 31
0.0
  0
LINE
  5
5F27
330
5EAF
100
AcDbEntity
  8
AM_5
 62
     3
100
AcDbLine
 10
756.4551134272614
 20
611.3105688259699
 30
0.0
 11
789.2551134272614
 21
611.3105688259699
 31
0.0
  0
SOLID
  5
5F28
330
5EAF
100
AcDbEntity
  8
AM_5
 62
     3
100
AcDbTrace
 10
756.4551134272614
 20
611.8105688259699
 30
0.0
 11
756.4551134272614
 21
610.81056882597
 31
0.0
 12
753.4551134272613
 22
611.3105688259699
 32
0.0
 13
753.4551134272613
 23
611.3105688259699
 33
0.0
  0
SOLID
  5
5F29
330
5EAF
100
AcDbEntity
  8
AM_5
 62
     3
100
AcDbTrace
 10
789.2551134272614
 20
611.8105688259699
 30
0.0
 11
789.2551134272614
 21
610.81056882597
 31
0.0
 12
792.2551134272614
 22
611.3105688259699
 32
0.0
 13
792.2551134272614
 23
611.3105688259699
 33
0.0
  0
MTEXT
  5
5F2A
330
5EAF
100
AcDbEntity
  8
AM_5
 62
     6
100
AcDbMText
 10
771.7646697625821
 20
613.8433109814952
 30
0.0
 40
3.0
 41
0.0
 71
     5
 72
     1
  1
\A1;{\Famgdt|c0;o} 38.8
 73
     1
 44
1.0
1001
ACAD
1000
MTEXTBEGIN
1070
    73
1070
     1
1070
    44
1040
1.0
1070
    74
1070
     0
1000
MTEXTEND
  0
POINT
  5
5F2B
330
5EAF
100
AcDbEntity
  8
Defpoints
 62
     0
100
AcDbPoint
 10
753.4551134272613
 20
595.9692171061401
 30
0.0
  0
POINT
  5
5F2C
330
5EAF
100
AcDbEntity
  8
Defpoints
 62
     0
100
AcDbPoint
 10
792.2551134272614
 20
595.9692171061404
 30
0.0
  0
POINT
  5
5F2D
330
5EAF
100
AcDbEntity
  8
Defpoints
 62
     0
100
AcDbPoint
 10
792.2551134272614
 20
611.3105688259699
 30
0.0
  0
ENDBLK
  5
5EBA
330
5EAF
100
AcDbEntity
  8
0
100
AcDbBlockEnd
  0
BLOCK
  5
5EC5
330
5EBB
100
AcDbEntity
  8
0
100
AcDbBlockBegin
  2
*D12
 70
     1
 10
0.0
 20
0.0
 30
0.0
  3
*D12
  1

  0
LINE
  5
5F2E
330
5EBB
100
AcDbEntity
  8
DIM
 62
     3
370
    -2
100
AcDbLine
 10
866.2304584385676
 20
600.46921710614
 30
0.0
 11
866.2304584385676
 21
612.5281881409955
 31
0.0
  0
LINE
  5
5F2F
330
5EBB
100
AcDbEntity
  8
DIM
 62
     3
370
    -2
100
AcDbLine
 10
897.2304584385677
 20
600.4692171061399
 30
0.0
 11
897.2304584385677
 21
612.5281881409955
 31
0.0
  0
LINE
  5
5F30
330
5EBB
100
AcDbEntity
  8
DIM
 62
     3
100
AcDbLine
 10
869.2304584385677
 20
611.5281881409956
 30
0.0
 11
894.2304584385677
 21
611.5281881409956
 31
0.0
  0
SOLID
  5
5F31
330
5EBB
100
AcDbEntity
  8
DIM
 62
     3
100
AcDbTrace
 10
869.2304584385677
 20
612.0281881409955
 30
0.0
 11
869.2304584385677
 21
611.0281881409955
 31
0.0
 12
866.2304584385676
 22
611.5281881409956
 32
0.0
 13
866.2304584385676
 23
611.5281881409956
 33
0.0
  0
SOLID
  5
5F32
330
5EBB
100
AcDbEntity
  8
DIM
 62
     3
100
AcDbTrace
 10
894.2304584385677
 20
612.0281881409955
 30
0.0
 11
894.2304584385677
 21
611.0281881409955
 31
0.0
 12
897.2304584385677
 22
611.5281881409956
 32
0.0
 13
897.2304584385677
 23
611.5281881409956
 33
0.0
  0
MTEXT
  5
5F33
330
5EBB
100
AcDbEntity
  8
DIM
 62
     6
100
AcDbMText
 10
881.2360953456844
 20
614.0609302965208
 30
0.0
 40
3.0
 41
0.0
 71
     5
 72
     1
  1
\A1;31{\H2.400000;±0.8}
 73
     1
 44
1.0
1001
ACAD
1000
MTEXTBEGIN
1070
    73
1070
     1
1070
    44
1040
1.0
1070
    74
1070
     0
1000
MTEXTEND
  0
POINT
  5
5F34
330
5EBB
100
AcDbEntity
  8
Defpoints
 62
     0
100
AcDbPoint
 10
866.2304584385676
 20
599.46921710614
 30
0.0
  0
POINT
  5
5F35
330
5EBB
100
AcDbEntity
  8
Defpoints
 62
     0
100
AcDbPoint
 10
897.2304584385677
 20
599.4692171061399
 30
0.0
  0
POINT
  5
5F36
330
5EBB
100
AcDbEntity
  8
Defpoints
 62
     0
100
AcDbPoint
 10
897.2304584385677
 20
611.5281881409956
 30
0.0
  0
ENDBLK
  5
5EC6
330
5EBB
100
AcDbEntity
  8
0
100
AcDbBlockEnd
  0
BLOCK
  5
5ED3
330
5EC7
100
AcDbEntity
  8
0
100
AcDbBlockBegin
  2
*D13
 70
     1
 10
0.0
 20
0.0
 30
0.0
  3
*D13
  1

  0
LINE
  5
5F37
330
5EC7
100
AcDbEntity
  8
DIM
 62
     3
370
    -2
100
AcDbLine
 10
864.2256965338058
 20
592.0692171061403
 30
0.0
 11
864.2256965338058
 21
606.5768803674102
 31
0.0
  0
LINE
  5
5F38
330
5EC7
100
AcDbEntity
  8
DIM
 62
     3
370
    -2
100
AcDbLine
 10
866.2304584385676
 20
602.0692171061401
 30
0.0
 11
866.2304584385676
 21
606.5768803674102
 31
0.0
  0
LINE
  5
5F39
330
5EC7
100
AcDbEntity
  8
DIM
 62
     3
100
AcDbLine
 10
869.2304584385677
 20
605.5768803674102
 30
0.0
 11
872.2304584385677
 21
605.5768803674102
 31
0.0
  0
LINE
  5
5F3A
330
5EC7
100
AcDbEntity
  8
DIM
 62
     3
100
AcDbLine
 10
861.2256965338056
 20
605.5768803674102
 30
0.0
 11
852.7394073114319
 21
605.5768803674102
 31
0.0
  0
LINE
  5
5F3B
330
5EC7
100
AcDbEntity
  8
DIM
 62
     3
100
AcDbLine
 10
866.2304584385676
 20
605.5768803674102
 30
0.0
 11
864.2256965338058
 21
605.5768803674102
 31
0.0
  0
SOLID
  5
5F3C
330
5EC7
100
AcDbEntity
  8
DIM
 62
     3
100
AcDbTrace
 10
869.2304584385677
 20
606.0768803674102
 30
0.0
 11
869.2304584385677
 21
605.0768803674102
 31
0.0
 12
866.2304584385676
 22
605.5768803674102
 32
0.0
 13
866.2304584385676
 23
605.5768803674102
 33
0.0
  0
SOLID
  5
5F3D
330
5EC7
100
AcDbEntity
  8
DIM
 62
     3
100
AcDbTrace
 10
861.2256965338056
 20
606.0768803674102
 30
0.0
 11
861.2256965338056
 21
605.0768803674102
 31
0.0
 12
864.2256965338058
 22
605.5768803674102
 32
0.0
 13
864.2256965338058
 23
605.5768803674102
 33
0.0
  0
MTEXT
  5
5F3E
330
5EC7
100
AcDbEntity
  8
DIM
 62
     6
100
AcDbMText
 10
854.7329270931509
 20
608.0830195215712
 30
0.0
 40
3.0
 41
0.0
 71
     5
 72
     1
  1
\A1;2
 73
     1
 44
1.0
1001
ACAD
1000
MTEXTBEGIN
1070
    73
1070
     1
1070
    44
1040
1.0
1070
    74
1070
     0
1000
MTEXTEND
  0
POINT
  5
5F3F
330
5EC7
100
AcDbEntity
  8
Defpoints
 62
     0
100
AcDbPoint
 10
864.2256965338058
 20
591.0692171061403
 30
0.0
  0
POINT
  5
5F40
330
5EC7
100
AcDbEntity
  8
Defpoints
 62
     0
100
AcDbPoint
 10
866.2304584385676
 20
601.0692171061402
 30
0.0
  0
POINT
  5
5F41
330
5EC7
100
AcDbEntity
  8
Defpoints
 62
     0
100
AcDbPoint
 10
866.2304584385676
 20
605.5768803674102
 30
0.0
  0
ENDBLK
  5
5ED4
330
5EC7
100
AcDbEntity
  8
0
100
AcDbBlockEnd
  0
BLOCK
  5
5EDF
330
5ED5
100
AcDbEntity
  8
0
100
AcDbBlockBegin
  2
*D14
 70
     1
 10
0.0
 20
0.0
 30
0.0
  3
*D14
  1

  0
LINE
  5
5F42
330
5ED5
100
AcDbEntity
  8
DIM
 62
     3
370
    -2
100
AcDbLine
 10
842.2304584385676
 20
583.5692171061403
 30
0.0
 11
842.2304584385676
 21
612.5690795927185
 31
0.0
  0
LINE
  5
5F43
330
5ED5
100
AcDbEntity
  8
DIM
 62
     3
370
    -2
100
AcDbLine
 10
866.2304584385676
 20
600.46921710614
 30
0.0
 11
866.2304584385676
 21
612.5690795927185
 31
0.0
  0
LINE
  5
5F44
330
5ED5
100
AcDbEntity
  8
DIM
 62
     3
100
AcDbLine
 10
845.2304584385677
 20
611.5690795927185
 30
0.0
 11
863.2304584385677
 21
611.5690795927185
 31
0.0
  0
SOLID
  5
5F45
330
5ED5
100
AcDbEntity
  8
DIM
 62
     3
100
AcDbTrace
 10
845.2304584385677
 20
612.0690795927185
 30
0.0
 11
845.2304584385677
 21
611.0690795927184
 31
0.0
 12
842.2304584385676
 22
611.5690795927185
 32
0.0
 13
842.2304584385676
 23
611.5690795927185
 33
0.0
  0
SOLID
  5
5F46
330
5ED5
100
AcDbEntity
  8
DIM
 62
     3
100
AcDbTrace
 10
863.2304584385677
 20
612.0690795927185
 30
0.0
 11
863.2304584385677
 21
611.0690795927184
 31
0.0
 12
866.2304584385676
 22
611.5690795927185
 32
0.0
 13
866.2304584385676
 23
611.5690795927185
 33
0.0
  0
MTEXT
  5
5F47
330
5ED5
100
AcDbEntity
  8
DIM
 62
     6
100
AcDbMText
 10
853.3106547745248
 20
614.0956825940827
 30
0.0
 40
3.0
 41
0.0
 71
     5
 72
     1
  1
\A1;24{\H2.400000;±0.5}
 73
     1
 44
1.0
1001
ACAD
1000
MTEXTBEGIN
1070
    73
1070
     1
1070
    44
1040
1.0
1070
    74
1070
     0
1000
MTEXTEND
  0
POINT
  5
5F48
330
5ED5
100
AcDbEntity
  8
Defpoints
 62
     0
100
AcDbPoint
 10
842.2304584385676
 20
582.5692171061403
 30
0.0
  0
POINT
  5
5F49
330
5ED5
100
AcDbEntity
  8
Defpoints
 62
     0
100
AcDbPoint
 10
866.2304584385676
 20
599.46921710614
 30
0.0
  0
POINT
  5
5F4A
330
5ED5
100
AcDbEntity
  8
Defpoints
 62
     0
100
AcDbPoint
 10
866.2304584385676
 20
611.5690795927185
 30
0.0
  0
ENDBLK
  5
5EE0
330
5ED5
100
AcDbEntity
  8
0
100
AcDbBlockEnd
  0
BLOCK
  5
5EEC
330
5EE1
100
AcDbEntity
  8
0
100
AcDbBlockBegin
  2
*D15
 70
     1
 10
0.0
 20
0.0
 30
0.0
  3
*D15
  1

  0
LINE
  5
5F4B
330
5EE1
100
AcDbEntity
  8
DIM
 62
     3
370
    -2
100
AcDbLine
 10
863.3256965338057
 20
569.0692171061402
 30
0.0
 11
827.3079542153777
 21
569.0692171061402
 31
0.0
  0
LINE
  5
5F4C
330
5EE1
100
AcDbEntity
  8
DIM
 62
     3
370
    -2
100
AcDbLine
 10
863.3256965338057
 20
591.0692171061403
 30
0.0
 11
827.3079542153777
 21
591.0692171061403
 31
0.0
  0
LINE
  5
5F4D
330
5EE1
100
AcDbEntity
  8
DIM
 62
     3
100
AcDbLine
 10
828.3079542153776
 20
588.0692171061403
 30
0.0
 11
828.3079542153776
 21
572.0692171061402
 31
0.0
  0
LINE
  5
5F4E
330
5EE1
100
AcDbEntity
  8
DIM
 62
     3
100
AcDbLine
 10
828.3079542153776
 20
569.0692171061402
 30
0.0
 11
828.3079542153776
 21
542.2362150922376
 31
0.0
  0
SOLID
  5
5F4F
330
5EE1
100
AcDbEntity
  8
DIM
 62
     3
100
AcDbTrace
 10
827.8079542153776
 20
588.0692171061403
 30
0.0
 11
828.8079542153777
 21
588.0692171061403
 31
0.0
 12
828.3079542153776
 22
591.0692171061403
 32
0.0
 13
828.3079542153776
 23
591.0692171061403
 33
0.0
  0
SOLID
  5
5F50
330
5EE1
100
AcDbEntity
  8
DIM
 62
     3
100
AcDbTrace
 10
827.8079542153776
 20
572.0692171061402
 30
0.0
 11
828.8079542153777
 21
572.0692171061402
 31
0.0
 12
828.3079542153776
 22
569.0692171061402
 32
0.0
 13
828.3079542153776
 23
569.0692171061402
 33
0.0
  0
MTEXT
  5
5F51
330
5EE1
100
AcDbEntity
  8
DIM
 62
     6
100
AcDbMText
 10
824.3960169711757
 20
551.7360786665899
 30
0.0
 40
3.0
 41
0.0
 71
     5
 72
     1
  1
\A1;%%c22{\H2.400000;\S 0^ -0.033;}
 11
0.0000000000000001
 21
1.0
 31
0.0
 73
     1
 44
1.0
1001
ACAD
1000
MTEXTBEGIN
1070
    73
1070
     1
1070
    44
1040
1.0
1070
    74
1070
     0
1000
MTEXTEND
  0
POINT
  5
5F52
330
5EE1
100
AcDbEntity
  8
Defpoints
 62
     0
100
AcDbPoint
 10
864.3256965338057
 20
569.0692171061402
 30
0.0
  0
POINT
  5
5F53
330
5EE1
100
AcDbEntity
  8
Defpoints
 62
     0
100
AcDbPoint
 10
864.3256965338057
 20
591.0692171061403
 30
0.0
  0
POINT
  5
5F54
330
5EE1
100
AcDbEntity
  8
Defpoints
 62
     0
100
AcDbPoint
 10
828.3079542153776
 20
591.0692171061403
 30
0.0
  0
ENDBLK
  5
5EED
330
5EE1
100
AcDbEntity
  8
0
100
AcDbBlockEnd
  0
BLOCK
  5
5EFA
330
5EEE
100
AcDbEntity
  8
0
100
AcDbBlockBegin
  2
*D16
 70
     1
 10
0.0
 20
0.0
 30
0.0
  3
*D16
  1

  0
LINE
  5
5F55
330
5EEE
100
AcDbEntity
  8
DIM
 62
     3
370
    -2
100
AcDbLine
 10
841.2304584385676
 20
577.56921710614
 30
0.0
 11
834.7738783026819
 21
577.56921710614
 31
0.0
  0
LINE
  5
5F56
330
5EEE
100
AcDbEntity
  8
DIM
 62
     3
370
    -2
100
AcDbLine
 10
841.2304584385676
 20
582.5692171061403
 30
0.0
 11
834.7738783026819
 21
582.5692171061403
 31
0.0
  0
LINE
  5
5F57
330
5EEE
100
AcDbEntity
  8
DIM
 62
     3
100
AcDbLine
 10
835.7738783026819
 20
585.5692171061402
 30
0.0
 11
835.7738783026819
 21
588.5692171061402
 31
0.0
  0
LINE
  5
5F58
330
5EEE
100
AcDbEntity
  8
DIM
 62
     3
100
AcDbLine
 10
835.7738783026819
 20
574.56921710614
 30
0.0
 11
835.7738783026819
 21
546.3773993920299
 31
0.0
  0
LINE
  5
5F59
330
5EEE
100
AcDbEntity
  8
DIM
 62
     3
100
AcDbLine
 10
835.7738783026819
 20
582.5692171061403
 30
0.0
 11
835.7738783026819
 21
577.56921710614
 31
0.0
  0
SOLID
  5
5F5A
330
5EEE
100
AcDbEntity
  8
DIM
 62
     3
100
AcDbTrace
 10
835.2738783026818
 20
585.5692171061402
 30
0.0
 11
836.273878302682
 21
585.5692171061402
 31
0.0
 12
835.7738783026819
 22
582.5692171061403
 32
0.0
 13
835.7738783026819
 23
582.5692171061403
 33
0.0
  0
SOLID
  5
5F5B
330
5EEE
100
AcDbEntity
  8
DIM
 62
     3
100
AcDbTrace
 10
835.2738783026818
 20
574.56921710614
 30
0.0
 11
836.273878302682
 21
574.56921710614
 31
0.0
 12
835.7738783026819
 22
577.56921710614
 32
0.0
 13
835.7738783026819
 23
577.56921710614
 33
0.0
  0
MTEXT
  5
5F5C
330
5EEE
100
AcDbEntity
  8
DIM
 62
     6
100
AcDbMText
 10
831.8619410584799
 20
554.7118468681556
 30
0.0
 40
3.0
 41
0.0
 71
     5
 72
     1
  1
\A1;%%c5{\H2.400000;\S 0^ -0.013;}
 11
0.0000000000000001
 21
1.0
 31
0.0
 73
     1
 44
1.0
1001
ACAD
1000
MTEXTBEGIN
1070
    73
1070
     1
1070
    44
1040
1.0
1070
    74
1070
     0
1000
MTEXTEND
  0
POINT
  5
5F5D
330
5EEE
100
AcDbEntity
  8
Defpoints
 62
     0
100
AcDbPoint
 10
842.2304584385676
 20
577.56921710614
 30
0.0
  0
POINT
  5
5F5E
330
5EEE
100
AcDbEntity
  8
Defpoints
 62
     0
100
AcDbPoint
 10
842.2304584385676
 20
582.5692171061403
 30
0.0
  0
POINT
  5
5F5F
330
5EEE
100
AcDbEntity
  8
Defpoints
 62
     0
100
AcDbPoint
 10
835.7738783026819
 20
582.5692171061403
 30
0.0
  0
ENDBLK
  5
5EFB
330
5EEE
100
AcDbEntity
  8
0
100
AcDbBlockEnd
  0
BLOCK
  5
5F23
330
5F19
100
AcDbEntity
  8
0
100
AcDbBlockBegin
  2
*D17
 70
     1
 10
0.0
 20
0.0
 30
0.0
  3
*D17
  1

  0
LINE
  5
5F1A
330
5F19
100
AcDbEntity
  8
AM_5
 62
     3
370
    -2
100
AcDbLine
 10
757.3551134272613
 20
598.8787409156641
 30
0.0
 11
757.3551134272613
 21
606.2976130978188
 31
0.0
  0
LINE
  5
5F1B
330
5F19
100
AcDbEntity
  8
AM_5
 62
     3
370
    -2
100
AcDbLine
 10
788.3551134272614
 20
598.4739790109022
 30
0.0
 11
788.3551134272614
 21
606.2976130978188
 31
0.0
  0
LINE
  5
5F1C
330
5F19
100
AcDbEntity
  8
AM_5
 62
     3
100
AcDbLine
 10
760.3551134272613
 20
605.2976130978188
 30
0.0
 11
785.3551134272613
 21
605.2976130978188
 31
0.0
  0
SOLID
  5
5F1D
330
5F19
100
AcDbEntity
  8
AM_5
 62
     3
100
AcDbTrace
 10
760.3551134272613
 20
605.7976130978188
 30
0.0
 11
760.3551134272613
 21
604.7976130978188
 31
0.0
 12
757.3551134272613
 22
605.2976130978188
 32
0.0
 13
757.3551134272613
 23
605.2976130978188
 33
0.0
  0
SOLID
  5
5F1E
330
5F19
100
AcDbEntity
  8
AM_5
 62
     3
100
AcDbTrace
 10
785.3551134272613
 20
605.7976130978188
 30
0.0
 11
785.3551134272613
 21
604.7976130978188
 31
0.0
 12
788.3551134272614
 22
605.2976130978188
 32
0.0
 13
788.3551134272614
 23
605.2976130978188
 33
0.0
  0
MTEXT
  5
5F1F
330
5F19
100
AcDbEntity
  8
AM_5
 62
     6
100
AcDbMText
 10
770.9791698876272
 20
607.8303552533441
 30
0.0
 40
3.0
 41
0.0
 71
     5
 72
     1
  1
\A1;{\Famgdt|c0;o} 31{\H2.400000;±0.2}
 73
     1
 44
1.0
1001
ACAD
1000
MTEXTBEGIN
1070
    73
1070
     1
1070
    44
1040
1.0
1070
    74
1070
     0
1000
MTEXTEND
  0
POINT
  5
5F20
330
5F19
100
AcDbEntity
  8
Defpoints
 62
     0
100
AcDbPoint
 10
757.3551134272613
 20
597.8787409156641
 30
0.0
  0
POINT
  5
5F21
330
5F19
100
AcDbEntity
  8
Defpoints
 62
     0
100
AcDbPoint
 10
788.3551134272614
 20
597.4739790109022
 30
0.0
  0
POINT
  5
5F22
330
5F19
100
AcDbEntity
  8
Defpoints
 62
     0
100
AcDbPoint
 10
788.3551134272614
 20
605.2976130978188
 30
0.0
  0
ENDBLK
  5
5F24
330
5F19
100
AcDbEntity
  8
0
100
AcDbBlockEnd
  0
ENDSEC
  0
SECTION
  2
ENTITIES
  0
TEXT
  5
13FA
330
1F
100
AcDbEntity
  8
SPEC
100
AcDbText
 10
1198.0
 20
654.0
 30
0.0
 40
2.4
  1

 41
0.7
  7
ROMANS
100
AcDbText
  0
DIMENSION
  5
5DA5
330
1F
100
AcDbEntity
  8
DIM
100
AcDbDimension
  2
*D12
 10
897.2304584385677
 20
611.5281881409956
 30
0.0
 11
881.2360953456844
 21
611.5281881409956
 31
0.0
 70
   160
 71
     5
 42
31.0
  3
STANDARD
100
AcDbAlignedDimension
 13
866.2304584385676
 23
599.46921710614
 33
0.0
 14
897.2304584385677
 24
599.4692171061399
 34
0.0
100
AcDbRotatedDimension
1001
ACAD
1000
DSTYLE
1002
{
1070
    47
1040
0.8
1070
    48
1040
0.8
1070
   147
1040
1.0
1070
    72
1070
     0
1070
    71
1070
     1
1070
    40
1040
1.0
1002
}
1001
GENIUS_GENDTOL_13
1000
TolAcTol
1000

1000

1040
24.0
  0
LINE
  5
5DA6
330
1F
100
AcDbEntity
  8
SPEC
100
AcDbLine
 10
866.2304584385676
 20
599.46921710614
 30
0.0
 11
897.2304584385677
 21
599.4692171061399
 31
0.0
  0
LINE
  5
5DA7
330
1F
100
AcDbEntity
  8
SPEC
100
AcDbLine
 10
866.2304584385676
 20
560.6692171061401
 30
0.0
 11
897.2304584385677
 21
560.6692171061397
 31
0.0
  0
LINE
  5
5DA8
330
1F
100
AcDbEntity
  8
FRAME
100
AcDbLine
 10
890.7050019647519
 20
546.1291131412318
 30
0.0
 11
890.1322589968502
 21
546.4868360278609
 31
0.0
  0
LINE
  5
5DA9
330
1F
100
AcDbEntity
  8
FRAME
100
AcDbLine
 10
893.4839867380484
 20
548.3286252446879
 30
0.0
 11
890.4514714753517
 21
547.4513835536819
 31
0.0
  0
LINE
  5
5DAA
330
1F
100
AcDbEntity
  8
CENTER
  6
CENTER
100
AcDbLine
 10
839.9718005706469
 20
580.0692171061403
 30
0.0
 11
908.1051808878484
 21
580.0692171061403
 31
0.0
  0
TEXT
  5
5DAC
330
1F
100
AcDbEntity
  8
DATA
100
AcDbText
 10
744.932049002615
 20
550.5120286950507
 30
0.0
 40
3.0
  1
4-M3x0.5
100
AcDbText
  0
LEADER
  5
5DAD
330
1F
100
AcDbEntity
  8
DIM
100
AcDbLeader
  3
STANDARD
 76
     3
 10
757.3551134272613
 20
564.5692171061402
 30
0.0
 10
739.7134580380781
 20
549.887248683867
 30
0.0
 10
771.0
 20
549.887248683867
 30
0.0
1001
ACAD
1000
DSTYLE
1002
{
1070
    40
1040
1.0
1070
    77
1070
     0
1002
}
  0
LINE
  5
5DAE
330
1F
100
AcDbEntity
  8
SPEC
100
AcDbLine
 10
755.9551134272615
 20
599.4692171061402
 30
0.0
 11
789.7551134272614
 21
599.4692171061404
 31
0.0
  0
ARC
  5
5DAF
330
1F
100
AcDbEntity
  8
SPEC
100
AcDbCircle
 10
789.7551134272614
 20
596.9692171061405
 30
0.0
 40
2.5
100
AcDbArc
 50
0.0
 51
90.0
1001
GENIUS_GENOBJ-N-FIL_13
1002
{
1000
OWNER
1000
GEN
1002
}
1001
GENIUS_GENODEF_13
1002
{
1000
HIER
1070
     0
1002
}
1002
{
1000
MANEDIT
1070
     0
1002
}
1002
{
1000
NOSEL
1070
     0
1002
}
1002
{
1000
BEHIND
1070
     0
1002
}
1002
{
1000
OTHER
1070
     0
1002
}
1002
{
1000
REACTOR
1002
}
  0
LINE
  5
5DB0
330
1F
100
AcDbEntity
  8
SPEC
100
AcDbLine
 10
789.7551134272614
 20
560.6692171061397
 30
0.0
 11
755.9551134272611
 21
560.6692171061402
 31
0.0
  0
ARC
  5
5DB1
330
1F
100
AcDbEntity
  8
SPEC
100
AcDbCircle
 10
755.9551134272611
 20
563.1692171061401
 30
0.0
 40
2.5
100
AcDbArc
 50
180.0
 51
270.0
1001
GENIUS_GENODEF_13
1002
{
1000
HIER
1070
     0
1002
}
1002
{
1000
MANEDIT
1070
     0
1002
}
1002
{
1000
NOSEL
1070
     0
1002
}
1002
{
1000
BEHIND
1070
     0
1002
}
1002
{
1000
OTHER
1070
     0
1002
}
1002
{
1000
REACTOR
1002
}
1001
GENIUS_GENOBJ-N-FIL_13
1002
{
1000
OWNER
1000
GEN
1002
}
  0
LINE
  5
5DB2
330
1F
100
AcDbEntity
  8
CENTER
  6
CENTER
100
AcDbLine
 10
751.6568776507231
 20
580.0692171061403
 30
0.0
 11
794.9046608975455
 21
580.0692171061403
 31
0.0
  0
TEXT
  5
5DB3
330
1F
100
AcDbEntity
  8
DIM
100
AcDbText
 10
746.3838464098007
 20
623.8292420927437
 30
0.0
 40
3.571428571428572
  1
Front view and mounting
100
AcDbText
  0
LINE
  5
5DB4
330
1F
100
AcDbEntity
  8
SPEC
100
AcDbLine
 10
753.4551134272611
 20
563.1692171061401
 30
0.0
 11
753.4551134272614
 21
596.9692171061402
 31
0.0
  0
ARC
  5
5DB5
330
1F
100
AcDbEntity
  8
SPEC
100
AcDbCircle
 10
755.9551134272615
 20
596.9692171061402
 30
0.0
 40
2.5
100
AcDbArc
 50
90.0
 51
180.0
1001
GENIUS_GENODEF_13
1002
{
1000
HIER
1070
     0
1002
}
1002
{
1000
MANEDIT
1070
     0
1002
}
1002
{
1000
NOSEL
1070
     0
1002
}
1002
{
1000
BEHIND
1070
     0
1002
}
1002
{
1000
OTHER
1070
     0
1002
}
1002
{
1000
REACTOR
1002
}
1001
GENIUS_GENOBJ-N-FIL_13
1002
{
1000
OWNER
1000
GEN
1002
}
  0
LINE
  5
5DB6
330
1F
100
AcDbEntity
  8
CENTER
100
AcDbLine
 10
759.6646372367851
 20
564.5692171061402
 30
0.0
 11
755.0455896177375
 21
564.5692171061402
 31
0.0
  0
CIRCLE
  5
5DB7
330
1F
100
AcDbEntity
  8
SPEC
  6
HIDDEN
100
AcDbCircle
 10
757.3551134272613
 20
564.5692171061402
 30
0.0
 40
1.904761904761905
  0
CIRCLE
  5
5DB8
330
1F
100
AcDbEntity
  8
SPEC
100
AcDbCircle
 10
757.3551134272613
 20
564.5692171061402
 30
0.0
 40
1.428571428571429
  0
LINE
  5
5DB9
330
1F
100
AcDbEntity
  8
CENTER
100
AcDbLine
 10
757.3551134272613
 20
562.2596932966164
 30
0.0
 11
757.3551134272613
 21
566.8787409156641
 31
0.0
  0
LINE
  5
5DBA
102
{ACAD_REACTORS
330
5E26
102
}
330
1F
100
AcDbEntity
  8
CENTER
100
AcDbLine
 10
757.3551134272613
 20
593.2596932966166
 30
0.0
 11
757.3551134272613
 21
597.8787409156641
 31
0.0
  0
CIRCLE
  5
5DBB
330
1F
100
AcDbEntity
  8
SPEC
100
AcDbCircle
 10
757.3551134272613
 20
595.5692171061403
 30
0.0
 40
1.428571428571429
  0
CIRCLE
  5
5DBC
330
1F
100
AcDbEntity
  8
SPEC
  6
HIDDEN
100
AcDbCircle
 10
757.3551134272613
 20
595.5692171061403
 30
0.0
 40
1.904761904761905
  0
LINE
  5
5DBD
330
1F
100
AcDbEntity
  8
CENTER
100
AcDbLine
 10
759.6646372367851
 20
595.5692171061403
 30
0.0
 11
755.0455896177375
 21
595.5692171061403
 31
0.0
  0
DIMENSION
  5
5DBE
330
1F
100
AcDbEntity
  8
DIM
100
AcDbDimension
  2
*D13
 10
866.2304584385676
 20
605.5768803674102
 30
0.0
 11
854.7329270931509
 21
605.5768803674102
 31
0.0
 70
   160
 71
     5
 42
2.004761904761949
  3
STANDARD
100
AcDbAlignedDimension
 13
864.2256965338058
 23
591.0692171061403
 33
0.0
 14
866.2304584385676
 24
601.0692171061402
 34
0.0
100
AcDbRotatedDimension
1001
ACAD
1000
DSTYLE
1002
{
1070
    40
1040
1.0
1002
}
  0
TOLERANCE
  5
5DBF
330
1F
100
AcDbEntity
  8
DIM
100
AcDbFcf
  3
STANDARD
 10
825.3079542153775
 20
591.8039309253897
 30
0.0
  1
{\Fgdt;r}%%v0.075%%v%%vA%%v%%v
 11
0.0000000000000001
 21
1.0
 31
0.0
1001
ACAD
1000
DSTYLE
1002
{
1070
   147
1040
0.9523809523809527
1002
}
  0
DIMENSION
  5
5DC0
330
1F
100
AcDbEntity
  8
DIM
100
AcDbDimension
  2
*D14
 10
866.2304584385676
 20
611.5690795927185
 30
0.0
 11
853.3106547745248
 21
611.5690795927185
 31
0.0
 70
   160
  1
<>
 71
     5
 42
24.0
  3
STANDARD
100
AcDbAlignedDimension
 13
842.2304584385676
 23
582.5692171061403
 33
0.0
 14
866.2304584385676
 24
599.46921710614
 34
0.0
100
AcDbRotatedDimension
1001
ACAD
1000
DSTYLE
1002
{
1070
   340
1005
11
1070
   146
1040
0.8
1070
   284
1070
     8
1070
    47
1040
0.5
1070
   147
1040
1.0
1070
    48
1040
0.5
1070
    72
1070
     0
1070
    71
1070
     1
1070
    78
1070
     8
1070
   144
1040
1.0
1070
    40
1040
1.0
1002
}
1001
GENIUS_GENDTOL_13
1000
TolAcTol
1000

1000

1040
24.0
  0
DIMENSION
  5
5DC1
330
1F
100
AcDbEntity
  8
DIM
100
AcDbDimension
  2
*D15
 10
828.3079542153776
 20
591.0692171061403
 30
0.0
 11
828.3079542153775
 21
551.7360786665899
 31
0.0
 70
   160
  1
%%c<>
 71
     5
 42
22.0
  3
STANDARD
100
AcDbAlignedDimension
 13
864.3256965338057
 23
569.0692171061402
 33
0.0
 14
864.3256965338057
 24
591.0692171061403
 34
0.0
 50
90.0
100
AcDbRotatedDimension
1001
ACAD
1000
DSTYLE
1002
{
1070
    40
1040
1.0
1070
    48
1040
0.033
1070
    71
1070
     1
1070
   144
1040
1.0
1070
   272
1070
     3
1002
}
1001
GENIUS_GENDTOL_13
1000
TolAcTol
1000

1000

1040
22.0
  0
LINE
  5
5DC2
330
1F
100
AcDbEntity
  8
SPEC
100
AcDbLine
 10
773.9027324748804
 20
552.2330325786961
 30
0.0
 11
773.9027324748804
 21
560.8247153923598
 31
0.0
  0
LINE
  5
5DC3
330
1F
100
AcDbEntity
  8
SPEC
100
AcDbLine
 10
772.8551134272612
 20
552.2216934672269
 30
0.0
 11
772.8551134272614
 21
560.8247153923598
 31
0.0
  0
LINE
  5
5DC4
330
1F
100
AcDbEntity
  8
SPEC
100
AcDbLine
 10
771.8074943796424
 20
551.9186399273435
 30
0.0
 11
771.8074943796424
 21
560.8247153923598
 31
0.0
  0
LINE
  5
5DC5
330
1F
100
AcDbEntity
  8
FRAME
100
AcDbLine
 10
776.6324512505518
 20
553.0226817337054
 30
0.0
 11
773.599935987855
 21
552.1454400426992
 31
0.0
  0
LINE
  5
5DC6
330
1F
100
AcDbEntity
  8
FRAME
100
AcDbLine
 10
773.599935987855
 20
552.1454400426992
 30
0.0
 11
773.2807235093535
 21
552.344813261852
 31
0.0
  0
LINE
  5
5DC7
330
1F
100
AcDbEntity
  8
FRAME
100
AcDbLine
 10
773.2807235093535
 20
552.344813261852
 30
0.0
 11
770.2482082466568
 21
551.467572162428
 31
0.0
  0
LINE
  5
5DC8
330
1F
100
AcDbEntity
  8
CENTER
  6
CENTER
100
AcDbLine
 10
772.8551134272613
 20
558.9137188199203
 30
0.0
 11
772.8551134272613
 21
601.0704210514614
 31
0.0
  0
LINE
  5
5DC9
330
1F
100
AcDbEntity
  8
SPEC
100
AcDbLine
 10
792.2551134272614
 20
596.9692171061405
 30
0.0
 11
792.2551134272614
 21
563.1692171061397
 31
0.0
  0
ARC
  5
5DCA
330
1F
100
AcDbEntity
  8
SPEC
100
AcDbCircle
 10
789.7551134272614
 20
563.1692171061397
 30
0.0
 40
2.5
100
AcDbArc
 50
270.0
 51
0.0
1001
GENIUS_GENODEF_13
1002
{
1000
HIER
1070
     0
1002
}
1002
{
1000
MANEDIT
1070
     0
1002
}
1002
{
1000
NOSEL
1070
     0
1002
}
1002
{
1000
BEHIND
1070
     0
1002
}
1002
{
1000
OTHER
1070
     0
1002
}
1002
{
1000
REACTOR
1002
}
1001
GENIUS_GENOBJ-N-FIL_13
1002
{
1000
OWNER
1000
GEN
1002
}
  0
LINE
  5
5DCB
330
1F
100
AcDbEntity
  8
CENTER
100
AcDbLine
 10
786.0455896177373
 20
564.5692171061402
 30
0.0
 11
790.6646372367852
 21
564.5692171061402
 31
0.0
  0
CIRCLE
  5
5DCC
330
1F
100
AcDbEntity
  8
SPEC
  6
HIDDEN
100
AcDbCircle
 10
788.3551134272614
 20
564.5692171061402
 30
0.0
 40
1.904761904761905
  0
CIRCLE
  5
5DCD
330
1F
100
AcDbEntity
  8
SPEC
100
AcDbCircle
 10
788.3551134272614
 20
564.5692171061402
 30
0.0
 40
1.428571428571429
  0
LINE
  5
5DCE
330
1F
100
AcDbEntity
  8
CENTER
100
AcDbLine
 10
788.3551134272614
 20
562.2596932966164
 30
0.0
 11
788.3551134272614
 21
566.8787409156641
 31
0.0
  0
CIRCLE
  5
5DCF
102
{ACAD_REACTORS
330
5E26
102
}
330
1F
100
AcDbEntity
  8
SPEC
  6
HIDDEN
100
AcDbCircle
 10
788.3551134272614
 20
595.5692171061403
 30
0.0
 40
1.904761904761905
  0
CIRCLE
  5
5DD0
330
1F
100
AcDbEntity
  8
SPEC
100
AcDbCircle
 10
788.3551134272614
 20
595.5692171061403
 30
0.0
 40
1.428571428571429
  0
LINE
  5
5DD1
102
{ACAD_REACTORS
330
5E26
102
}
330
1F
100
AcDbEntity
  8
CENTER
100
AcDbLine
 10
788.3551134272614
 20
593.2596932966166
 30
0.0
 11
788.3551134272614
 21
597.8787409156641
 31
0.0
  0
LINE
  5
5DD2
330
1F
100
AcDbEntity
  8
CENTER
100
AcDbLine
 10
786.0455896177373
 20
595.5692171061403
 30
0.0
 11
790.6646372367852
 21
595.5692171061403
 31
0.0
  0
LINE
  5
5DD3
330
1F
100
AcDbEntity
  8
SPEC
100
AcDbLine
 10
889.7066489147579
 20
547.5276369782096
 30
0.0
 11
889.7066489147581
 21
560.6692171061398
 31
0.0
  0
LINE
  5
5DD4
330
1F
100
AcDbEntity
  8
SPEC
100
AcDbLine
 10
888.6590298671391
 20
547.224583438326
 30
0.0
 11
888.6590298671391
 21
560.6692171061398
 31
0.0
  0
DIMENSION
  5
5DD5
330
1F
100
AcDbEntity
  8
DIM
100
AcDbDimension
  2
*D16
 10
835.7738783026819
 20
582.5692171061403
 30
0.0
 11
835.7738783026817
 21
554.7118468681556
 31
0.0
 70
   160
  1
%%c<>
 71
     5
 42
5.000000000000227
  3
STANDARD
100
AcDbAlignedDimension
 13
842.2304584385676
 23
577.56921710614
 33
0.0
 14
842.2304584385676
 24
582.5692171061403
 34
0.0
 50
90.0
100
AcDbRotatedDimension
1001
ACAD
1000
DSTYLE
1002
{
1070
   272
1070
     3
1070
    48
1040
0.013
1070
   147
1040
1.0
1070
    72
1070
     0
1070
    71
1070
     1
1070
    40
1040
1.0
1002
}
1001
GENIUS_GENDTOL_13
1000
TolAcTol
1000

1000

1040
5.0
  0
LINE
  5
5DD6
330
1F
100
AcDbEntity
  8
SPEC
100
AcDbLine
 10
889.7066489147581
 20
542.4407268318174
 30
0.0
 11
889.7066489147581
 21
546.363716233236
 31
0.0
  0
LINE
  5
5DD7
330
1F
100
AcDbEntity
  8
SPEC
100
AcDbLine
 10
888.6590298671389
 20
542.4407268318174
 30
0.0
 11
888.6590298671389
 21
546.0606626933525
 31
0.0
  0
LINE
  5
5DD8
330
1F
100
AcDbEntity
  8
FRAME
100
AcDbLine
 10
890.4514714753517
 20
547.4513835536819
 30
0.0
 11
890.1322589968502
 21
547.6507567728345
 31
0.0
  0
LINE
  5
5DD9
330
1F
100
AcDbEntity
  8
FRAME
100
AcDbLine
 10
890.1322589968502
 20
546.4868360278609
 30
0.0
 11
887.0997437341536
 21
545.6095949284371
 31
0.0
  0
LINE
  5
5DDA
330
1F
100
AcDbEntity
  8
FRAME
100
AcDbLine
 10
890.1322589968502
 20
547.6507567728345
 30
0.0
 11
887.0997437341536
 21
546.7735156734107
 31
0.0
  0
LINE
  5
5DDB
330
1F
100
AcDbEntity
  8
SPEC
100
AcDbLine
 10
842.2304584385676
 20
577.56921710614
 30
0.0
 11
864.2256965338058
 21
577.5692171061402
 31
0.0
  0
TOLERANCE
  5
5DDC
330
1F
100
AcDbEntity
  8
DIM
100
AcDbFcf
  3
STANDARD
 10
837.2910757065433
 20
563.2377357137422
 30
0.0
  1
{\Fgdt;b}%%v0.1%%v%%vA%%v%%v
1001
ACAD
1000
DSTYLE
1002
{
1070
   147
1040
0.9523809523809527
1002
}
  0
LINE
  5
5DDD
330
1F
100
AcDbEntity
  8
SPEC
100
AcDbLine
 10
842.2304584385676
 20
582.5692171061403
 30
0.0
 11
864.2256965338058
 21
582.5692171061403
 31
0.0
  0
LINE
  5
5DDE
330
1F
100
AcDbEntity
  8
SPEC
100
AcDbLine
 10
842.2304584385676
 20
582.5692171061403
 30
0.0
 11
842.2304584385676
 21
577.56921710614
 31
0.0
  0
LINE
  5
5DDF
330
1F
100
AcDbEntity
  8
DIM
100
AcDbLine
 10
828.3079542153775
 20
591.8039309253897
 30
0.0
 11
828.3079542153775
 21
588.4501694870926
 31
0.0
  0
TOLERANCE
  5
5DE0
330
1F
100
AcDbEntity
  8
DIM
100
AcDbFcf
  3
STANDARD
 10
854.0344769619034
 20
595.9808006575188
 30
0.0
  1
%%v%%v%%vA%%v%%v
1001
ACAD
1000
DSTYLE
1002
{
1070
   147
1040
0.9523809523809527
1002
}
  0
LEADER
  5
5DE1
330
1F
100
AcDbEntity
  8
DIM
100
AcDbLeader
  3
STANDARD
 76
     2
 10
857.0553687794877
 20
582.5692171061403
 30
0.0
 10
857.0553687794877
 20
592.9808006575187
 30
0.0
210
0.0
220
0.0
230
-1.0
1001
ACAD
1000
DSTYLE
1002
{
1070
   341
1005
2FB
1070
    40
1040
1.0
1070
    77
1070
     0
1002
}
  0
LINE
  5
5DE2
330
1F
100
AcDbEntity
  8
SPEC
100
AcDbLine
 10
886.9923632004724
 20
590.0692171061399
 30
0.0
 11
886.9923632004722
 21
570.06921710614
 31
0.0
  0
LINE
  5
5DE3
330
1F
100
AcDbEntity
  8
SPEC
100
AcDbLine
 10
874.3256965338057
 20
590.0692171061404
 30
0.0
 11
874.3256965338055
 21
570.0692171061403
 31
0.0
  0
LINE
  5
5DE4
330
1F
100
AcDbEntity
  8
SPEC
100
AcDbLine
 10
866.2304584385676
 20
599.46921710614
 30
0.0
 11
866.2304584385678
 21
560.6692171061401
 31
0.0
  0
LINE
  5
5DE5
330
1F
100
AcDbEntity
  8
SPEC
100
AcDbLine
 10
864.2256965338058
 20
569.0692171061402
 30
0.0
 11
864.2256965338058
 21
591.0692171061403
 31
0.0
  0
LEADER
  5
5DE6
330
1F
100
AcDbEntity
  8
DIM
100
AcDbLeader
  3
STANDARD
 76
     2
 10
866.2304584385676
 20
562.9263599632829
 30
0.0
 10
859.9813894855337
 20
562.9263599632829
 30
0.0
1001
ACAD
1000
DSTYLE
1002
{
1070
    40
1040
1.0
1070
    77
1070
     0
1002
}
  0
LINE
  5
5DE7
330
1F
100
AcDbEntity
  8
SPEC
100
AcDbLine
 10
876.2304584385674
 20
568.1644552013783
 30
0.0
 11
876.2304584385674
 21
560.6692171061401
 31
0.0
  0
LINE
  5
5DE8
330
1F
100
AcDbEntity
  8
SPEC
100
AcDbLine
 10
874.3256965338055
 20
570.0692171061403
 30
0.0
 11
876.2304584385674
 21
568.1644552013783
 31
0.0
  0
LINE
  5
5DE9
330
1F
100
AcDbEntity
  8
SPEC
100
AcDbLine
 10
864.2256965338058
 20
569.0692171061402
 30
0.0
 11
866.2304584385676
 21
569.0692171061402
 31
0.0
  0
LINE
  5
5DEA
330
1F
100
AcDbEntity
  8
SPEC
100
AcDbLine
 10
885.0876012957103
 20
568.1644552013781
 30
0.0
 11
885.0876012957105
 21
560.6692171061398
 31
0.0
  0
LINE
  5
5DEB
330
1F
100
AcDbEntity
  8
SPEC
100
AcDbLine
 10
886.9923632004722
 20
570.06921710614
 30
0.0
 11
885.0876012957103
 21
568.1644552013781
 31
0.0
  0
LINE
  5
5DEC
330
1F
100
AcDbEntity
  8
SPEC
100
AcDbLine
 10
874.3256965338055
 20
590.0692171061402
 30
0.0
 11
876.2304584385674
 21
591.9739790109022
 31
0.0
  0
LINE
  5
5DED
330
1F
100
AcDbEntity
  8
SPEC
100
AcDbLine
 10
864.2256965338058
 20
591.0692171061403
 30
0.0
 11
866.2304584385676
 21
591.0692171061403
 31
0.0
  0
LINE
  5
5DEE
330
1F
100
AcDbEntity
  8
SPEC
100
AcDbLine
 10
876.2304584385674
 20
599.46921710614
 30
0.0
 11
876.2304584385674
 21
591.9739790109022
 31
0.0
  0
LINE
  5
5DEF
330
1F
100
AcDbEntity
  8
SPEC
100
AcDbLine
 10
886.9923632004722
 20
590.06921710614
 30
0.0
 11
885.0876012957103
 21
591.9739790109019
 31
0.0
  0
LINE
  5
5DF0
330
1F
100
AcDbEntity
  8
SPEC
100
AcDbLine
 10
885.0876012957105
 20
599.4692171061398
 30
0.0
 11
885.0876012957103
 21
591.9739790109019
 31
0.0
  0
TEXT
  5
5DF1
330
1F
100
AcDbEntity
  8
DIM
100
AcDbText
 10
871.6992323557903
 20
623.8292420927437
 30
0.0
 40
3.571428571428572
  1
Side view
100
AcDbText
  0
LEADER
  5
5DF2
330
1F
100
AcDbEntity
  8
DIM
  6
ACISOTGL
100
AcDbLeader
  3
STANDARD
 76
     3
 10
1008.230130706604
 20
580.0692171061399
 30
0.0
 10
1021.261275418038
 20
605.1762654083692
 30
0.0
 10
1046.645211465054
 20
605.1762654083692
 30
0.0
1001
ACAD
1000
DSTYLE
1002
{
1070
    40
1040
1.0
1070
    77
1070
     0
1002
}
  0
DIMENSION
  5
5DF3
330
1F
100
AcDbEntity
  8
DIM
  6
ACISOTGL
100
AcDbDimension
  2
*D8
 10
1008.230130706604
 20
605.1743455384263
 30
0.0
 11
998.756246733417
 21
605.1743455384263
 31
0.0
 70
   160
 71
     5
 42
19.05000000000018
  3
STANDARD
100
AcDbAlignedDimension
 13
989.1801307066037
 23
580.0692171061402
 33
0.0
 14
1008.230130706604
 24
580.0692171061399
 34
0.0
100
AcDbRotatedDimension
1001
ACAD
1000
DSTYLE
1002
{
1070
    40
1040
1.0
1002
}
  0
DIMENSION
  5
5DF4
330
1F
100
AcDbEntity
  8
DIM
  6
ACISOTGL
100
AcDbDimension
  2
*D9
 10
897.2304584385677
 20
611.5223133187754
 30
0.0
 11
903.4533302571711
 21
611.5223133187754
 31
0.0
 70
   160
  1
<>
 71
     5
 42
13.49714285714276
  3
STANDARD
100
AcDbAlignedDimension
 13
910.7276012957104
 23
582.4501694918542
 33
0.0
 14
897.2304584385677
 24
599.4692171061399
 34
0.0
 50
180.0
100
AcDbRotatedDimension
1001
ACAD
1000
DSTYLE
1002
{
1070
    47
1040
1.0
1070
    48
1040
1.0
1070
   147
1040
1.0
1070
    72
1070
     0
1070
    71
1070
     1
1070
    40
1040
1.0
1002
}
1001
GENIUS_GENDTOL_13
1000
TolAcTol
1000

1000

1040
13.5
  0
DIMENSION
  5
5DF5
330
1F
100
AcDbEntity
  8
DIM
  6
ACISOTGL
100
AcDbDimension
  2
*D10
 10
921.2001513067907
 20
582.5692171061403
 30
0.0
 11
921.2001513067907
 21
602.9279516006052
 31
0.0
 70
   160
  1
%%c<>
 71
     5
 42
5.000000000000341
  3
STANDARD
100
AcDbAlignedDimension
 13
910.7276012957104
 23
577.5692171061399
 33
0.0
 14
910.7276012957104
 24
582.5692171061403
 34
0.0
 50
90.0
100
AcDbRotatedDimension
1001
ACAD
1000
DSTYLE
1002
{
1070
   146
1040
0.8
1070
   284
1070
     8
1070
   272
1070
     3
1070
    48
1040
0.013
1070
   147
1040
1.0
1070
    72
1070
     0
1070
    71
1070
     1
1070
    78
1070
     8
1070
   144
1040
1.0
1070
    40
1040
1.0
1002
}
1001
GENIUS_GENDTOL_13
1000
TolAcTol
1000

1000

1040
5.0
  0
MTEXT
  5
5DF6
102
{ACAD_REACTORS
330
5E02
102
}
330
1F
100
AcDbEntity
  8
SPEC
  6
HIDDEN
 62
     6
100
AcDbMText
 10
921.6776574804985
 20
570.0690448316724
 30
0.0
 40
3.0
 41
54.2857142857143
 71
     1
 72
     1
  1
(only for type \PSH4009S0404-B\PReady for encoder + \Pdriver mount)
 73
     1
 44
1.0
1001
ACAD
1000
ACAD_MTEXT_DEFINED_HEIGHT_BEGIN
1070
    46
1040
0.0
1000
ACAD_MTEXT_DEFINED_HEIGHT_END
1000
MTEXTBEGIN
1070
    73
1070
     1
1070
    44
1040
1.0
1070
    74
1070
     0
1000
MTEXTEND
  0
LINE
  5
5DF7
330
1F
100
AcDbEntity
  8
SPEC
100
AcDbLine
 10
891.801887009996
 20
547.8420298339313
 30
0.0
 11
891.801887009996
 21
560.6692171061398
 31
0.0
  0
LINE
  5
5DF8
330
1F
100
AcDbEntity
  8
SPEC
100
AcDbLine
 10
890.7542679623771
 20
547.5389760896788
 30
0.0
 11
890.7542679623771
 21
560.6692171061398
 31
0.0
  0
TEXT
  5
5DF9
330
1F
100
AcDbEntity
  8
DATA
100
AcDbText
 10
898.7638228784398
 20
546.4112439320591
 30
0.0
 40
3.0
  1
UL3265 AWG26
100
AcDbText
  0
LEADER
  5
5DFA
330
1F
100
AcDbEntity
  8
DIM
100
AcDbLeader
  3
STANDARD
 76
     3
 10
890.7099662197287
 20
549.5324720007516
 30
0.0
 10
896.3199737716646
 20
540.3217995660705
 30
0.0
 10
925.5453487802563
 20
540.3217995660705
 30
0.0
211
-1.0
221
0.0
231
0.0
210
0.0
220
0.0
230
-1.0
1001
ACAD
1000
DSTYLE
1002
{
1070
    40
1040
1.0
1070
    77
1070
     0
1002
}
  0
TEXT
  5
5DFB
330
1F
100
AcDbEntity
  8
DATA
100
AcDbText
 10
898.9202735680235
 20
541.4009787204353
 30
0.0
 40
3.0
  1
L=300+10mm
100
AcDbText
  0
LINE
  5
5DFC
330
1F
100
AcDbEntity
  8
SPEC
100
AcDbLine
 10
890.7542679623771
 20
542.4407268318174
 30
0.0
 11
890.7542679623771
 21
546.1433647387744
 31
0.0
  0
LINE
  5
5DFD
330
1F
100
AcDbEntity
  8
SPEC
100
AcDbLine
 10
891.801887009996
 20
542.4407268318174
 30
0.0
 11
891.801887009996
 21
546.446418483027
 31
0.0
  0
LINE
  5
5DFE
330
1F
100
AcDbEntity
  8
FRAME
100
AcDbLine
 10
893.4839867380484
 20
546.9330138937835
 30
0.0
 11
890.7050019647519
 21
546.1291131412318
 31
0.0
  0
LINE
  5
5DFF
330
1F
100
AcDbEntity
  8
SPEC
100
AcDbLine
 10
897.2304584385677
 20
560.6692171061398
 30
0.0
 11
897.2304584385677
 21
599.4692171061399
 31
0.0
  0
LINE
  5
5E00
330
1F
100
AcDbEntity
  8
SPEC
  6
ACISOTGL
100
AcDbLine
 10
910.7276012957104
 20
582.5692171061403
 30
0.0
 11
910.7276012957104
 21
577.5692171061399
 31
0.0
  0
LINE
  5
5E01
330
1F
100
AcDbEntity
  8
SPEC
  6
ACISOTGL
100
AcDbLine
 10
910.7276012957104
 20
577.5692171061399
 30
0.0
 11
897.2304584385677
 21
577.5692171061401
 31
0.0
  0
LEADER
  5
5E02
330
1F
100
AcDbEntity
  8
SPEC
  6
ACISOTGL
100
AcDbLeader
  3
STANDARD
 73
     0
 40
9.356980445657114
 41
37.73124147339699
 76
     3
 10
903.3939869756547
 20
580.2247288350421
 30
0.0
 10
909.3878777041352
 20
564.2749919303245
 30
0.0
 10
918.6407103187288
 20
564.2749919303245
 30
0.0
213
-2.423850538799245
223
-1.208600593008168
233
0.0
1001
ACAD
1000
DSTYLE
1002
{
1070
    40
1040
1.0
1070
    77
1070
     0
1002
}
  0
LINE
  5
5E03
330
1F
100
AcDbEntity
  8
SPEC
100
AcDbLine
 10
895.0876012957104
 20
567.4320379578768
 30
0.0
 11
895.0876012957104
 21
560.6692171061399
 31
0.0
  0
LINE
  5
5E04
330
1F
100
AcDbEntity
  8
SPEC
100
AcDbLine
 10
895.0876012957104
 20
567.4320379578768
 30
0.0
 11
897.2304584385675
 21
568.6692171061403
 31
0.0
  0
LINE
  5
5E05
330
1F
100
AcDbEntity
  8
SPEC
  6
ACISOTGL
100
AcDbLine
 10
910.7276012957104
 20
582.5692171061403
 30
0.0
 11
897.2304584385677
 21
582.5692171061401
 31
0.0
  0
LINE
  5
5E06
330
1F
100
AcDbEntity
  8
SPEC
100
AcDbLine
 10
896.2780774861863
 20
593.0692171061402
 30
0.0
 11
895.0876012957104
 21
593.0692171061402
 31
0.0
  0
ARC
  5
5E07
330
1F
100
AcDbEntity
  8
SPEC
100
AcDbCircle
 10
896.2780774861863
 20
594.0215980585214
 30
0.0
 40
0.9523809523809527
100
AcDbArc
 50
270.0
 51
0.0
  0
LINE
  5
5E08
330
1F
100
AcDbEntity
  8
CENTER
100
AcDbLine
 10
900.0540510731006
 20
595.5692171061401
 30
0.0
 11
892.7546465247889
 21
595.5692171061401
 31
0.0
  0
LINE
  5
5E09
330
1F
100
AcDbEntity
  8
SPEC
100
AcDbLine
 10
896.2780774861865
 20
598.0692171061404
 30
0.0
 11
895.0876012957106
 21
598.0692171061404
 31
0.0
  0
ARC
  5
5E0A
330
1F
100
AcDbEntity
  8
SPEC
100
AcDbCircle
 10
896.2780774861863
 20
597.1168361537594
 30
0.0
 40
0.9523809523809527
100
AcDbArc
 50
0.0
 51
90.0
  0
LINE
  5
5E0B
330
1F
100
AcDbEntity
  8
SPEC
100
AcDbLine
 10
998.7051307066037
 20
551.466195181007
 30
0.0
 11
998.7051307066037
 21
560.0692171061401
 31
0.0
  0
LINE
  5
5E0C
330
1F
100
AcDbEntity
  8
SPEC
100
AcDbLine
 10
999.7527497542227
 20
551.4775342924764
 30
0.0
 11
999.7527497542227
 21
560.0692171061401
 31
0.0
  0
LINE
  5
5E0D
330
1F
100
AcDbEntity
  8
SPEC
100
AcDbLine
 10
997.6575116589845
 20
551.1631416411238
 30
0.0
 11
997.6575116589845
 21
560.0692171061401
 31
0.0
  0
LINE
  5
5E0E
330
1F
100
AcDbEntity
  8
FRAME
100
AcDbLine
 10
1002.482468529894
 20
552.2671834474855
 30
0.0
 11
999.4499532671973
 21
551.3899417564795
 31
0.0
  0
LINE
  5
5E0F
330
1F
100
AcDbEntity
  8
FRAME
100
AcDbLine
 10
999.4499532671973
 20
551.3899417564795
 30
0.0
 11
999.1307407886957
 21
551.5893149756322
 31
0.0
  0
LINE
  5
5E10
330
1F
100
AcDbEntity
  8
FRAME
100
AcDbLine
 10
999.1307407886957
 20
551.5893149756322
 30
0.0
 11
996.098225525999
 21
550.7120738762083
 31
0.0
  0
CIRCLE
  5
5E11
330
1F
100
AcDbEntity
  8
CENTER
  6
CENTER
100
AcDbCircle
 10
998.7051307066037
 20
580.0692171061399
 30
0.0
 40
9.52500000000009
  0
LINE
  5
5E12
330
1F
100
AcDbEntity
  8
CENTER
  6
CENTER
100
AcDbLine
 10
977.5068949300653
 20
580.0692171061399
 30
0.0
 11
1020.754678176887
 21
580.0692171061402
 31
0.0
  0
LINE
  5
5E13
330
1F
100
AcDbEntity
  8
CENTER
  6
CENTER
100
AcDbLine
 10
998.7051307066037
 20
558.9137188199202
 30
0.0
 11
998.7051307066037
 21
601.0704210514612
 31
0.0
  0
LEADER
  5
5E14
330
1F
100
AcDbEntity
  8
DIM
  6
ACISOTGL
100
AcDbLeader
  3
STANDARD
 76
     3
 10
989.1801307066037
 20
580.0692171061403
 30
0.0
 10
971.8309015899151
 20
557.8292420927436
 30
0.0
 10
963.3073115332702
 20
557.8292420927436
 30
0.0
1001
ACAD
1000
DSTYLE
1002
{
1070
    40
1040
1.0
1070
    77
1070
     0
1002
}
  0
CIRCLE
  5
5E15
330
1F
100
AcDbEntity
  8
AM_5
  6
ACISOTGL
100
AcDbCircle
 10
989.1801307066037
 20
580.06921710614
 30
0.0
 40
1.190476190476191
  0
CIRCLE
  5
5E16
330
1F
100
AcDbEntity
  8
SPEC
  6
ACISOTGL
100
AcDbCircle
 10
989.1801307066037
 20
580.0692171061403
 30
0.0
 40
0.9523809523809527
  0
CIRCLE
  5
5E17
330
1F
100
AcDbEntity
  8
SPEC
100
AcDbCircle
 10
983.2051307066038
 20
595.56921710614
 30
0.0
 40
2.500000000000001
  0
LWPOLYLINE
  5
5E18
330
1F
100
AcDbEntity
  8
SPEC
100
AcDbPolyline
 90
        5
 70
     0
 43
0.0
 10
984.0805962452154
 20
595.905934620991
 10
984.0805962452154
 20
595.905934620991
 42
0.4142135623730998
 10
984.0805962452154
 20
595.2324995912895
 10
984.6530160204618
 20
594.6600798160432
 10
984.6530160204618
 20
594.6600798160432
  0
LWPOLYLINE
  5
5E19
330
1F
100
AcDbEntity
  8
SPEC
100
AcDbPolyline
 90
        7
 70
     0
 43
0.0
 10
981.7572453927455
 20
594.6600798160432
 10
981.7572453927455
 20
594.6600798160432
 10
981.7572453927455
 20
594.6600798160432
 10
982.3296651679918
 20
595.2324995912893
 42
0.4142135623730998
 10
982.3296651679918
 20
595.905934620991
 10
981.7572453927455
 20
596.4783543962371
 10
982.2959934165069
 20
597.0171024199983
  0
LINE
  5
5E1A
330
1F
100
AcDbEntity
  8
SPEC
100
AcDbLine
 10
984.1142679967008
 20
594.121331792282
 30
0.0
 11
984.6530160204618
 21
594.6600798160432
 31
0.0
  0
LINE
  5
5E1B
330
1F
100
AcDbEntity
  8
SPEC
100
AcDbLine
 10
982.2959934165069
 20
594.121331792282
 30
0.0
 11
982.868413191753
 21
594.6937515675283
 31
0.0
  0
LINE
  5
5E1C
330
1F
100
AcDbEntity
  8
SPEC
100
AcDbLine
 10
981.7572453927455
 20
594.6600798160432
 30
0.0
 11
982.2959934165069
 21
594.121331792282
 31
0.0
  0
LWPOLYLINE
  5
5E1D
330
1F
100
AcDbEntity
  8
SPEC
100
AcDbPolyline
 90
        3
 70
     0
 43
0.0
 10
982.868413191753
 20
594.6937515675283
 42
-0.4142135623731186
 10
983.5418482214542
 20
594.6937515675283
 10
984.1142679967008
 20
594.121331792282
  0
LWPOLYLINE
  5
5E1E
330
1F
100
AcDbEntity
  8
SPEC
100
AcDbPolyline
 90
        7
 70
     0
 43
0.0
 10
984.0805962452154
 20
595.905934620991
 10
984.6530160204618
 20
596.4783543962371
 10
984.1142679967006
 20
597.0171024199983
 10
983.5418482214542
 20
596.4446826447522
 42
-0.4142135623730998
 10
982.868413191753
 20
596.4446826447522
 10
982.2959934165069
 20
597.0171024199983
 10
981.7572453927455
 20
596.4783543962371
  0
CIRCLE
  5
5E1F
330
1F
100
AcDbEntity
  8
AM_5
  6
ACISOTGL
100
AcDbCircle
 10
1008.230130706604
 20
580.0692171061402
 30
0.0
 40
1.190476190476191
  0
CIRCLE
  5
5E20
330
1F
100
AcDbEntity
  8
SPEC
  6
ACISOTGL
100
AcDbCircle
 10
1008.230130706604
 20
580.0692171061402
 30
0.0
 40
0.9523809523809527
  0
TEXT
  5
5E21
330
1F
100
AcDbEntity
  8
DIM
100
AcDbText
 10
987.9613630746769
 20
623.8292420927436
 30
0.0
 40
3.571428571428572
  1
Rear view
100
AcDbText
  0
CIRCLE
  5
5E22
330
1F
100
AcDbEntity
  8
SPEC
100
AcDbCircle
 10
772.8551134272613
 20
580.0692171061403
 30
0.0
 40
11.0
  0
CIRCLE
  5
5E23
330
1F
100
AcDbEntity
  8
SPEC
100
AcDbCircle
 10
772.8551134272613
 20
580.0692171061403
 30
0.0
 40
2.5
  0
DIMENSION
  5
5E24
102
{ACAD_XDICTIONARY
360
5E25
102
}
102
{ACAD_REACTORS
330
5E26
102
}
330
1F
100
AcDbEntity
  8
AM_5
100
AcDbDimension
  2
*D17
 10
788.3551134272614
 20
605.2976130978188
 30
0.0
 11
770.9791698876272
 21
605.2976130978188
 31
0.0
 70
   160
  1
{\Famgdt;o} <>
 71
     5
 42
31.0
  3
STANDARD$0
100
AcDbAlignedDimension
 13
757.3551134272613
 23
597.8787409156641
 33
0.0
 14
788.3551134272614
 24
597.4739790109022
 34
0.0
100
AcDbRotatedDimension
1001
ACAD
1000
DSTYLE
1002
{
1070
   147
1040
1.0
1070
    72
1070
     0
1070
    71
1070
     1
1070
    47
1040
0.2
1070
    48
1040
0.2
1070
   272
1070
     1
1002
}
1001
GENIUS_GENDTOL_13
1000
TolAcTol
1000

1000

1040
31.0
  0
DIMENSION
  5
5E27
330
1F
100
AcDbEntity
  8
AM_5
100
AcDbDimension
  2
*D11
 10
792.2551134272614
 20
611.3105688259699
 30
0.0
 11
771.7646697625821
 21
611.3105688259699
 31
0.0
 70
   160
  1
{\Famgdt;o} <>
 71
     5
 42
38.80000000000007
  3
STANDARD$0
100
AcDbAlignedDimension
 13
753.4551134272613
 23
595.9692171061401
 33
0.0
 14
792.2551134272614
 24
595.9692171061404
 34
0.0
100
AcDbRotatedDimension
1001
ACAD
1000
DSTYLE
1002
{
1070
    47
1040
0.2
1070
    48
1040
-0.2
1070
   272
1070
     1
1002
}
  0
CIRCLE
  5
5E28
330
1F
100
AcDbEntity
  8
SPEC
  6
ACISOTGL
100
AcDbCircle
 10
998.7051307066037
 20
580.06921710614
 30
0.0
 40
2.5
  0
LINE
  5
5E29
330
1F
100
AcDbEntity
  8
CENTER
100
AcDbLine
 10
983.2051307066038
 20
593.2596932966164
 30
0.0
 11
983.2051307066038
 21
597.8787409156638
 31
0.0
  0
LINE
  5
5E2A
330
1F
100
AcDbEntity
  8
CENTER
100
AcDbLine
 10
985.5146545161275
 20
595.56921710614
 30
0.0
 11
980.8956068970799
 21
595.56921710614
 31
0.0
  0
CIRCLE
  5
5E2B
330
1F
100
AcDbEntity
  8
SPEC
100
AcDbCircle
 10
1014.205130706603
 20
595.56921710614
 30
0.0
 40
2.5
  0
LWPOLYLINE
  5
5E2C
330
1F
100
AcDbEntity
  8
SPEC
100
AcDbPolyline
 90
        5
 70
     0
 43
0.0
 10
1013.329665167992
 20
595.905934620991
 10
1013.329665167992
 20
595.905934620991
 42
-0.4142135623730998
 10
1013.329665167992
 20
595.2324995912895
 10
1012.757245392745
 20
594.6600798160432
 10
1012.757245392745
 20
594.6600798160432
  0
LWPOLYLINE
  5
5E2D
330
1F
100
AcDbEntity
  8
SPEC
100
AcDbPolyline
 90
        7
 70
     0
 43
0.0
 10
1015.653016020461
 20
594.6600798160432
 10
1015.653016020461
 20
594.6600798160432
 10
1015.653016020461
 20
594.6600798160432
 10
1015.080596245215
 20
595.2324995912893
 42
-0.4142135623730998
 10
1015.080596245215
 20
595.905934620991
 10
1015.653016020461
 20
596.4783543962371
 10
1015.1142679967
 20
597.0171024199983
  0
LINE
  5
5E2E
330
1F
100
AcDbEntity
  8
SPEC
100
AcDbLine
 10
1013.295993416506
 20
594.121331792282
 30
0.0
 11
1012.757245392745
 21
594.6600798160432
 31
0.0
  0
LINE
  5
5E2F
330
1F
100
AcDbEntity
  8
SPEC
100
AcDbLine
 10
1015.1142679967
 20
594.121331792282
 30
0.0
 11
1014.541848221454
 21
594.6937515675283
 31
0.0
  0
LINE
  5
5E30
330
1F
100
AcDbEntity
  8
SPEC
100
AcDbLine
 10
1015.653016020461
 20
594.6600798160432
 30
0.0
 11
1015.1142679967
 21
594.121331792282
 31
0.0
  0
LWPOLYLINE
  5
5E31
330
1F
100
AcDbEntity
  8
SPEC
100
AcDbPolyline
 90
        3
 70
     0
 43
0.0
 10
1014.541848221454
 20
594.6937515675283
 42
0.4142135623731186
 10
1013.868413191753
 20
594.6937515675283
 10
1013.295993416506
 20
594.121331792282
  0
LWPOLYLINE
  5
5E32
330
1F
100
AcDbEntity
  8
SPEC
100
AcDbPolyline
 90
        7
 70
     0
 43
0.0
 10
1013.329665167992
 20
595.905934620991
 10
1012.757245392745
 20
596.4783543962371
 10
1013.295993416506
 20
597.0171024199983
 10
1013.868413191753
 20
596.4446826447522
 42
0.4142135623730998
 10
1014.541848221454
 20
596.4446826447522
 10
1015.1142679967
 20
597.0171024199983
 10
1015.653016020461
 20
596.4783543962371
  0
LINE
  5
5E33
330
1F
100
AcDbEntity
  8
CENTER
100
AcDbLine
 10
1014.205130706603
 20
593.2596932966164
 30
0.0
 11
1014.205130706603
 21
597.8787409156638
 31
0.0
  0
LINE
  5
5E34
330
1F
100
AcDbEntity
  8
CENTER
100
AcDbLine
 10
1011.89560689708
 20
595.56921710614
 30
0.0
 11
1016.514654516127
 21
595.56921710614
 31
0.0
  0
CIRCLE
  5
5E35
330
1F
100
AcDbEntity
  8
SPEC
100
AcDbCircle
 10
983.205130706604
 20
564.5692171061399
 30
0.0
 40
2.500000000000001
  0
LWPOLYLINE
  5
5E36
330
1F
100
AcDbEntity
  8
SPEC
100
AcDbPolyline
 90
        5
 70
     0
 43
0.0
 10
984.0805962452156
 20
564.2324995912889
 10
984.0805962452156
 20
564.2324995912889
 42
-0.4142135623730998
 10
984.0805962452156
 20
564.9059346209904
 10
984.653016020462
 20
565.4783543962367
 10
984.653016020462
 20
565.4783543962367
  0
LWPOLYLINE
  5
5E37
330
1F
100
AcDbEntity
  8
SPEC
100
AcDbPolyline
 90
        7
 70
     0
 43
0.0
 10
981.7572453927457
 20
565.4783543962366
 10
981.7572453927457
 20
565.4783543962366
 10
981.7572453927457
 20
565.4783543962366
 10
982.3296651679921
 20
564.9059346209906
 42
-0.4142135623730998
 10
982.3296651679921
 20
564.2324995912888
 10
981.7572453927457
 20
563.6600798160428
 10
982.2959934165071
 20
563.1213317922815
  0
LINE
  5
5E38
330
1F
100
AcDbEntity
  8
SPEC
100
AcDbLine
 10
984.114267996701
 20
566.0171024199979
 30
0.0
 11
984.653016020462
 21
565.4783543962367
 31
0.0
  0
LINE
  5
5E39
330
1F
100
AcDbEntity
  8
SPEC
100
AcDbLine
 10
982.2959934165071
 20
566.0171024199978
 30
0.0
 11
982.8684131917531
 21
565.4446826447516
 31
0.0
  0
LINE
  5
5E3A
330
1F
100
AcDbEntity
  8
SPEC
100
AcDbLine
 10
981.7572453927457
 20
565.4783543962366
 30
0.0
 11
982.2959934165071
 21
566.0171024199978
 31
0.0
  0
LWPOLYLINE
  5
5E3B
330
1F
100
AcDbEntity
  8
SPEC
100
AcDbPolyline
 90
        3
 70
     0
 43
0.0
 10
982.8684131917531
 20
565.4446826447516
 42
0.4142135623731186
 10
983.5418482214546
 20
565.4446826447516
 10
984.114267996701
 20
566.0171024199979
  0
LWPOLYLINE
  5
5E3C
330
1F
100
AcDbEntity
  8
SPEC
100
AcDbPolyline
 90
        7
 70
     0
 43
0.0
 10
984.0805962452156
 20
564.2324995912889
 10
984.653016020462
 20
563.6600798160428
 10
984.1142679967008
 20
563.1213317922816
 10
983.5418482214546
 20
563.6937515675278
 42
0.4142135623730998
 10
982.8684131917531
 20
563.6937515675278
 10
982.2959934165071
 20
563.1213317922815
 10
981.7572453927457
 20
563.6600798160428
  0
LINE
  5
5E3D
330
1F
100
AcDbEntity
  8
CENTER
100
AcDbLine
 10
983.205130706604
 20
566.8787409156635
 30
0.0
 11
983.205130706604
 21
562.259693296616
 31
0.0
  0
LINE
  5
5E3E
330
1F
100
AcDbEntity
  8
CENTER
100
AcDbLine
 10
985.5146545161279
 20
564.5692171061399
 30
0.0
 11
980.89560689708
 21
564.5692171061398
 31
0.0
  0
CIRCLE
  5
5E3F
330
1F
100
AcDbEntity
  8
SPEC
100
AcDbCircle
 10
1014.205130706604
 20
564.5692171061402
 30
0.0
 40
2.5
  0
LWPOLYLINE
  5
5E40
330
1F
100
AcDbEntity
  8
SPEC
100
AcDbPolyline
 90
        5
 70
     0
 43
0.0
 10
1013.329665167992
 20
564.2324995912892
 10
1013.329665167992
 20
564.2324995912892
 42
0.4142135623730998
 10
1013.329665167992
 20
564.9059346209908
 10
1012.757245392746
 20
565.478354396237
 10
1012.757245392746
 20
565.478354396237
  0
LWPOLYLINE
  5
5E41
330
1F
100
AcDbEntity
  8
SPEC
100
AcDbPolyline
 90
        7
 70
     0
 43
0.0
 10
1015.653016020462
 20
565.4783543962371
 10
1015.653016020462
 20
565.4783543962371
 10
1015.653016020462
 20
565.4783543962371
 10
1015.080596245216
 20
564.905934620991
 42
0.4142135623730998
 10
1015.080596245216
 20
564.2324995912892
 10
1015.653016020462
 20
563.6600798160432
 10
1015.1142679967
 20
563.121331792282
  0
LINE
  5
5E42
330
1F
100
AcDbEntity
  8
SPEC
100
AcDbLine
 10
1013.295993416506
 20
566.0171024199983
 30
0.0
 11
1012.757245392746
 21
565.478354396237
 31
0.0
  0
LINE
  5
5E43
330
1F
100
AcDbEntity
  8
SPEC
100
AcDbLine
 10
1015.1142679967
 20
566.0171024199983
 30
0.0
 11
1014.541848221454
 21
565.444682644752
 31
0.0
  0
LINE
  5
5E44
330
1F
100
AcDbEntity
  8
SPEC
100
AcDbLine
 10
1015.653016020462
 20
565.4783543962371
 30
0.0
 11
1015.1142679967
 21
566.0171024199983
 31
0.0
  0
LWPOLYLINE
  5
5E45
330
1F
100
AcDbEntity
  8
SPEC
100
AcDbPolyline
 90
        3
 70
     0
 43
0.0
 10
1014.541848221454
 20
565.444682644752
 42
-0.4142135623731186
 10
1013.868413191753
 20
565.444682644752
 10
1013.295993416506
 20
566.0171024199983
  0
LWPOLYLINE
  5
5E46
330
1F
100
AcDbEntity
  8
SPEC
100
AcDbPolyline
 90
        7
 70
     0
 43
0.0
 10
1013.329665167992
 20
564.2324995912892
 10
1012.757245392746
 20
563.660079816043
 10
1013.295993416507
 20
563.121331792282
 10
1013.868413191753
 20
563.6937515675281
 42
-0.4142135623730998
 10
1014.541848221454
 20
563.6937515675281
 10
1015.1142679967
 20
563.121331792282
 10
1015.653016020462
 20
563.6600798160432
  0
LINE
  5
5E47
330
1F
100
AcDbEntity
  8
CENTER
100
AcDbLine
 10
1014.205130706604
 20
566.8787409156639
 30
0.0
 11
1014.205130706604
 21
562.2596932966164
 31
0.0
  0
LINE
  5
5E48
330
1F
100
AcDbEntity
  8
CENTER
100
AcDbLine
 10
1011.89560689708
 20
564.5692171061401
 30
0.0
 11
1016.514654516127
 21
564.5692171061402
 31
0.0
  0
TEXT
  5
5E49
330
1F
100
AcDbEntity
  8
DATA
100
AcDbText
 10
1022.039956425391
 20
606.2103505871156
 30
0.0
 40
3.0
  1
2-M2.5x0.45
100
AcDbText
  0
TEXT
  5
5E4A
330
1F
100
AcDbEntity
  8
DATA
100
AcDbText
 10
1022.039956425391
 20
601.3911145707445
 30
0.0
 40
3.0
  1
DEPTH 2 MIN.
100
AcDbText
  0
TOLERANCE
  5
5E4B
330
1F
100
AcDbEntity
  8
DIM
100
AcDbFcf
  3
STANDARD
 10
832.7738783026818
 20
599.9781172438461
 30
0.0
  1
{\Fgdt;h}%%v0.05%%v%%v%%v%%v
 11
0.0000000000000001
 21
1.0
 31
0.0
1001
ACAD
1000
DSTYLE
1002
{
1070
   147
1040
0.9523809523809527
1002
}
  0
LINE
  5
5E4C
330
1F
100
AcDbEntity
  8
DIM
100
AcDbLine
 10
835.7738783026817
 20
587.3660471623387
 30
0.0
 11
835.7738783026817
 21
599.9781172438461
 31
0.0
  0
LINE
  5
5E4D
330
1F
100
AcDbEntity
  8
SPEC
100
AcDbLine
 10
981.8051307066038
 20
599.4692171061402
 30
0.0
 11
1015.605130706604
 21
599.4692171061404
 31
0.0
  0
ARC
  5
5E4E
330
1F
100
AcDbEntity
  8
SPEC
100
AcDbCircle
 10
1015.605130706604
 20
596.9692171061405
 30
0.0
 40
2.5
100
AcDbArc
 50
0.0
 51
90.0
1001
GENIUS_GENODEF_13
1002
{
1000
HIER
1070
     0
1002
}
1002
{
1000
MANEDIT
1070
     0
1002
}
1002
{
1000
NOSEL
1070
     0
1002
}
1002
{
1000
BEHIND
1070
     0
1002
}
1002
{
1000
OTHER
1070
     0
1002
}
1002
{
1000
REACTOR
1002
}
1001
GENIUS_GENOBJ-N-FIL_13
1002
{
1000
OWNER
1000
GEN
1002
}
  0
LINE
  5
5E4F
330
1F
100
AcDbEntity
  8
SPEC
100
AcDbLine
 10
1015.605130706604
 20
560.6692171061398
 30
0.0
 11
981.8051307066038
 21
560.6692171061403
 31
0.0
  0
ARC
  5
5E50
330
1F
100
AcDbEntity
  8
SPEC
100
AcDbCircle
 10
981.8051307066038
 20
563.1692171061403
 30
0.0
 40
2.5
100
AcDbArc
 50
180.0
 51
270.0
1001
GENIUS_GENOBJ-N-FIL_13
1002
{
1000
OWNER
1000
GEN
1002
}
1001
GENIUS_GENODEF_13
1002
{
1000
HIER
1070
     0
1002
}
1002
{
1000
MANEDIT
1070
     0
1002
}
1002
{
1000
NOSEL
1070
     0
1002
}
1002
{
1000
BEHIND
1070
     0
1002
}
1002
{
1000
OTHER
1070
     0
1002
}
1002
{
1000
REACTOR
1002
}
  0
LINE
  5
5E51
330
1F
100
AcDbEntity
  8
SPEC
100
AcDbLine
 10
979.3051307066038
 20
563.1692171061403
 30
0.0
 11
979.3051307066038
 21
596.9692171061401
 31
0.0
  0
ARC
  5
5E52
330
1F
100
AcDbEntity
  8
SPEC
100
AcDbCircle
 10
981.8051307066038
 20
596.9692171061401
 30
0.0
 40
2.5
100
AcDbArc
 50
90.0
 51
180.0
1001
GENIUS_GENODEF_13
1002
{
1000
HIER
1070
     0
1002
}
1002
{
1000
MANEDIT
1070
     0
1002
}
1002
{
1000
NOSEL
1070
     0
1002
}
1002
{
1000
BEHIND
1070
     0
1002
}
1002
{
1000
OTHER
1070
     0
1002
}
1002
{
1000
REACTOR
1002
}
1001
GENIUS_GENOBJ-N-FIL_13
1002
{
1000
OWNER
1000
GEN
1002
}
  0
LINE
  5
5E53
330
1F
100
AcDbEntity
  8
SPEC
100
AcDbLine
 10
1018.105130706604
 20
596.9692171061405
 30
0.0
 11
1018.105130706604
 21
563.1692171061398
 31
0.0
  0
ARC
  5
5E54
330
1F
100
AcDbEntity
  8
SPEC
100
AcDbCircle
 10
1015.605130706604
 20
563.1692171061398
 30
0.0
 40
2.5
100
AcDbArc
 50
270.0
 51
0.0
1001
GENIUS_GENOBJ-N-FIL_13
1002
{
1000
OWNER
1000
GEN
1002
}
1001
GENIUS_GENODEF_13
1002
{
1000
HIER
1070
     0
1002
}
1002
{
1000
MANEDIT
1070
     0
1002
}
1002
{
1000
NOSEL
1070
     0
1002
}
1002
{
1000
BEHIND
1070
     0
1002
}
1002
{
1000
OTHER
1070
     0
1002
}
1002
{
1000
REACTOR
1002
}
  0
LINE
  5
5E55
330
1F
100
AcDbEntity
  8
SPEC
100
AcDbLine
 10
876.2304584385674
 20
597.4739790109022
 30
0.0
 11
885.0876012957105
 21
597.4739790109022
 31
0.0
  0
LINE
  5
5E56
330
1F
100
AcDbEntity
  8
SPEC
100
AcDbLine
 10
876.2304584385674
 20
593.6644552013783
 30
0.0
 11
885.0876012957103
 21
593.6644552013783
 31
0.0
  0
LINE
  5
5E57
330
1F
100
AcDbEntity
  8
SPEC
100
AcDbLine
 10
876.2304584385674
 20
562.6644552013783
 30
0.0
 11
885.0876012957105
 21
562.6644552013783
 31
0.0
  0
LINE
  5
5E58
330
1F
100
AcDbEntity
  8
SPEC
100
AcDbLine
 10
876.2304584385674
 20
566.4739790109022
 30
0.0
 11
885.0876012957103
 21
566.4739790109023
 31
0.0
  0
LINE
  5
5E59
330
1F
100
AcDbEntity
  8
SPEC
100
AcDbLine
 10
896.2780774861869
 20
567.0692171061399
 30
0.0
 11
895.087601295711
 21
567.0692171061399
 31
0.0
  0
ARC
  5
5E5A
330
1F
100
AcDbEntity
  8
SPEC
100
AcDbCircle
 10
896.2780774861871
 20
566.1168361537587
 30
0.0
 40
0.9523809523809527
100
AcDbArc
 50
0.0
 51
90.0
  0
LINE
  5
5E5B
330
1F
100
AcDbEntity
  8
CENTER
100
AcDbLine
 10
900.0540510731012
 20
564.5692171061401
 30
0.0
 11
892.7546465247896
 21
564.5692171061398
 31
0.0
  0
LINE
  5
5E5C
330
1F
100
AcDbEntity
  8
SPEC
100
AcDbLine
 10
896.2780774861872
 20
562.0692171061397
 30
0.0
 11
895.0876012957113
 21
562.0692171061397
 31
0.0
  0
ARC
  5
5E5D
330
1F
100
AcDbEntity
  8
SPEC
100
AcDbCircle
 10
896.2780774861871
 20
563.0215980585206
 30
0.0
 40
0.9523809523809527
100
AcDbArc
 50
270.0
 51
0.0
  0
LINE
  5
5E5E
330
1F
100
AcDbEntity
  8
SPEC
100
AcDbLine
 10
979.3051307066038
 20
591.4692171061401
 30
0.0
 11
983.3051307066039
 21
591.4692171061401
 31
0.0
  0
LINE
  5
5E5F
330
1F
100
AcDbEntity
  8
SPEC
100
AcDbLine
 10
987.3051307066038
 20
599.4692171061402
 30
0.0
 11
987.3051307066038
 21
595.4692171061402
 31
0.0
  0
ARC
  5
5E60
330
1F
100
AcDbEntity
  8
SPEC
100
AcDbCircle
 10
983.3051307066039
 20
595.4692171061402
 30
0.0
 40
4.0
100
AcDbArc
 50
270.0
 51
0.0
1001
GENIUS_GENOBJ-N-FIL_13
1002
{
1000
OWNER
1000
GEN
1002
}
1001
GENIUS_GENODEF_13
1002
{
1000
HIER
1070
     0
1002
}
1002
{
1000
MANEDIT
1070
     0
1002
}
1002
{
1000
NOSEL
1070
     0
1002
}
1002
{
1000
BEHIND
1070
     0
1002
}
1002
{
1000
OTHER
1070
     0
1002
}
1002
{
1000
REACTOR
1002
}
  0
LINE
  5
5E61
330
1F
100
AcDbEntity
  8
SPEC
100
AcDbLine
 10
1018.105130706604
 20
591.4692171061401
 30
0.0
 11
1014.105130706604
 21
591.4692171061401
 31
0.0
  0
LINE
  5
5E62
330
1F
100
AcDbEntity
  8
SPEC
100
AcDbLine
 10
1010.105130706604
 20
599.4692171061402
 30
0.0
 11
1010.105130706604
 21
595.4692171061402
 31
0.0
  0
ARC
  5
5E63
330
1F
100
AcDbEntity
  8
SPEC
100
AcDbCircle
 10
1014.105130706604
 20
595.4692171061402
 30
0.0
 40
3.999999999999999
100
AcDbArc
 50
180.0
 51
270.0
1001
GENIUS_GENOBJ-N-FIL_13
1002
{
1000
OWNER
1000
GEN
1002
}
1001
GENIUS_GENODEF_13
1002
{
1000
HIER
1070
     0
1002
}
1002
{
1000
MANEDIT
1070
     0
1002
}
1002
{
1000
NOSEL
1070
     0
1002
}
1002
{
1000
BEHIND
1070
     0
1002
}
1002
{
1000
OTHER
1070
     0
1002
}
1002
{
1000
REACTOR
1002
}
  0
LINE
  5
5E64
330
1F
100
AcDbEntity
  8
SPEC
100
AcDbLine
 10
979.3051307066038
 20
568.6692171061403
 30
0.0
 11
983.3051307066039
 21
568.6692171061403
 31
0.0
  0
LINE
  5
5E65
330
1F
100
AcDbEntity
  8
SPEC
100
AcDbLine
 10
987.3051307066038
 20
560.6692171061402
 30
0.0
 11
987.3051307066038
 21
564.6692171061403
 31
0.0
  0
ARC
  5
5E66
330
1F
100
AcDbEntity
  8
SPEC
100
AcDbCircle
 10
983.3051307066039
 20
564.6692171061403
 30
0.0
 40
4.0
100
AcDbArc
 50
0.0
 51
90.0
1001
GENIUS_GENOBJ-N-FIL_13
1002
{
1000
OWNER
1000
GEN
1002
}
1001
GENIUS_GENODEF_13
1002
{
1000
HIER
1070
     0
1002
}
1002
{
1000
MANEDIT
1070
     0
1002
}
1002
{
1000
NOSEL
1070
     0
1002
}
1002
{
1000
BEHIND
1070
     0
1002
}
1002
{
1000
OTHER
1070
     0
1002
}
1002
{
1000
REACTOR
1002
}
  0
LINE
  5
5E67
330
1F
100
AcDbEntity
  8
SPEC
100
AcDbLine
 10
1018.105130706604
 20
568.6692171061403
 30
0.0
 11
1014.105130706604
 21
568.6692171061403
 31
0.0
  0
LINE
  5
5E68
330
1F
100
AcDbEntity
  8
SPEC
100
AcDbLine
 10
1010.105130706604
 20
560.6692171061402
 30
0.0
 11
1010.105130706604
 21
564.6692171061403
 31
0.0
  0
ARC
  5
5E69
330
1F
100
AcDbEntity
  8
SPEC
100
AcDbCircle
 10
1014.105130706604
 20
564.6692171061403
 30
0.0
 40
3.999999999999999
100
AcDbArc
 50
90.0
 51
180.0
1001
GENIUS_GENOBJ-N-FIL_13
1002
{
1000
OWNER
1000
GEN
1002
}
1001
GENIUS_GENODEF_13
1002
{
1000
HIER
1070
     0
1002
}
1002
{
1000
MANEDIT
1070
     0
1002
}
1002
{
1000
NOSEL
1070
     0
1002
}
1002
{
1000
BEHIND
1070
     0
1002
}
1002
{
1000
OTHER
1070
     0
1002
}
1002
{
1000
REACTOR
1002
}
  0
LINE
  5
5E6A
330
1F
100
AcDbEntity
  8
SPEC
100
AcDbLine
 10
983.205130706604
 20
564.5692171061399
 30
0.0
 11
983.205130706604
 21
560.6692171061401
 31
0.0
  0
LINE
  5
5E6B
330
1F
100
AcDbEntity
  8
SPEC
100
AcDbLine
 10
895.0876012957104
 20
592.7063962544031
 30
0.0
 11
895.0876012957104
 21
599.4692171061399
 31
0.0
  0
LINE
  5
5E6C
330
1F
100
AcDbEntity
  8
SPEC
100
AcDbLine
 10
895.0876012957104
 20
592.7063962544031
 30
0.0
 11
897.2304584385675
 21
591.4692171061395
 31
0.0
  0
LINE
  5
5E6D
330
1F
100
AcDbEntity
  8
SPEC
100
AcDbLine
 10
757.2906473331941
 20
591.4692171061402
 30
0.0
 11
759.9551134272615
 21
591.4692171061403
 31
0.0
  0
ARC
  5
5E6E
330
1F
100
AcDbEntity
  8
SPEC
100
AcDbCircle
 10
757.2906473331941
 20
591.9692171061402
 30
0.0
 40
0.5
100
AcDbArc
 50
135.0
 51
270.0
1001
GENIUS_GENOBJ-N-FIL_13
1002
{
1000
OWNER
1000
GEN
1002
}
1001
GENIUS_GENODEF_13
1002
{
1000
HIER
1070
     0
1002
}
1002
{
1000
MANEDIT
1070
     0
1002
}
1002
{
1000
NOSEL
1070
     0
1002
}
1002
{
1000
BEHIND
1070
     0
1002
}
1002
{
1000
OTHER
1070
     0
1002
}
1002
{
1000
REACTOR
1002
}
  0
LINE
  5
5E6F
330
1F
100
AcDbEntity
  8
SPEC
100
AcDbLine
 10
761.4551134272614
 20
595.6336832002075
 30
0.0
 11
761.4551134272614
 21
592.9692171061403
 31
0.0
  0
ARC
  5
5E70
330
1F
100
AcDbEntity
  8
SPEC
100
AcDbCircle
 10
759.9551134272615
 20
592.9692171061403
 30
0.0
 40
1.5
100
AcDbArc
 50
270.0
 51
0.0
1001
GENIUS_GENODEF_13
1002
{
1000
HIER
1070
     0
1002
}
1002
{
1000
MANEDIT
1070
     0
1002
}
1002
{
1000
NOSEL
1070
     0
1002
}
1002
{
1000
BEHIND
1070
     0
1002
}
1002
{
1000
OTHER
1070
     0
1002
}
1002
{
1000
REACTOR
1002
}
1001
GENIUS_GENOBJ-N-FIL_13
1002
{
1000
OWNER
1000
GEN
1002
}
  0
LINE
  5
5E71
330
1F
100
AcDbEntity
  8
SPEC
100
AcDbLine
 10
753.4551134272614
 20
594.4976442308866
 30
0.0
 11
758.4266863025151
 21
599.4692171061402
 31
0.0
  0
LINE
  5
5E72
330
1F
100
AcDbEntity
  8
SPEC
100
AcDbLine
 10
756.9370939426009
 20
592.3227704967335
 30
0.0
 11
760.6015600366682
 21
595.9872365908007
 31
0.0
  0
ARC
  5
5E73
330
1F
100
AcDbEntity
  8
SPEC
100
AcDbCircle
 10
760.9551134272614
 20
595.6336832002075
 30
0.0
 40
0.5
100
AcDbArc
 50
0.0
 51
135.0
1001
GENIUS_GENOBJ-N-FIL_13
1002
{
1000
OWNER
1000
GEN
1002
}
1001
GENIUS_GENODEF_13
1002
{
1000
HIER
1070
     0
1002
}
1002
{
1000
MANEDIT
1070
     0
1002
}
1002
{
1000
NOSEL
1070
     0
1002
}
1002
{
1000
BEHIND
1070
     0
1002
}
1002
{
1000
OTHER
1070
     0
1002
}
1002
{
1000
REACTOR
1002
}
  0
LINE
  5
5E74
330
1F
100
AcDbEntity
  8
SPEC
100
AcDbLine
 10
788.4195795213287
 20
591.46921710614
 30
0.0
 11
785.7551134272613
 21
591.4692171061401
 31
0.0
  0
ARC
  5
5E75
330
1F
100
AcDbEntity
  8
SPEC
100
AcDbCircle
 10
788.4195795213287
 20
591.96921710614
 30
0.0
 40
0.5
100
AcDbArc
 50
270.0
 51
45.0000000000046
1001
GENIUS_GENOBJ-N-FIL_13
1002
{
1000
OWNER
1000
GEN
1002
}
1001
GENIUS_GENODEF_13
1002
{
1000
HIER
1070
     0
1002
}
1002
{
1000
MANEDIT
1070
     0
1002
}
1002
{
1000
NOSEL
1070
     0
1002
}
1002
{
1000
BEHIND
1070
     0
1002
}
1002
{
1000
OTHER
1070
     0
1002
}
1002
{
1000
REACTOR
1002
}
  0
LINE
  5
5E76
330
1F
100
AcDbEntity
  8
SPEC
100
AcDbLine
 10
784.2551134272614
 20
595.6336832002072
 30
0.0
 11
784.2551134272613
 21
592.9692171061401
 31
0.0
  0
ARC
  5
5E77
330
1F
100
AcDbEntity
  8
SPEC
100
AcDbCircle
 10
785.7551134272613
 20
592.9692171061401
 30
0.0
 40
1.499999999999999
100
AcDbArc
 50
180.0
 51
270.0
1001
GENIUS_GENODEF_13
1002
{
1000
HIER
1070
     0
1002
}
1002
{
1000
MANEDIT
1070
     0
1002
}
1002
{
1000
NOSEL
1070
     0
1002
}
1002
{
1000
BEHIND
1070
     0
1002
}
1002
{
1000
OTHER
1070
     0
1002
}
1002
{
1000
REACTOR
1002
}
1001
GENIUS_GENOBJ-N-FIL_13
1002
{
1000
OWNER
1000
GEN
1002
}
  0
LINE
  5
5E78
330
1F
100
AcDbEntity
  8
SPEC
100
AcDbLine
 10
792.2551134272614
 20
594.4976442308863
 30
0.0
 11
787.2835405520078
 21
599.46921710614
 31
0.0
  0
LINE
  5
5E79
330
1F
100
AcDbEntity
  8
SPEC
100
AcDbLine
 10
788.7731329119219
 20
592.3227704967334
 30
0.0
 11
785.1086668178546
 21
595.9872365908005
 31
0.0
  0
ARC
  5
5E7A
330
1F
100
AcDbEntity
  8
SPEC
100
AcDbCircle
 10
784.7551134272614
 20
595.6336832002072
 30
0.0
 40
0.5
100
AcDbArc
 50
44.99999999999078
 51
180.0
1001
GENIUS_GENOBJ-N-FIL_13
1002
{
1000
OWNER
1000
GEN
1002
}
1001
GENIUS_GENODEF_13
1002
{
1000
HIER
1070
     0
1002
}
1002
{
1000
MANEDIT
1070
     0
1002
}
1002
{
1000
NOSEL
1070
     0
1002
}
1002
{
1000
BEHIND
1070
     0
1002
}
1002
{
1000
OTHER
1070
     0
1002
}
1002
{
1000
REACTOR
1002
}
  0
LINE
  5
5E7B
330
1F
100
AcDbEntity
  8
SPEC
100
AcDbLine
 10
757.2906473331941
 20
568.6692171061404
 30
0.0
 11
759.9551134272615
 21
568.6692171061403
 31
0.0
  0
ARC
  5
5E7C
330
1F
100
AcDbEntity
  8
SPEC
100
AcDbCircle
 10
757.2906473331941
 20
568.1692171061404
 30
0.0
 40
0.5
100
AcDbArc
 50
90.0
 51
225.0000000000092
1001
GENIUS_GENOBJ-N-FIL_13
1002
{
1000
OWNER
1000
GEN
1002
}
1001
GENIUS_GENODEF_13
1002
{
1000
HIER
1070
     0
1002
}
1002
{
1000
MANEDIT
1070
     0
1002
}
1002
{
1000
NOSEL
1070
     0
1002
}
1002
{
1000
BEHIND
1070
     0
1002
}
1002
{
1000
OTHER
1070
     0
1002
}
1002
{
1000
REACTOR
1002
}
  0
LINE
  5
5E7D
330
1F
100
AcDbEntity
  8
SPEC
100
AcDbLine
 10
761.4551134272614
 20
564.5047510120731
 30
0.0
 11
761.4551134272614
 21
567.1692171061403
 31
0.0
  0
ARC
  5
5E7E
330
1F
100
AcDbEntity
  8
SPEC
100
AcDbCircle
 10
759.9551134272615
 20
567.1692171061403
 30
0.0
 40
1.5
100
AcDbArc
 50
0.0
 51
90.0
1001
GENIUS_GENODEF_13
1002
{
1000
HIER
1070
     0
1002
}
1002
{
1000
MANEDIT
1070
     0
1002
}
1002
{
1000
NOSEL
1070
     0
1002
}
1002
{
1000
BEHIND
1070
     0
1002
}
1002
{
1000
OTHER
1070
     0
1002
}
1002
{
1000
REACTOR
1002
}
1001
GENIUS_GENOBJ-N-FIL_13
1002
{
1000
OWNER
1000
GEN
1002
}
  0
LINE
  5
5E7F
330
1F
100
AcDbEntity
  8
SPEC
100
AcDbLine
 10
753.4551134272614
 20
565.640789981394
 30
0.0
 11
758.4266863025151
 21
560.6692171061403
 31
0.0
  0
LINE
  5
5E80
330
1F
100
AcDbEntity
  8
SPEC
100
AcDbLine
 10
756.9370939426009
 20
567.8156637155471
 30
0.0
 11
760.6015600366682
 21
564.1511976214799
 31
0.0
  0
ARC
  5
5E81
330
1F
100
AcDbEntity
  8
SPEC
100
AcDbCircle
 10
760.9551134272614
 20
564.5047510120731
 30
0.0
 40
0.5
100
AcDbArc
 50
224.9999999999954
 51
0.0
1001
GENIUS_GENOBJ-N-FIL_13
1002
{
1000
OWNER
1000
GEN
1002
}
1001
GENIUS_GENODEF_13
1002
{
1000
HIER
1070
     0
1002
}
1002
{
1000
MANEDIT
1070
     0
1002
}
1002
{
1000
NOSEL
1070
     0
1002
}
1002
{
1000
BEHIND
1070
     0
1002
}
1002
{
1000
OTHER
1070
     0
1002
}
1002
{
1000
REACTOR
1002
}
  0
LINE
  5
5E82
330
1F
100
AcDbEntity
  8
SPEC
100
AcDbLine
 10
788.4195795213287
 20
568.6692171061406
 30
0.0
 11
785.7551134272613
 21
568.6692171061405
 31
0.0
  0
ARC
  5
5E83
330
1F
100
AcDbEntity
  8
SPEC
100
AcDbCircle
 10
788.4195795213287
 20
568.1692171061406
 30
0.0
 40
0.5
100
AcDbArc
 50
314.9999999999908
 51
90.0
1001
GENIUS_GENOBJ-N-FIL_13
1002
{
1000
OWNER
1000
GEN
1002
}
1001
GENIUS_GENODEF_13
1002
{
1000
HIER
1070
     0
1002
}
1002
{
1000
MANEDIT
1070
     0
1002
}
1002
{
1000
NOSEL
1070
     0
1002
}
1002
{
1000
BEHIND
1070
     0
1002
}
1002
{
1000
OTHER
1070
     0
1002
}
1002
{
1000
REACTOR
1002
}
  0
LINE
  5
5E84
330
1F
100
AcDbEntity
  8
SPEC
100
AcDbLine
 10
784.2551134272614
 20
564.5047510120734
 30
0.0
 11
784.2551134272613
 21
567.1692171061405
 31
0.0
  0
ARC
  5
5E85
330
1F
100
AcDbEntity
  8
SPEC
100
AcDbCircle
 10
785.7551134272613
 20
567.1692171061405
 30
0.0
 40
1.499999999999999
100
AcDbArc
 50
90.0
 51
180.0
1001
GENIUS_GENODEF_13
1002
{
1000
HIER
1070
     0
1002
}
1002
{
1000
MANEDIT
1070
     0
1002
}
1002
{
1000
NOSEL
1070
     0
1002
}
1002
{
1000
BEHIND
1070
     0
1002
}
1002
{
1000
OTHER
1070
     0
1002
}
1002
{
1000
REACTOR
1002
}
1001
GENIUS_GENOBJ-N-FIL_13
1002
{
1000
OWNER
1000
GEN
1002
}
  0
LINE
  5
5E86
330
1F
100
AcDbEntity
  8
SPEC
100
AcDbLine
 10
792.2551134272614
 20
565.6407899813943
 30
0.0
 11
787.2835405520078
 21
560.6692171061406
 31
0.0
  0
LINE
  5
5E87
330
1F
100
AcDbEntity
  8
SPEC
100
AcDbLine
 10
788.7731329119219
 20
567.8156637155473
 30
0.0
 11
785.1086668178546
 21
564.1511976214801
 31
0.0
  0
ARC
  5
5E88
330
1F
100
AcDbEntity
  8
SPEC
100
AcDbCircle
 10
784.7551134272614
 20
564.5047510120734
 30
0.0
 40
0.5
100
AcDbArc
 50
180.0
 51
315.0000000000092
1001
GENIUS_GENOBJ-N-FIL_13
1002
{
1000
OWNER
1000
GEN
1002
}
1001
GENIUS_GENODEF_13
1002
{
1000
HIER
1070
     0
1002
}
1002
{
1000
MANEDIT
1070
     0
1002
}
1002
{
1000
NOSEL
1070
     0
1002
}
1002
{
1000
BEHIND
1070
     0
1002
}
1002
{
1000
OTHER
1070
     0
1002
}
1002
{
1000
REACTOR
1002
}
  0
TEXT
  5
5FC7
330
1F
100
AcDbEntity
  8
DATA
100
AcDbText
 10
741.9838429189942
 20
545.8909262188226
 30
0.0
 40
3.0
  1
DEPTH 4.5 MIN.
100
AcDbText
  0
VIEWPORT
  5
2D8
102
{ACAD_XDICTIONARY
360
60A3
102
}
330
1B
100
AcDbEntity
 67
     1
  8
0
100
AcDbViewport
 10
154.6312272180031
 20
105.7968920068605
 30
0.0
 40
374.490660759336
 41
237.4589904062958
 68
     1
 69
     1
 12
154.6312272180031
 22
105.7968920068605
 13
0.0
 23
0.0
 14
10.0
 24
10.0
 15
10.0
 25
10.0
 16
0.0
 26
0.0
 36
1.0
 17
0.0
 27
0.0
 37
0.0
 42
50.0
 43
0.0
 44
0.0
 45
237.4589904062958
 50
0.0
 51
0.0
 72
   100
 90
    32768
  1

281
     0
 71
     0
 74
     0
110
0.0
120
0.0
130
0.0
111
1.0
121
0.0
131
0.0
112
0.0
122
1.0
132
0.0
 79
     0
146
0.0
  0
MTEXT
  5
1290
330
1B
100
AcDbEntity
 67
     1
  8
DATA
100
AcDbMText
 10
142.6845396305116
 20
14.24154306217638
 30
0.0
 40
1.930697999999999
 41
24.133725
 71
     1
 72
     5
  1
X       %%p0.5\P1PL     %%p0.2\P2PL     %%p0.1\PANGLE   %%p30'
  7
ROMANS
 73
     1
 44
1.0
1001
ACAD
1000
MTEXTBEGIN
1070
    73
1070
     1
1070
    44
1040
1.0
1070
    74
1070
     0
1000
MTEXTEND
  0
LWPOLYLINE
  5
1291
330
1B
100
AcDbEntity
 67
     1
  8
SPEC
100
AcDbPolyline
 90
        2
 70
     0
 43
0.0
 10
44.51178313191621
 20
21.65598901220129
 10
104.0278513100474
 20
21.65598901220129
  0
TEXT
  5
1294
330
1B
100
AcDbEntity
 67
     1
  8
DATA
100
AcDbText
 10
223.3033978947773
 20
2.332825847364669
 30
0.0
 40
3.861395999999999
  1
SH4009S0404
 41
0.7
  7
ROMANS
100
AcDbText
  0
LWPOLYLINE
  5
1296
330
1B
100
AcDbEntity
 67
     1
  8
SPEC
100
AcDbPolyline
 90
        2
 70
     0
 43
0.0
 10
0.0009154015513104
 20
21.65598901220129
 10
44.6040054243686
 20
21.65598901220129
  0
LINE
  5
1297
330
1B
100
AcDbEntity
 67
     1
  8
DATA
100
AcDbLine
 10
141.4515899505442
 20
16.0064410711449
 30
0.0
 11
206.4352883025385
 21
16.0064410711449
 31
0.0
  0
LINE
  5
1299
330
1B
100
AcDbEntity
 67
     1
  8
DATA
100
AcDbLine
 10
188.9615608996265
 20
21.65598901220129
 30
0.0
 11
188.9615608996265
 21
0.0005791177154606
 31
0.0
  0
LINE
  5
129A
330
1B
100
AcDbEntity
 67
     1
  8
DATA
100
AcDbLine
 10
172.7736353934133
 20
21.65598905905817
 30
0.0
 11
172.7736353934214
 21
6.498316907446511
 31
0.0
  0
LINE
  5
129B
330
1B
100
AcDbEntity
 67
     1
  8
DATA
100
AcDbLine
 10
161.8855388603332
 20
0.0005791177154606
 30
0.0
 11
161.8855388603055
 21
21.65598905610526
 31
0.0
  0
LINE
  5
129D
330
1B
100
AcDbEntity
 67
     1
  8
DATA
100
AcDbLine
 10
206.4352889818797
 20
21.65598901220129
 30
0.0
 11
206.4352889818797
 21
0.0005791177154606
 31
0.0
  0
LINE
  5
129E
330
1B
100
AcDbEntity
 67
     1
  8
DATA
100
AcDbLine
 10
71.44730055967194
 20
21.65598903157794
 30
0.0
 11
71.44730055966755
 21
0.0005791177154606
 31
0.0
  0
LINE
  5
129F
330
1B
100
AcDbEntity
 67
     1
  8
DATA
100
AcDbLine
 10
86.04251283526197
 20
21.65598903553624
 30
0.0
 11
86.0425128352576
 21
0.0005791177154606
 31
0.0
  0
LINE
  5
12A0
330
1B
100
AcDbEntity
 67
     1
  8
DATA
100
AcDbLine
 10
50.66681625037072
 20
21.65598901220129
 30
0.0
 11
50.66681625037072
 21
0.0005791177154606
 31
0.0
  0
LINE
  5
12A2
330
1B
100
AcDbEntity
 67
     1
  8
DATA
100
AcDbLine
 10
86.0425128352576
 20
16.5762960950056
 30
0.0
 11
0.1578772078717369
 21
16.5762960950056
 31
0.0
  0
LINE
  5
12A3
330
1B
100
AcDbEntity
 67
     1
  8
DATA
100
AcDbLine
 10
0.1578772078717369
 20
11.49660317780992
 30
0.0
 11
86.0425128352576
 21
11.49660317780992
 31
0.0
  0
LINE
  5
12A4
330
1B
100
AcDbEntity
 67
     1
  8
DATA
100
AcDbLine
 10
0.3218667998937382
 20
6.416910260614244
 30
0.0
 11
86.0425128352576
 21
6.416910260614244
 31
0.0
  0
LINE
  5
12A5
330
1B
100
AcDbEntity
 67
     1
  8
DATA
100
AcDbLine
 10
10.9812208516878
 20
21.65598901220129
 30
0.0
 11
10.9812208516878
 21
0.0005791177154606
 31
0.0
  0
LINE
  5
12A6
330
1B
100
AcDbEntity
 67
     1
  8
DATA
100
AcDbLine
 10
206.4352889818797
 20
6.487604351384876
 30
0.0
 11
161.8855388603332
 21
6.487604351384876
 31
0.0
  0
LINE
  5
12A7
330
1B
100
AcDbEntity
 67
     1
  8
DATA
100
AcDbLine
 10
161.8855388603332
 20
11.19931228302795
 30
0.0
 11
206.4352889818797
 21
11.19931228302795
 31
0.0
  0
TEXT
  5
12A8
330
1B
100
AcDbEntity
 67
     1
  8
DATA
100
AcDbText
 10
144.2089124014906
 20
17.38788360913192
 30
0.0
 40
2.413372499999999
  1
SCALE FREE
 41
0.7
  7
ROMANS
 72
     2
 11
159.5740506514906
 21
17.38788360913192
 31
0.0
100
AcDbText
  0
LINE
  5
12A9
330
1B
100
AcDbEntity
 67
     1
  8
DATA
100
AcDbLine
 10
141.4515899505442
 20
21.65598901220129
 30
0.0
 11
141.4515899505442
 21
0.0005791177154606
 31
0.0
  0
TEXT
  5
12AA
330
1B
100
AcDbEntity
 67
     1
  8
DATA
100
AcDbText
 10
72.81931794091391
 20
2.289088082541405
 30
0.0
 40
2.896047
  1
APVD
 41
0.7
  7
ROMANS
100
AcDbText
  0
TEXT
  5
12AB
330
1B
100
AcDbEntity
 67
     1
  8
DATA
100
AcDbText
 10
54.00518497335647
 20
2.289088082541405
 30
0.0
 40
2.896047
  1
DATE
 41
0.7
  7
ROMANS
100
AcDbText
  0
TEXT
  5
12AC
330
1B
100
AcDbEntity
 67
     1
  8
DATA
100
AcDbText
 10
13.71048401705179
 20
2.289088082541405
 30
0.0
 40
2.896047
  1
DESCRIPTION
 41
0.7
  7
ROMANS
100
AcDbText
  0
TEXT
  5
12AD
330
1B
100
AcDbEntity
 67
     1
  8
DATA
100
AcDbText
 10
2.61316602814029
 20
2.289088082541405
 30
0.0
 40
2.896047
  1
REV
 41
0.7
  7
ROMANS
 72
     2
 11
8.11565532814029
 21
2.289088082541405
 31
0.0
100
AcDbText
  0
TEXT
  5
12B1
330
1B
100
AcDbEntity
 67
     1
  8
DATA
100
AcDbText
 10
166.3066680148434
 20
2.249663648385519
 30
0.0
 40
2.896047
  1
SIGNATURE
 41
0.7
  7
ROMANS
 72
     2
 11
182.2349265148434
 21
2.249663648385519
 31
0.0
100
AcDbText
  0
TEXT
  5
12B2
330
1B
100
AcDbEntity
 67
     1
  8
DATA
100
AcDbText
 10
194.0753275043612
 20
2.147712645052658
 30
0.0
 40
2.896047
  1
DATE
 41
0.7
  7
ROMANS
 72
     2
 11
201.0258403043613
 21
2.147712645052658
 31
0.0
100
AcDbText
  0
TEXT
  5
12B3
330
1B
100
AcDbEntity
 67
     1
  8
DATA
100
AcDbText
 10
211.3647597711961
 20
15.15914893796167
 30
0.0
 40
3.668326199999999
  1
STEPPING MOTOR
 41
0.8
  7
ITALICT
 72
     2
 11
254.825691131196
 21
15.15914893796167
 31
0.0
100
AcDbText
  0
LINE
  5
12B4
330
1B
100
AcDbEntity
 67
     1
  8
DATA
100
AcDbLine
 10
206.4352889818797
 20
12.14062779339902
 30
0.0
 11
282.0457513033824
 21
12.14062786989238
 31
0.0
  0
TEXT
  5
12B5
330
1B
100
AcDbEntity
 67
     1
  8
DATA
100
AcDbText
 10
208.2206521091139
 20
8.230964343399071
 30
0.0
 40
2.413372499999999
  1
DWG.NO
 41
0.7
  7
ROMANS
 72
     2
 11
217.6328048591138
 21
8.230964343399071
 31
0.0
100
AcDbText
  0
TEXT
  5
12B6
330
1B
100
AcDbEntity
 67
     1
  8
DATA
100
AcDbText
 10
89.47920924063479
 20
16.55350887427961
 30
0.0
 40
2.896047
  1
NANOTEC:
 41
0.7
  7
ROMANS
100
AcDbText
  0
TEXT
  5
12B7
330
1B
100
AcDbEntity
 67
     1
  8
DATA
100
AcDbText
 10
189.4634543457442
 20
7.541155117526503
 30
0.0
 40
2.509907399999999
  1
12.06.06
 41
0.7
  7
ROMANS
100
AcDbText
  0
LINE
  5
12B8
330
1B
100
AcDbEntity
 67
     1
  8
SPEC
100
AcDbLine
 10
0.0009154015513104
 20
21.65598901220129
 30
0.0
 11
0.0009154015513104
 21
119.7806666755164
 31
0.0
  0
LWPOLYLINE
  5
12BA
330
1B
100
AcDbEntity
 67
     1
  8
SPEC
100
AcDbPolyline
 90
        4
 70
     1
 43
0.0
 10
0.0009154015513104
 20
196.1105791177017
 10
0.0009154015513104
 20
0.0005791177154606
 10
282.0457558342515
 20
0.0005791177154606
 10
282.0456818962882
 20
196.1105791177017
  0
LWPOLYLINE
  5
1708
330
1B
100
AcDbEntity
 67
     1
  8
SPEC
100
AcDbPolyline
 90
        2
 70
     0
 43
0.0
 10
46.10949139879676
 20
21.6559890122013
 10
107.7618763685136
 20
21.6559890122013
  0
TEXT
  5
1948
330
1B
100
AcDbEntity
 67
     1
  8
DATA
100
AcDbText
 10
222.0559120269539
 20
45.3814127047898
 30
0.0
 40
2.4
  1
CCW
 41
0.7
  7
ROMANS
 72
     1
 11
224.7359120269539
 21
45.3814127047898
 31
0.0
100
AcDbText
  0
SOLID
  5
1949
330
1B
100
AcDbEntity
 67
     1
  8
DATA
100
AcDbTrace
 10
224.3297618573704
 20
40.43820172486755
 30
0.0
 11
225.1297618573706
 21
40.43820172486755
 31
0.0
 12
224.7297618573705
 22
42.83820172486741
 32
0.0
 13
224.7297618573705
 23
42.83820172486741
 33
0.0
  0
TEXT
  5
194A
330
1B
100
AcDbEntity
 67
     1
  8
DATA
100
AcDbText
 10
209.8202700920619
 20
45.3814127047898
 30
0.0
 40
2.4
  1
B\
 41
0.7
  7
ROMANS
 72
     1
 11
211.6202700920619
 21
45.3814127047898
 31
0.0
100
AcDbText
  0
TEXT
  5
194B
330
1B
100
AcDbEntity
 67
     1
  8
DATA
100
AcDbText
 10
202.0602700920619
 20
45.3814127047898
 30
0.0
 40
2.4
  1
A\
 41
0.7
  7
ROMANS
 72
     1
 11
203.6202700920619
 21
45.3814127047898
 31
0.0
100
AcDbText
  0
TEXT
  5
194C
330
1B
100
AcDbEntity
 67
     1
  8
DATA
100
AcDbText
 10
210.7228682165457
 20
40.58141270478984
 30
0.0
 40
2.4
  1
-
 41
0.7
  7
ROMANS
 72
     1
 11
211.7628682165457
 21
40.58141270478984
 31
0.0
100
AcDbText
  0
TEXT
  5
194D
330
1B
100
AcDbEntity
 67
     1
  8
DATA
100
AcDbText
 10
210.7228682165457
 20
36.00504105520997
 30
0.0
 40
2.4
  1
-
 41
0.7
  7
ROMANS
 72
     1
 11
211.7628682165457
 21
36.00504105520997
 31
0.0
100
AcDbText
  0
LINE
  5
194E
330
1B
100
AcDbEntity
 67
     1
  8
DATA
100
AcDbLine
 10
218.6387615475084
 20
33.05614067461068
 30
0.0
 11
218.6387615475084
 21
43.50753322399839
 31
0.0
  0
TEXT
  5
194F
330
1B
100
AcDbEntity
 67
     1
  8
DATA
100
AcDbText
 10
202.7228682165457
 20
40.58141270478984
 30
0.0
 40
2.4
  1
-
 41
0.7
  7
ROMANS
 72
     1
 11
203.7628682165457
 21
40.58141270478984
 31
0.0
100
AcDbText
  0
TEXT
  5
1950
330
1B
100
AcDbEntity
 67
     1
  8
DATA
100
AcDbText
 10
202.5802700920619
 20
35.78141270478989
 30
0.0
 40
2.4
  1
+
 41
0.7
  7
ROMANS
 72
     1
 11
203.6202700920619
 21
35.78141270478989
 31
0.0
100
AcDbText
  0
TEXT
  5
1951
330
1B
100
AcDbEntity
 67
     1
  8
DATA
100
AcDbText
 10
194.7402700920619
 20
45.3814127047898
 30
0.0
 40
2.4
  1
B
 41
0.7
  7
ROMANS
 72
     1
 11
195.6202700920619
 21
45.3814127047898
 31
0.0
100
AcDbText
  0
TEXT
  5
1952
330
1B
100
AcDbEntity
 67
     1
  8
DATA
100
AcDbText
 10
186.9002700920619
 20
45.3814127047898
 30
0.0
 40
2.4
  1
A
 41
0.7
  7
ROMANS
 72
     1
 11
187.6202700920619
 21
45.3814127047898
 31
0.0
100
AcDbText
  0
TEXT
  5
1953
330
1B
100
AcDbEntity
 67
     1
  8
DATA
100
AcDbText
 10
194.3512967575834
 20
30.97103195662715
 30
0.0
 40
2.4
  1
-
 41
0.7
  7
ROMANS
 72
     1
 11
195.3912967575834
 21
30.97103195662715
 31
0.0
100
AcDbText
  0
TEXT
  5
1954
330
1B
100
AcDbEntity
 67
     1
  8
DATA
100
AcDbText
 10
186.3512967575834
 20
30.97103195662715
 30
0.0
 40
2.4
  1
-
 41
0.7
  7
ROMANS
 72
     1
 11
187.3912967575834
 21
30.97103195662715
 31
0.0
100
AcDbText
  0
TEXT
  5
1955
330
1B
100
AcDbEntity
 67
     1
  8
DATA
100
AcDbText
 10
210.5802700920619
 20
26.18141270478975
 30
0.0
 40
2.4
  1
+
 41
0.7
  7
ROMANS
 72
     1
 11
211.6202700920619
 21
26.18141270478975
 31
0.0
100
AcDbText
  0
TEXT
  5
1956
330
1B
100
AcDbEntity
 67
     1
  8
DATA
100
AcDbText
 10
202.5943255391937
 20
26.05143211885059
 30
0.0
 40
2.4
  1
-
 41
0.7
  7
ROMANS
 72
     1
 11
203.6343255391937
 21
26.05143211885059
 31
0.0
100
AcDbText
  0
TEXT
  5
1957
330
1B
100
AcDbEntity
 67
     1
  8
DATA
100
AcDbText
 10
194.5943255391937
 20
26.05143211885059
 30
0.0
 40
2.4
  1
-
 41
0.7
  7
ROMANS
 72
     1
 11
195.6343255391937
 21
26.05143211885059
 31
0.0
100
AcDbText
  0
TEXT
  5
1958
330
1B
100
AcDbEntity
 67
     1
  8
DATA
100
AcDbText
 10
186.5802700920619
 20
26.18141270478975
 30
0.0
 40
2.4
  1
+
 41
0.7
  7
ROMANS
 72
     1
 11
187.6202700920619
 21
26.18141270478975
 31
0.0
100
AcDbText
  0
TEXT
  5
1959
330
1B
100
AcDbEntity
 67
     1
  8
DATA
100
AcDbText
 10
217.0288461595641
 20
26.48678758595418
 30
0.0
 40
2.4
  1
CW
 41
0.7
  7
ROMANS
 72
     1
 11
218.8688461595641
 21
26.48678758595418
 31
0.0
100
AcDbText
  0
LINE
  5
195A
330
1B
100
AcDbEntity
 67
     1
  8
DATA
100
AcDbLine
 10
183.6202700920619
 20
48.9814127047897
 30
0.0
 11
183.6202700920619
 21
24.98141270478971
 31
0.0
  0
LINE
  5
195B
330
1B
100
AcDbEntity
 67
     1
  8
DATA
100
AcDbLine
 10
227.8307527739102
 20
48.9814127047897
 30
0.0
 11
227.8307527739102
 21
24.98141270478971
 31
0.0
  0
LINE
  5
195C
330
1B
100
AcDbEntity
 67
     1
  8
DATA
100
AcDbLine
 10
224.7297618573705
 20
40.43820172486755
 30
0.0
 11
224.7297618573705
 21
30.67805494059928
 31
0.0
  0
SOLID
  5
195D
330
1B
100
AcDbEntity
 67
     1
  8
DATA
100
AcDbTrace
 10
219.0387615475085
 20
33.05614067461068
 30
0.0
 11
218.2387615475084
 21
33.05614067461068
 31
0.0
 12
218.6387615475084
 22
30.65614067461059
 32
0.0
 13
218.6387615475084
 23
30.65614067461059
 33
0.0
  0
LINE
  5
195E
330
1B
100
AcDbEntity
 67
     1
  8
DATA
100
AcDbLine
 10
221.4805168944572
 20
48.9814127047897
 30
0.0
 11
221.4805168944572
 21
24.98141270478971
 31
0.0
  0
TEXT
  5
195F
330
1B
100
AcDbEntity
 67
     1
  8
DATA
100
AcDbText
 10
210.5802700920619
 20
30.98141270478971
 30
0.0
 40
2.4
  1
+
 41
0.7
  7
ROMANS
 72
     1
 11
211.6202700920619
 21
30.98141270478971
 31
0.0
100
AcDbText
  0
TEXT
  5
1960
330
1B
100
AcDbEntity
 67
     1
  8
DATA
100
AcDbText
 10
202.5802700920619
 20
30.98141270478971
 30
0.0
 40
2.4
  1
+
 41
0.7
  7
ROMANS
 72
     1
 11
203.6202700920619
 21
30.98141270478971
 31
0.0
100
AcDbText
  0
LINE
  5
1961
330
1B
100
AcDbEntity
 67
     1
  8
DATA
100
AcDbLine
 10
215.6202700920619
 20
48.9814127047897
 30
0.0
 11
215.6202700920619
 21
24.98141270478971
 31
0.0
  0
LINE
  5
1962
330
1B
100
AcDbEntity
 67
     1
  8
DATA
100
AcDbLine
 10
207.6202700920619
 20
48.9814127047897
 30
0.0
 11
207.6202700920619
 21
24.98141270478971
 31
0.0
  0
LINE
  5
1963
330
1B
100
AcDbEntity
 67
     1
  8
DATA
100
AcDbLine
 10
199.6202700920619
 20
48.9814127047897
 30
0.0
 11
199.6202700920619
 21
24.98141270478971
 31
0.0
  0
TEXT
  5
1964
330
1B
100
AcDbEntity
 67
     1
  8
DATA
100
AcDbText
 10
178.9402700920619
 20
40.58141270478984
 30
0.0
 40
2.4
  1
1
 41
0.7
  7
ROMANS
 72
     1
 11
179.6202700920619
 21
40.58141270478984
 31
0.0
100
AcDbText
  0
TEXT
  5
1965
330
1B
100
AcDbEntity
 67
     1
  8
DATA
100
AcDbText
 10
178.8202700920619
 20
35.78141270478989
 30
0.0
 40
2.4
  1
2
 41
0.7
  7
ROMANS
 72
     1
 11
179.6202700920619
 21
35.78141270478989
 31
0.0
100
AcDbText
  0
TEXT
  5
1966
330
1B
100
AcDbEntity
 67
     1
  8
DATA
100
AcDbText
 10
178.7802700920619
 20
26.18141270478975
 30
0.0
 40
2.4
  1
4
 41
0.7
  7
ROMANS
 72
     1
 11
179.6202700920619
 21
26.18141270478975
 31
0.0
100
AcDbText
  0
TEXT
  5
1967
330
1B
100
AcDbEntity
 67
     1
  8
DATA
100
AcDbText
 10
178.8202700920619
 20
30.98141270478971
 30
0.0
 40
2.4
  1
3
 41
0.7
  7
ROMANS
 72
     1
 11
179.6202700920619
 21
30.98141270478971
 31
0.0
100
AcDbText
  0
LINE
  5
1968
330
1B
100
AcDbEntity
 67
     1
  8
DATA
100
AcDbLine
 10
175.6202700920619
 20
48.9814127047897
 30
0.0
 11
175.6202700920619
 21
24.98141270478971
 31
0.0
  0
TEXT
  5
1969
330
1B
100
AcDbEntity
 67
     1
  8
DATA
100
AcDbText
 10
175.6202700920619
 20
50.39093651431369
 30
0.0
 40
2.8
  1
WHEN FACING MOUNTING END (X)
 41
0.7
  7
ROMANS
100
AcDbText
  0
TEXT
  5
196A
330
1B
100
AcDbEntity
 67
     1
  8
DATA
100
AcDbText
 10
175.4533880495009
 20
54.98141270478971
 30
0.0
 40
2.8
  1
FULL STEP 2 PHASE-Ex.,
 41
0.7
  7
ROMANS
100
AcDbText
  0
LINE
  5
196B
330
1B
100
AcDbEntity
 67
     1
  8
DATA
100
AcDbLine
 10
175.6202700920619
 20
44.18141270478975
 30
0.0
 11
215.6202700920619
 21
44.18141270478975
 31
0.0
  0
LINE
  5
196C
330
1B
100
AcDbEntity
 67
     1
  8
DATA
100
AcDbLine
 10
175.6202700920619
 20
29.78141270478989
 30
0.0
 11
215.6202700920619
 21
29.78141270478989
 31
0.0
  0
LINE
  5
196D
330
1B
100
AcDbEntity
 67
     1
  8
DATA
100
AcDbLine
 10
227.8307527739102
 20
48.9814127047897
 30
0.0
 11
175.6202700920619
 21
48.9814127047897
 31
0.0
  0
LINE
  5
196E
330
1B
100
AcDbEntity
 67
     1
  8
DATA
100
AcDbLine
 10
175.6202700920619
 20
24.98141270478971
 30
0.0
 11
227.8307527739102
 21
24.98141270478971
 31
0.0
  0
TEXT
  5
196F
330
1B
100
AcDbEntity
 67
     1
  8
DATA
100
AcDbText
 10
176.5802700920619
 20
45.3814127047898
 30
0.0
 40
2.4
  1
STEP
 41
0.7
  7
ROMANS
 72
     1
 11
179.6202700920619
 21
45.3814127047898
 31
0.0
100
AcDbText
  0
TEXT
  5
1970
330
1B
100
AcDbEntity
 67
     1
  8
DATA
100
AcDbText
 10
194.5802700920619
 20
40.58141270478984
 30
0.0
 40
2.4
  1
+
 41
0.7
  7
ROMANS
 72
     1
 11
195.6202700920619
 21
40.58141270478984
 31
0.0
100
AcDbText
  0
TEXT
  5
1971
330
1B
100
AcDbEntity
 67
     1
  8
DATA
100
AcDbText
 10
194.5802700920619
 20
35.78141270478989
 30
0.0
 40
2.4
  1
+
 41
0.7
  7
ROMANS
 72
     1
 11
195.6202700920619
 21
35.78141270478989
 31
0.0
100
AcDbText
  0
TEXT
  5
1972
330
1B
100
AcDbEntity
 67
     1
  8
DATA
100
AcDbText
 10
186.5802700920619
 20
40.58141270478984
 30
0.0
 40
2.4
  1
+
 41
0.7
  7
ROMANS
 72
     1
 11
187.6202700920619
 21
40.58141270478984
 31
0.0
100
AcDbText
  0
TEXT
  5
1973
330
1B
100
AcDbEntity
 67
     1
  8
DATA
100
AcDbText
 10
186.3512967575834
 20
35.77622212781932
 30
0.0
 40
2.4
  1
-
 41
0.7
  7
ROMANS
 72
     1
 11
187.3912967575834
 21
35.77622212781932
 31
0.0
100
AcDbText
  0
LINE
  5
1974
330
1B
100
AcDbEntity
 67
     1
  8
DATA
100
AcDbLine
 10
191.6202700920619
 20
48.9814127047897
 30
0.0
 11
191.6202700920619
 21
24.98141270478971
 31
0.0
  0
LINE
  5
1975
330
1B
100
AcDbEntity
 67
     1
  8
DATA
100
AcDbLine
 10
175.6202700920619
 20
39.38141270478979
 30
0.0
 11
215.6202700920619
 21
39.38141270478979
 31
0.0
  0
LINE
  5
1976
330
1B
100
AcDbEntity
 67
     1
  8
DATA
100
AcDbLine
 10
175.6202700920619
 20
34.58141270478984
 30
0.0
 11
215.6202700920619
 21
34.58141270478984
 31
0.0
  0
LINE
  5
19BB
330
1B
100
AcDbEntity
 67
     1
  8
SPEC
100
AcDbLine
 10
170.0009154015513
 20
21.6559890122013
 30
0.0
 11
170.0009154015513
 21
111.6559890122013
 31
0.0
  0
TEXT
  5
19BD
330
1B
100
AcDbEntity
 67
     1
  8
DATA
100
AcDbText
 10
1.828349188375568
 20
73.0
 30
0.0
 40
2.4
  1
DETENT TORQUE (Nm) [lb-in]
 41
0.7
  7
ROMANS
100
AcDbText
  0
TEXT
  5
19BF
330
1B
100
AcDbEntity
 67
     1
  8
SPEC
100
AcDbText
 10
153.8283491883755
 20
48.0
 30
0.0
 40
2.4
  1

 41
0.7
  7
ROMANS
100
AcDbText
  0
TEXT
  5
19C0
330
1B
100
AcDbEntity
 67
     1
  8
DATA
  6
HIDDEN
100
AcDbText
 10
111.8283491883755
 20
105.2917072386782
 30
0.0
 40
3.0
  1
PERMISSIBLE RADIAL+AXIAL FORCE
 41
0.7
  7
ROMANS
100
AcDbText
  0
TEXT
  5
19C1
330
1B
100
AcDbEntity
 67
     1
  8
DATA
100
AcDbText
 10
1.828349188375568
 20
43.0
 30
0.0
 40
2.4
  1
AMBIENT TEMPERATURE -10°~ 50°C [14°F ~ 122°F]
 41
0.7
  7
ROMANS
100
AcDbText
  0
TEXT
  5
19C2
330
1B
100
AcDbEntity
 67
     1
  8
DATA
100
AcDbText
 10
110.8283491883755
 20
48.0
 30
0.0
 40
2.4
  1
AXIAL-FORCE Fa (N)
 41
0.7
  7
ROMANS
100
AcDbText
  0
TEXT
  5
19C4
330
1B
100
AcDbEntity
 67
     1
  8
DATA
100
AcDbText
 10
1.828349188375568
 20
28.0
 30
0.0
 40
2.4
  1
DIELECTRIC STRENGTH 500VAC FOR 1 MIN. (BETWEEN THE MOTOR COILS AND THE MOTOR CASE)
 41
0.59
  7
ROMANS
100
AcDbText
  0
TEXT
  5
19C5
330
1B
100
AcDbEntity
 67
     1
  8
DATA
100
AcDbText
 10
1.828349188375568
 20
33.0
 30
0.0
 40
2.4
  1
INSULATION CLASS B 130° [266°F]
 41
0.7
  7
ROMANS
100
AcDbText
  0
TEXT
  5
19C6
330
1B
100
AcDbEntity
 67
     1
  8
DATA
100
AcDbText
 10
1.828349188375568
 20
38.0
 30
0.0
 40
2.4
  1
INSULATION RESISTANCE 100 MOhm (UNDER NORMAL TEMPERATURE AND HUMIDITY)
 41
0.69
  7
ROMANS
100
AcDbText
  0
TEXT
  5
19C7
330
1B
100
AcDbEntity
 67
     1
  8
DATA
100
AcDbText
 10
1.828349188375568
 20
48.0
 30
0.0
 40
2.4
  1
TEMPERATURE RISE: MAX.80°C (MOTOR STANDSTILL; FOR 2 PHASE ENERGIZED)
 41
0.7
  7
ROMANS
100
AcDbText
  0
MTEXT
  5
19C8
330
1B
100
AcDbEntity
 67
     1
  8
DATA
100
AcDbMText
 10
131.290926933951
 20
85.84775216573845
 30
0.0
 40
2.399999999999999
 41
6.509999999999999
 71
     1
 72
     5
  1
F{\H0.8333x;r}
  7
ROMANS
 73
     1
 44
1.0
1001
ACAD
1000
MTEXTBEGIN
1070
    73
1070
     1
1070
    44
1040
1.0
1070
    74
1070
     0
1000
MTEXTEND
  0
DIMENSION
  5
19C9
330
1B
100
AcDbEntity
 67
     1
  8
DIM
100
AcDbDimension
  2
*D5
 10
139.0972407104071
 20
55.91119174080848
 30
0.0
 11
134.4901433864878
 21
55.91119174080848
 31
0.0
 70
   160
  1
a
 71
     5
 42
9.190871881572007
  3
STANDARD
100
AcDbAlignedDimension
 13
129.9063688288351
 23
74.09868988223387
 33
0.0
 14
139.0972407104071
 24
60.09299455805124
 34
0.0
100
AcDbRotatedDimension
1001
ACAD
1000
DSTYLE
1002
{
1070
   344
1005
2FF
1070
   173
1070
     1
1070
   343
1005
0
1070
    41
1040
2.399999999999999
1070
   340
1005
3C7
1070
   140
1040
2.399999999999999
1070
    40
1040
1.0
1002
}
  0
LINE
  5
19D1
330
1B
100
AcDbEntity
 67
     1
  8
CENTER
  6
AM_ISO08W050x2
100
AcDbLine
 10
126.6677412239616
 20
75.98428938777749
 30
0.0
 11
169.0047821176252
 21
75.98428938777749
 31
0.0
  0
TEXT
  5
19D2
330
1B
100
AcDbEntity
 67
     1
  8
DATA
100
AcDbText
 10
164.5
 20
43.0
 30
0.0
 40
2.4
  1
20
 41
0.7
  7
ROMANS
100
AcDbText
  0
TEXT
  5
19D3
330
1B
100
AcDbEntity
 67
     1
  8
DATA
100
AcDbText
 10
164.5
 20
38.0
 30
0.0
 40
2.4
  1
20
 41
0.7
  7
ROMANS
100
AcDbText
  0
TEXT
  5
19D4
330
1B
100
AcDbEntity
 67
     1
  8
DATA
100
AcDbText
 10
157.0
 20
38.0
 30
0.0
 40
2.4
  1
26
 41
0.7
  7
ROMANS
100
AcDbText
  0
TEXT
  5
19D5
330
1B
100
AcDbEntity
 67
     1
  8
DATA
100
AcDbText
 10
157.0
 20
43.0
 30
0.0
 40
2.4
  1
15
 41
0.7
  7
ROMANS
100
AcDbText
  0
TEXT
  5
19D6
330
1B
100
AcDbEntity
 67
     1
  8
DATA
100
AcDbText
 10
149.5
 20
43.0
 30
0.0
 40
2.4
  1
10
 41
0.7
  7
ROMANS
100
AcDbText
  0
TEXT
  5
19D7
330
1B
100
AcDbEntity
 67
     1
  8
DATA
100
AcDbText
 10
149.5
 20
38.0
 30
0.0
 40
2.4
  1
36
 41
0.7
  7
ROMANS
100
AcDbText
  0
TEXT
  5
19D8
330
1B
100
AcDbEntity
 67
     1
  8
DATA
100
AcDbText
 10
143.3283491883756
 20
43.0
 30
0.0
 40
2.4
  1
5
 41
0.7
  7
ROMANS
100
AcDbText
  0
TEXT
  5
19D9
330
1B
100
AcDbEntity
 67
     1
  8
DATA
100
AcDbText
 10
142.0
 20
38.0
 30
0.0
 40
2.4
  1
58
 41
0.7
  7
ROMANS
100
AcDbText
  0
TEXT
  5
19DC
330
1B
100
AcDbEntity
 67
     1
  8
DATA
100
AcDbText
 10
110.8283491883755
 20
38.0
 30
0.0
 40
2.4
  1
RADIAL-FORCE Fr (N)
 41
0.7
  7
ROMANS
100
AcDbText
  0
TEXT
  5
19DD
330
1B
100
AcDbEntity
 67
     1
  8
DATA
100
AcDbText
 10
110.8283491883755
 20
43.0
 30
0.0
 40
2.4
  1
DISTANCE a  (mm)
 41
0.7
  7
ROMANS
100
AcDbText
  0
TEXT
  5
19DE
330
1B
100
AcDbEntity
 67
     1
  8
DATA
100
AcDbText
 10
78.82834918837557
 20
63.0
 30
0.0
 40
2.4
  1
%%P5%
 41
0.7
  7
ROMANS
100
AcDbText
  0
TEXT
  5
19DF
330
1B
100
AcDbEntity
 67
     1
  8
DATA
100
AcDbText
 10
78.82834918837557
 20
68.0
 30
0.0
 40
2.4
  1
0.9
 41
0.7
  7
ROMANS
100
AcDbText
  0
TEXT
  5
19E0
330
1B
100
AcDbEntity
 67
     1
  8
DATA
100
AcDbText
 10
75.0
 20
88.0
 30
0.0
 40
2.4
  1
13%%P15%
 41
0.7
  7
ROMANS
100
AcDbText
  0
TEXT
  5
19E1
330
1B
100
AcDbEntity
 67
     1
  8
DATA
100
AcDbText
 10
75.0
 20
93.0
 30
0.0
 40
2.4
  1
0.42
 41
0.7
  7
ROMANS
100
AcDbText
  0
TEXT
  5
19E4
330
1B
100
AcDbEntity
 67
     1
  8
DATA
100
AcDbText
 10
31.82834918837557
 20
107.617252115867
 30
0.0
 40
2.4
  1
CONNECTION
 41
0.7
  7
ROMANS
100
AcDbText
  0
TEXT
  5
19E9
330
1B
100
AcDbEntity
 67
     1
  8
DATA
100
AcDbText
 10
1.828349188375568
 20
98.0
 30
0.0
 40
2.4
  1
VOLTAGE (VDC)
 41
0.7
  7
ROMANS
100
AcDbText
  0
TEXT
  5
19EA
330
1B
100
AcDbEntity
 67
     1
  8
DATA
100
AcDbText
 10
1.828349188375568
 20
93.0
 30
0.0
 40
2.4
  1
AMPS/PHASE
 41
0.7
  7
ROMANS
100
AcDbText
  0
TEXT
  5
19EB
330
1B
100
AcDbEntity
 67
     1
  8
DATA
100
AcDbText
 10
1.828349188375568
 20
103.617252115867
 30
0.0
 40
2.4
  1
SPECIFICATION
 41
0.7
  7
ROMANS
100
AcDbText
  0
TEXT
  5
19EC
330
1B
100
AcDbEntity
 67
     1
  8
DATA
100
AcDbText
 10
1.828349188375568
 20
88.0
 30
0.0
 40
2.4
  1
RESISTANCE/PHASE  (Ohms)@25%%DC
 41
0.7
  7
ROMANS
100
AcDbText
  0
TEXT
  5
19ED
330
1B
100
AcDbEntity
 67
     1
  8
DATA
100
AcDbText
 10
1.828349188375568
 20
83.0
 30
0.0
 40
2.4
  1
INDUCTANCE/PHASE (mH) @1KHz
 41
0.7
  7
ROMANS
100
AcDbText
  0
TEXT
  5
19EF
330
1B
100
AcDbEntity
 67
     1
  8
DATA
100
AcDbText
 10
1.828349188375568
 20
78.0
 30
0.0
 40
2.4
  1
HOLDING TORQUE (Nm) [lb-in]
 41
0.7
  7
ROMANS
100
AcDbText
  0
TEXT
  5
19F0
330
1B
100
AcDbEntity
 67
     1
  8
DATA
100
AcDbText
 10
1.828349188375568
 20
53.0
 30
0.0
 40
2.4
  1
WEIGHT (Kg) [lb]
 41
0.7
  7
ROMANS
100
AcDbText
  0
TEXT
  5
19F1
330
1B
100
AcDbEntity
 67
     1
  8
DATA
100
AcDbText
 10
1.828349188375568
 20
68.0
 30
0.0
 40
2.4
  1
STEP ANGLE (°)
 41
0.7
  7
ROMANS
100
AcDbText
  0
TEXT
  5
19F2
330
1B
100
AcDbEntity
 67
     1
  8
DATA
100
AcDbText
 10
1.828349188375568
 20
63.0
 30
0.0
 40
2.4
  1
STEP ACCURACY (NON-ACCUM)
 41
0.7
  7
ROMANS
100
AcDbText
  0
LEADER
  5
19F4
330
1B
100
AcDbEntity
 67
     1
  8
DIM
100
AcDbLeader
  3
STANDARD
 76
     2
 10
130.0606073289473
 20
78.69222240356484
 30
0.0
 10
130.0606073289473
 20
86.51626982104639
 30
0.0
1001
ACAD
1000
DSTYLE
1002
{
1070
    41
1040
2.399999999999999
1070
   341
1005
0
1070
    40
1040
1.0
1070
    77
1070
     0
1002
}
  0
TEXT
  5
19F5
330
1B
100
AcDbEntity
 67
     1
  8
DATA
100
AcDbText
 10
75.0
 20
98.0
 30
0.0
 40
2.4
  1
5.4
 41
0.7
  7
ROMANS
100
AcDbText
  0
TEXT
  5
19F7
330
1B
100
AcDbEntity
 67
     1
  8
DATA
100
AcDbText
 10
75.0
 20
107.617252115867
 30
0.0
 40
2.399999999999999
  1
BIPOLAR
 41
0.7
  7
ROMANS
100
AcDbText
  0
LINE
  5
19F9
330
1B
100
AcDbEntity
 67
     1
  8
SPEC
100
AcDbLine
 10
0.0009154015513104
 20
111.6559890122013
 30
0.0
 11
281.8407943483788
 21
111.6559890122013
 31
0.0
  0
LINE
  5
19FA
330
1B
100
AcDbEntity
 67
     1
  8
SPEC
100
AcDbLine
 10
282.0457477520906
 20
21.65598908869334
 30
0.0
 11
0.0009154015513104
 21
21.6559890122013
 31
0.0
  0
LINE
  5
19FB
330
1B
100
AcDbEntity
 67
     1
  8
SPEC
100
AcDbLine
 10
0.0009154015513104
 20
111.6559890122013
 30
0.0
 11
110.0009154015513
 21
111.6559890122013
 31
0.0
  0
LINE
  5
19FD
330
1B
100
AcDbEntity
 67
     1
  8
SPEC
100
AcDbLine
 10
0.0009154015513104
 20
26.65598901220131
 30
0.0
 11
170.0009154015513
 21
26.65598901220131
 31
0.0
  0
LINE
  5
19FF
330
1B
100
AcDbEntity
 67
     1
  8
SPEC
100
AcDbLine
 10
0.0009154015513104
 20
31.65598901220131
 30
0.0
 11
170.0009154015513
 21
31.65598901220131
 31
0.0
  0
LINE
  5
1A00
330
1B
100
AcDbEntity
 67
     1
  8
SPEC
100
AcDbLine
 10
0.0009154015513104
 20
36.65598901220142
 30
0.0
 11
170.0009154015513
 21
36.65598901220142
 31
0.0
  0
LINE
  5
1A01
330
1B
100
AcDbEntity
 67
     1
  8
SPEC
100
AcDbLine
 10
0.0009154015513104
 20
46.65598901220142
 30
0.0
 11
170.0009154015513
 21
46.65598901220142
 31
0.0
  0
LINE
  5
1A02
330
1B
100
AcDbEntity
 67
     1
  8
SPEC
100
AcDbLine
 10
0.0009154015513104
 20
41.65598901220142
 30
0.0
 11
170.0009154015513
 21
41.65598901220142
 31
0.0
  0
LINE
  5
1A03
330
1B
100
AcDbEntity
 67
     1
  8
SPEC
100
AcDbLine
 10
0.0009154015513104
 20
66.65598901220142
 30
0.0
 11
110.0009154015513
 21
66.65598901220142
 31
0.0
  0
LINE
  5
1A04
330
1B
100
AcDbEntity
 67
     1
  8
SPEC
100
AcDbLine
 10
0.0009154015513104
 20
61.65598901220142
 30
0.0
 11
110.0009154015513
 21
61.65598901220142
 31
0.0
  0
LINE
  5
1A05
330
1B
100
AcDbEntity
 67
     1
  8
SPEC
100
AcDbLine
 10
0.0009154015513104
 20
56.6559890122013
 30
0.0
 11
110.0009154015513
 21
56.6559890122013
 31
0.0
  0
LINE
  5
1A06
330
1B
100
AcDbEntity
 67
     1
  8
SPEC
100
AcDbLine
 10
0.0009154015513104
 20
51.6559890122013
 30
0.0
 11
170.0009154015513
 21
51.6559890122013
 31
0.0
  0
LINE
  5
1A07
330
1B
100
AcDbEntity
 67
     1
  8
SPEC
100
AcDbLine
 10
0.0009154015513104
 20
101.6559890122014
 30
0.0
 11
110.0009154015513
 21
101.6559890122014
 31
0.0
  0
LINE
  5
1A08
330
1B
100
AcDbEntity
 67
     1
  8
SPEC
100
AcDbLine
 10
0.0009154015513104
 20
96.6559890122013
 30
0.0
 11
110.0009154015513
 21
96.6559890122013
 31
0.0
  0
LINE
  5
1A09
330
1B
100
AcDbEntity
 67
     1
  8
SPEC
100
AcDbLine
 10
0.0009154015513104
 20
86.6559890122013
 30
0.0
 11
110.0009154015513
 21
86.6559890122013
 31
0.0
  0
LINE
  5
1A0A
330
1B
100
AcDbEntity
 67
     1
  8
SPEC
100
AcDbLine
 10
0.0009154015513104
 20
91.6559890122013
 30
0.0
 11
110.0009154015513
 21
91.6559890122013
 31
0.0
  0
LINE
  5
1A0B
330
1B
100
AcDbEntity
 67
     1
  8
SPEC
100
AcDbLine
 10
0.0009154015513104
 20
71.6559890122013
 30
0.0
 11
110.0009154015513
 21
71.6559890122013
 31
0.0
  0
LINE
  5
1A0C
330
1B
100
AcDbEntity
 67
     1
  8
SPEC
100
AcDbLine
 10
0.0009154015513104
 20
76.65598901220142
 30
0.0
 11
110.0009154015513
 21
76.65598901220142
 31
0.0
  0
LINE
  5
1A0D
330
1B
100
AcDbEntity
 67
     1
  8
SPEC
100
AcDbLine
 10
0.0009154015513104
 20
81.65598901220141
 30
0.0
 11
110.0009154015513
 21
81.65598901220141
 31
0.0
  0
MTEXT
  5
1A0E
330
1B
100
AcDbEntity
 67
     1
  8
DATA
100
AcDbMText
 10
2.328349188375568
 20
61.11725211586701
 30
0.0
 40
2.399999999999999
 41
110.0
 71
     1
 72
     5
  1
{\W0.7;ROTOR INERTIA (Kg-m²) [lb-in²]}
  7
ROMANS
 73
     1
 44
1.0
1001
ACAD
1000
ACAD_MTEXT_DEFINED_HEIGHT_BEGIN
1070
    46
1040
0.0
1000
ACAD_MTEXT_DEFINED_HEIGHT_END
1000
MTEXTBEGIN
1070
    73
1070
     1
1070
    44
1040
1.0
1070
    74
1070
     0
1000
MTEXTEND
  0
LINE
  5
1A0F
330
1B
100
AcDbEntity
 67
     1
  8
SPEC
100
AcDbLine
 10
0.0009154015513104
 20
91.6559890122013
 30
0.0
 11
50.00091540155131
 21
91.6559890122013
 31
0.0
  0
LINE
  5
1A10
330
1B
100
AcDbEntity
 67
     1
  8
SPEC
100
AcDbLine
 10
50.00091540155131
 20
111.6559890122013
 30
0.0
 11
50.00091540155131
 21
51.6559890122013
 31
0.0
  0
LINE
  5
1A11
330
1B
100
AcDbEntity
 67
     1
  8
SPEC
100
AcDbLine
 10
50.00091540155131
 20
101.6559890122014
 30
0.0
 11
0.0009154015513104
 21
111.6559890122013
 31
0.0
  0
LINE
  5
1A13
330
1B
100
AcDbEntity
 67
     1
  8
SPEC
100
AcDbLine
 10
50.00091540155131
 20
111.6559890122013
 30
0.0
 11
80.0009154015513
 21
111.6559890122013
 31
0.0
  0
LINE
  5
1A15
330
1B
100
AcDbEntity
 67
     1
  8
SPEC
100
AcDbLine
 10
110.0009154015513
 20
111.6559890122013
 30
0.0
 11
170.0009154015513
 21
111.6559890122013
 31
0.0
  0
TEXT
  5
1A16
330
1B
100
AcDbEntity
 67
     1
  8
DATA
100
AcDbText
 10
111.8283491883755
 20
28.0
 30
0.0
 40
2.4
  1
SHAFT PLAY (mm)
 41
0.7
  7
ROMANS
100
AcDbText
  0
LINE
  5
1A17
330
1B
100
AcDbEntity
 67
     1
  8
SPEC
100
AcDbLine
 10
110.0009154015513
 20
31.65598901220131
 30
0.0
 11
140.0009154015513
 21
31.65598901220131
 31
0.0
  0
TEXT
  5
1A18
330
1B
100
AcDbEntity
 67
     1
  8
DATA
100
AcDbText
 10
143.8283491883755
 20
32.61725211586702
 30
0.0
 40
2.5
  1
AXIAL
 41
0.7
  7
ROMANS
100
AcDbText
  0
TEXT
  5
1A19
330
1B
100
AcDbEntity
 67
     1
  8
DATA
100
AcDbText
 10
157.8283491883756
 20
32.61725211586702
 30
0.0
 40
2.5
  1
RADIAL
 41
0.7
  7
ROMANS
100
AcDbText
  0
TEXT
  5
1A1A
330
1B
100
AcDbEntity
 67
     1
  8
DATA
100
AcDbText
 10
142.8283491883755
 20
27.61725211586702
 30
0.0
 40
2.5
  1
0.075
 41
0.7
  7
ROMANS
100
AcDbText
  0
TEXT
  5
1A1B
330
1B
100
AcDbEntity
 67
     1
  8
DATA
100
AcDbText
 10
157.8283491883756
 20
27.61725211586702
 30
0.0
 40
2.5
  1
0.025
 41
0.7
  7
ROMANS
100
AcDbText
  0
TEXT
  5
1A1C
330
1B
100
AcDbEntity
 67
     1
  8
DATA
100
AcDbText
 10
143.8283491883755
 20
22.61725211586702
 30
0.0
 40
2.5
  1
10
 41
0.7
  7
ROMANS
100
AcDbText
  0
TEXT
  5
1A1D
330
1B
100
AcDbEntity
 67
     1
  8
DATA
100
AcDbText
 10
157.8283491883756
 20
22.61725211586702
 30
0.0
 40
2.5
  1
5.0
 41
0.7
  7
ROMANS
100
AcDbText
  0
LINE
  5
1A1E
330
1B
100
AcDbEntity
 67
     1
  8
SPEC
100
AcDbLine
 10
110.0009154015513
 20
36.65598901220142
 30
0.0
 11
140.0009154015513
 21
31.65598901220131
 31
0.0
  0
LINE
  5
1A1F
330
1B
100
AcDbEntity
 67
     1
  8
SPEC
100
AcDbLine
 10
140.0009154015513
 20
46.65598901220142
 30
0.0
 11
146.0009154015513
 21
46.65598901220142
 31
0.0
  0
LINE
  5
1A21
330
1B
100
AcDbEntity
 67
     1
  8
SPEC
100
AcDbLine
 10
147.5009154015513
 20
46.65598901220142
 30
0.0
 11
147.5009154015513
 21
36.65598901220142
 31
0.0
  0
LINE
  5
1A22
330
1B
100
AcDbEntity
 67
     1
  8
SPEC
100
AcDbLine
 10
155.0009154015513
 20
46.65598901220142
 30
0.0
 11
155.0009154015513
 21
36.65598901220142
 31
0.0
  0
LINE
  5
1A23
330
1B
100
AcDbEntity
 67
     1
  8
SPEC
100
AcDbLine
 10
162.5009154015513
 20
46.65598901220142
 30
0.0
 11
162.5009154015513
 21
36.65598901220142
 31
0.0
  0
LINE
  5
1A6A
330
1B
100
AcDbEntity
 67
     1
  8
SPEC
100
AcDbLine
 10
110.0009154015513
 20
111.6559890122013
 30
0.0
 11
110.0009154015513
 21
21.6559890122013
 31
0.0
  0
VIEWPORT
  5
1E55
102
{ACAD_XDICTIONARY
360
60A5
102
}
330
1B
100
AcDbEntity
 67
     1
  8
AM_VIEWS
100
AcDbViewport
 10
141.0232986489197
 20
153.8832840649515
 30
0.0
 40
282.0447664947369
 41
84.45459010550038
 68
     2
 69
     2
 12
-46.34219516684844
 22
-40.65540533715725
 13
0.0
 23
0.0
 14
2.5
 24
2.5
 15
10.0
 25
10.0
 16
0.0
 26
0.0
 36
503.017576584829
 17
937.8833387861368
 27
626.5091020841953
 37
0.0
 42
50.0
 43
0.0
 44
0.0
 45
120.2934161485639
 50
0.0
 51
0.0
 72
   100
 90
    32864
  1

281
     0
 71
     1
 74
     0
110
0.0
120
0.0
130
0.0
111
1.0
121
0.0
131
0.0
112
0.0
122
1.0
132
0.0
 79
     0
146
0.0
1001
GENIUS_GENOBJ-N-SDF_13
1002
{
1000
OWNER
1000
GEN
1002
}
1001
GENIUS_GENODEF_13
1002
{
1000
HIER
1070
     0
1002
}
1002
{
1000
MANEDIT
1070
     0
1002
}
1002
{
1000
NOSEL
1070
     0
1002
}
1002
{
1000
BEHIND
1070
     0
1002
}
1002
{
1000
OTHER
1070
     0
1002
}
1002
{
1000
REACTOR
1002
}
1001
GENIUS_GENSCREG_15
1000
PF
1040
0.0
1000
DF
1040
0.0
1000
MIN
1011
0.0009154015513104
1021
111.6559890122013
1031
0.0
1000
MAX
1011
282.0456818962882
1021
196.1105791177017
1031
0.0
1000
FLAGS
1070
     2
  0
TEXT
  5
2CB7
330
1B
100
AcDbEntity
 67
     1
  8
DATA
100
AcDbText
 10
73.82834918837557
 20
53.0
 30
0.0
 40
2.4
  1
0.17 [0.375]
 41
0.7
  7
ROMANS
100
AcDbText
  0
TEXT
  5
2CBF
330
1B
100
AcDbEntity
 67
     1
  8
DATA
100
AcDbText
 10
75.0
 20
83.0
 30
0.0
 40
2.4
  1
6%%P20%
 41
0.7
  7
ROMANS
100
AcDbText
  0
TEXT
  5
2CCB
330
1B
100
AcDbEntity
 67
     1
  8
DATA
100
AcDbText
 10
75.0
 20
78.0
 30
0.0
 40
2.4
  1
0.076 [0.673]
 41
0.7
  7
ROMANS
100
AcDbText
  0
LWPOLYLINE
  5
2CEB
330
1B
100
AcDbEntity
 67
     1
  8
SPEC
100
AcDbPolyline
 90
        4
 70
     1
 43
0.0
 10
139.0972407104071
 20
91.87558421750372
 10
159.2275531197891
 20
91.87558421750374
 10
159.2275531197891
 20
60.09299455805124
 10
139.0972407104071
 20
60.09299455805124
  0
LWPOLYLINE
  5
2D6D
330
1B
100
AcDbEntity
 67
     1
  8
SPEC
100
AcDbPolyline
 90
        4
 70
     1
 43
0.0
 10
139.0972407104071
 20
87.09730240531003
 10
137.6137908953366
 20
87.09730240531003
 10
137.6137908953366
 20
64.87127637024494
 10
139.0972407104071
 20
64.87127637024494
  0
LINE
  5
2D70
330
1B
100
AcDbEntity
 67
     1
  8
SPEC
100
AcDbLine
 10
168.9451046743791
 20
74.09868988223387
 30
0.0
 11
159.2275531197891
 21
74.09868988223387
 31
0.0
  0
LINE
  5
2D71
330
1B
100
AcDbEntity
 67
     1
  8
SPEC
100
AcDbLine
 10
168.9451046743791
 20
77.86988889332109
 30
0.0
 11
159.2275531197891
 21
77.86988889332109
 31
0.0
  0
LINE
  5
2D72
330
1B
100
AcDbEntity
 67
     1
  8
SPEC
100
AcDbLine
 10
168.9451046743791
 20
74.09868988223387
 30
0.0
 11
168.9451046743791
 21
77.86988889332109
 31
0.0
  0
LWPOLYLINE
  5
2D94
330
1B
100
AcDbEntity
 67
     1
  8
SPEC
100
AcDbPolyline
 90
        4
 70
     1
 43
0.0
 10
157.9302096399492
 20
81.38735029589254
 10
154.6305199228664
 20
81.38735029589254
 10
154.6305199228664
 20
70.58122847966247
 10
157.9302096399492
 20
70.58122847966247
  0
CIRCLE
  5
2D95
330
1B
100
AcDbEntity
 67
     1
  8
SPEC
100
AcDbCircle
 10
156.2803647814078
 20
79.73750543735114
 30
0.0
 40
1.649844858541398
  0
CIRCLE
  5
2D96
330
1B
100
AcDbEntity
 67
     1
  8
SPEC
100
AcDbCircle
 10
156.2803647814078
 20
72.23107333820388
 30
0.0
 40
1.649844858541398
  0
LINE
  5
2D97
330
1B
100
AcDbEntity
 67
     1
  8
SPEC
100
AcDbLine
 10
157.9302096399492
 20
81.38735029589254
 30
0.0
 11
158.5734045934214
 21
80.74081741993238
 31
0.0
  0
LINE
  5
2D98
330
1B
100
AcDbEntity
 67
     1
  8
SPEC
100
AcDbLine
 10
158.6531348075577
 20
77.651473709366
 30
0.0
 11
158.5053768956558
 21
77.48676576983574
 31
0.0
  0
LINE
  5
2D99
330
1B
100
AcDbEntity
 67
     1
  8
SPEC
100
AcDbLine
 10
158.5053768956559
 20
74.48181300571924
 30
0.0
 11
158.6531348075576
 21
74.31710506618914
 31
0.0
  0
LINE
  5
2D9A
330
1B
100
AcDbEntity
 67
     1
  8
SPEC
100
AcDbLine
 10
158.5734045934215
 20
71.2277613556228
 30
0.0
 11
157.9302096399492
 21
70.58122847966247
 31
0.0
  0
ARC
  5
2D9E
330
1B
100
AcDbEntity
 67
     1
  8
SPEC
100
AcDbCircle
 10
156.9783020632643
 20
79.15395009142419
 30
0.0
 40
2.25
100
AcDbArc
 50
318.1050245216237
 51
44.85171410623406
  0
ARC
  5
2DA1
330
1B
100
AcDbEntity
 67
     1
  8
SPEC
100
AcDbCircle
 10
156.9783020632643
 20
72.81462868413088
 30
0.0
 40
2.25
100
AcDbArc
 50
315.1482858937687
 51
41.8949754783788
  0
ARC
  5
2DA2
330
1B
100
AcDbEntity
 67
     1
  8
SPEC
100
AcDbCircle
 10
160.1802096399492
 20
75.98428938777752
 30
0.0
 40
2.25
100
AcDbArc
 50
138.1050245216231
 51
221.8949754783793
  0
LWPOLYLINE
  5
2DA3
330
1B
100
AcDbEntity
 67
     1
  8
SPEC
100
AcDbPolyline
 90
        4
 70
     1
 43
0.0
 10
139.0972407104071
 20
81.38735029589254
 10
142.3969304274899
 20
81.38735029589254
 10
142.3969304274899
 20
70.58122847966247
 10
139.0972407104071
 20
70.58122847966247
  0
CIRCLE
  5
2DA4
330
1B
100
AcDbEntity
 67
     1
  8
SPEC
100
AcDbCircle
 10
140.7470855689485
 20
79.73750543735114
 30
0.0
 40
1.649844858541398
  0
CIRCLE
  5
2DA5
330
1B
100
AcDbEntity
 67
     1
  8
SPEC
100
AcDbCircle
 10
140.7470855689485
 20
72.23107333820388
 30
0.0
 40
1.649844858541398
  0
TEXT
  5
2DC8
330
1B
100
AcDbEntity
 67
     1
  8
DATA
100
AcDbText
 10
1.828349188375568
 20
23.0
 30
0.0
 40
2.4
  1
AMBIENT HUMIDITY MAX. 85% (NO CONDENSATION)
 41
0.7
  7
ROMANS
100
AcDbText
  0
TEXT
  5
2DC9
330
1B
100
AcDbEntity
 67
     1
  8
DATA
100
AcDbText
 10
77.65596520192571
 20
59.66450186175158
 30
0.0
 40
1.399999999999999
  1
-6
 41
0.7
  7
ROMANS
100
AcDbText
  0
TEXT
  5
2DCB
330
1B
100
AcDbEntity
 67
     1
  8
DATA
100
AcDbText
 10
68.95092837047787
 20
58.0
 30
0.0
 40
2.4
  1
1.7x10  [5.807X10 ]
 41
0.7
  7
ROMANS
100
AcDbText
  0
LINE
  5
2DD6
330
1B
100
AcDbEntity
 67
     1
  8
SPEC
100
AcDbLine
 10
146.0009154015513
 20
46.65598901220142
 30
0.0
 11
151.0009154015513
 21
46.65598901220142
 31
0.0
  0
LINE
  5
2DD7
330
1B
100
AcDbEntity
 67
     1
  8
SPEC
100
AcDbLine
 10
140.0009154015513
 20
51.6559890122013
 30
0.0
 11
140.0009154015513
 21
21.6559890122013
 31
0.0
  0
LINE
  5
2DD8
330
1B
100
AcDbEntity
 67
     1
  8
SPEC
100
AcDbLine
 10
140.0009154015513
 20
36.65598901220131
 30
0.0
 11
155.0009154015513
 21
36.65598901220136
 31
0.0
  0
LINE
  5
2DD9
330
1B
100
AcDbEntity
 67
     1
  8
SPEC
100
AcDbLine
 10
155.0009154015513
 20
36.65598901220136
 30
0.0
 11
155.0009154015513
 21
21.6559890122013
 31
0.0
  0
TEXT
  5
2DE0
330
1B
100
AcDbEntity
 67
     1
  8
DATA
100
AcDbText
 10
111.8283491883755
 20
23.0
 30
0.0
 40
2.4
  1
AT LOAD MAX: (N)
 41
0.7
  7
ROMANS
100
AcDbText
  0
LINE
  5
2DE5
330
1B
100
AcDbEntity
 67
     1
  8
SPEC
100
AcDbLine
 10
127.8962393407466
 20
74.09868988223387
 30
0.0
 11
137.6137908953366
 21
74.09868988223387
 31
0.0
  0
LINE
  5
2DE6
330
1B
100
AcDbEntity
 67
     1
  8
SPEC
100
AcDbLine
 10
127.8962393407466
 20
77.86988889332109
 30
0.0
 11
137.6137908953366
 21
77.86988889332109
 31
0.0
  0
LINE
  5
2DE7
330
1B
100
AcDbEntity
 67
     1
  8
SPEC
100
AcDbLine
 10
127.8962393407466
 20
74.09868988223387
 30
0.0
 11
127.8962393407466
 21
77.86988889332109
 31
0.0
  0
MTEXT
  5
2E04
330
1B
100
AcDbEntity
 67
     1
  8
SPEC
 62
     6
100
AcDbMText
 10
145.5187721793249
 20
89.62880385942026
 30
0.0
 40
2.0
 41
0.0
 71
     1
 72
     1
  1
BEARING
  7
ROMANS
 73
     1
 44
1.0
1001
ACAD
1000
ACAD_MTEXT_DEFINED_HEIGHT_BEGIN
1070
    46
1040
0.0
1000
ACAD_MTEXT_DEFINED_HEIGHT_END
1000
MTEXTBEGIN
1070
    73
1070
     1
1070
    44
1040
1.0
1070
    74
1070
     0
1000
MTEXTEND
  0
LEADER
  5
2E07
330
1B
100
AcDbEntity
 67
     1
  8
SPEC
100
AcDbLeader
  3
STANDARD
 76
     2
 10
156.2803647814078
 20
79.73750543735114
 30
0.0
 10
150.8271563148611
 20
87.12304269521258
 30
0.0
1001
ACAD
1000
DSTYLE
1002
{
1070
   147
1040
1.0
1070
    77
1070
     0
1002
}
  0
LEADER
  5
2E09
330
1B
100
AcDbEntity
 67
     1
  8
SPEC
100
AcDbLeader
  3
STANDARD
 76
     2
 10
140.7470855689485
 20
79.73750543735114
 30
0.0
 10
146.7956208247884
 20
86.83653569069861
 30
0.0
1001
ACAD
1000
DSTYLE
1002
{
1070
   147
1040
1.0
1070
    77
1070
     0
1002
}
  0
LEADER
  5
2E0A
330
1B
100
AcDbEntity
 67
     1
  8
SPEC
100
AcDbLeader
  3
STANDARD
 73
     0
 75
     1
 40
5.333333333333333
 41
9.066666666666666
 76
     3
 10
158.5734045934214
 20
80.74081741993238
 30
0.0
 10
167.5136123890166
 20
94.46023307290511
 30
0.0
 10
164.5136123890166
 20
94.46023307290511
 30
0.0
340
2E0B
213
1.589802987236566
223
-4.427990251304436
233
0.0
1001
ACAD
1000
DSTYLE
1002
{
1070
   147
1040
1.0
1070
    77
1070
     0
1002
}
  0
MTEXT
  5
2E0B
102
{ACAD_REACTORS
330
2E0A
102
}
330
1B
100
AcDbEntity
 67
     1
  8
SPEC
 62
     6
100
AcDbMText
 10
161.9238094017801
 20
98.88822332420955
 30
0.0
 40
2.0
 41
0.0
 71
     3
 72
     1
  1
SPRING\PWASHER
  7
ROMANS
 73
     1
 44
1.0
1001
ACAD
1000
ACAD_MTEXT_DEFINED_HEIGHT_BEGIN
1070
    46
1040
0.0
1000
ACAD_MTEXT_DEFINED_HEIGHT_END
1000
MTEXTBEGIN
1070
    73
1070
     1
1070
    44
1040
1.0
1070
    74
1070
     0
1000
MTEXTEND
  0
MTEXT
  5
2E19
330
1B
100
AcDbEntity
 67
     1
  8
DATA
100
AcDbMText
 10
148.4983559025127
 20
50.13711884239956
 30
0.0
 40
2.399999999999999
 41
110.0
 71
     1
 72
     5
  1
{\W0.7;F\H0.8333x;a\H1.2x;=7}
  7
ROMANS
 73
     1
 44
1.0
1001
ACAD
1000
ACAD_MTEXT_DEFINED_HEIGHT_BEGIN
1070
    46
1040
0.0
1000
ACAD_MTEXT_DEFINED_HEIGHT_END
1000
MTEXTBEGIN
1070
    73
1070
     1
1070
    44
1040
1.0
1070
    74
1070
     0
1000
MTEXTEND
  0
MTEXT
  5
2E48
330
1B
100
AcDbEntity
 67
     1
  8
SPEC
 62
     6
100
AcDbMText
 10
111.8786983663672
 20
99.27994356100203
 30
0.0
 40
2.0
 41
0.0
 71
     1
 72
     1
  1
ROTOR SPRING-\PMOUNTED IN\PAXIAL DIRECTION
  7
ROMANS
 73
     1
 44
1.0
1001
ACAD
1000
ACAD_MTEXT_DEFINED_HEIGHT_BEGIN
1070
    46
1040
0.0
1000
ACAD_MTEXT_DEFINED_HEIGHT_END
1000
MTEXTBEGIN
1070
    73
1070
     1
1070
    44
1040
1.0
1070
    74
1070
     0
1000
MTEXTEND
  0
LEADER
  5
2E5C
330
1B
100
AcDbEntity
 67
     1
  8
DIM
100
AcDbLeader
  3
STANDARD
 76
     2
 10
131.5179864032658
 20
89.06775256840445
 30
0.0
 10
112.2566843209139
 20
89.06775256840445
 30
0.0
1001
ACAD
1000
DSTYLE
1002
{
1070
   147
1040
1.0
1070
    77
1070
     0
1002
}
  0
TEXT
  5
557C
330
1B
100
AcDbEntity
 67
     1
  8
DATA
100
AcDbText
 10
93.52523123497887
 20
2.296070477388891
 30
0.0
 40
3.861395999999999
  1
SH4009S0404
 41
0.7
  7
ROMANS
100
AcDbText
  0
TEXT
  5
5688
330
1B
100
AcDbEntity
 67
     1
  8
DATA
100
AcDbText
 10
93.63516274489233
 20
59.65678292658179
 30
0.0
 40
1.399999999999999
  1
-3
 41
0.7
  7
ROMANS
100
AcDbText
  0
LINE
  5
57BA
330
1B
100
AcDbEntity
 67
     1
  8
DATA
100
AcDbLine
 10
250.0496750135958
 20
58.19407841709472
 30
0.0
 11
255.4402250126973
 21
58.19407841709472
 31
0.0
  0
LINE
  5
57BB
330
1B
100
AcDbEntity
 67
     1
  8
DATA
100
AcDbLine
 10
255.4402250126973
 20
44.28174984798458
 30
0.0
 11
250.0496750135958
 21
44.28174984798458
 31
0.0
  0
TEXT
  5
57BC
330
1B
100
AcDbEntity
 67
     1
  8
DATA
100
AcDbText
 10
236.92000000168
 20
43.00000007649203
 30
0.0
 40
2.399999999599999
  1
(A\)RED
 41
0.7
  7
ROMANS
 72
     2
 11
247.0
 21
43.00000007649203
 31
0.0
100
AcDbText
  0
CIRCLE
  5
57BD
330
1B
100
AcDbEntity
 67
     1
  8
DATA
100
AcDbCircle
 10
249.5787178708172
 20
44.28174984798458
 30
0.0
 40
0.4709571427786491
  0
TEXT
  5
57BE
330
1B
100
AcDbEntity
 67
     1
  8
DATA
100
AcDbText
 10
238.84000000136
 20
57.00000007649204
 30
0.0
 40
2.399999999599999
  1
(A)BLU
 41
0.7
  7
ROMANS
 72
     2
 11
247.0
 21
57.00000007649204
 31
0.0
100
AcDbText
  0
CIRCLE
  5
57BF
330
1B
100
AcDbEntity
 67
     1
  8
DATA
100
AcDbCircle
 10
249.5787178708172
 20
58.19407841709472
 30
0.0
 40
0.4709571427786491
  0
TEXT
  5
57C0
330
1B
100
AcDbEntity
 67
     1
  8
DATA
100
AcDbText
 10
259.3999999996
 20
25.2000000779587
 30
0.0
 40
2.399999999599999
  1
(B)WHT
 50
90.0
 41
0.7
  7
ROMANS
 72
     2
 11
257.0
 21
34.00000007649204
 31
0.0
100
AcDbText
 73
     3
  0
TEXT
  5
57C1
330
1B
100
AcDbEntity
 67
     1
  8
DATA
100
AcDbText
 10
272.3999999996
 20
24.08000007814537
 30
0.0
 40
2.399999999599999
  1
(B\)YEL
 50
90.0
 41
0.7
  7
ROMANS
 72
     2
 11
270.0
 21
34.00000007649204
 31
0.0
100
AcDbText
 73
     3
  0
LINE
  5
57C2
330
1B
100
AcDbEntity
 67
     1
  8
DATA
100
AcDbLine
 10
255.4402250126973
 20
45.67552841918078
 30
0.0
 11
255.4402250126973
 21
44.28174984798458
 31
0.0
  0
ARC
  5
57C3
330
1B
100
AcDbEntity
 67
     1
  8
DATA
100
AcDbCircle
 10
263.9282750112825
 20
42.03833913407289
 30
0.0
 40
0.7032535713113561
100
AcDbArc
 50
180.0
 51
0.0
  0
LINE
  5
57C4
330
1B
100
AcDbEntity
 67
     1
  8
DATA
100
AcDbLine
 10
257.6985285837495
 20
36.6477891349714
 30
0.0
 11
257.6985285837495
 21
42.03833913407289
 31
0.0
  0
CIRCLE
  5
57C5
330
1B
100
AcDbEntity
 67
     1
  8
DATA
100
AcDbCircle
 10
257.6985285837495
 20
36.17683199219278
 30
0.0
 40
0.4709571427786491
  0
LINE
  5
57C6
330
1B
100
AcDbEntity
 67
     1
  8
DATA
100
AcDbLine
 10
257.6985285837495
 20
42.03833913407289
 30
0.0
 11
258.9650214406816
 21
42.03833913407289
 31
0.0
  0
ARC
  5
57C7
330
1B
100
AcDbEntity
 67
     1
  8
DATA
100
AcDbCircle
 10
261.0747821546154
 20
42.03833913407289
 30
0.0
 40
0.7032535713113561
100
AcDbArc
 50
180.0
 51
0.0
  0
ARC
  5
57C8
330
1B
100
AcDbEntity
 67
     1
  8
DATA
100
AcDbCircle
 10
259.6682750119928
 20
42.03833913407289
 30
0.0
 40
0.7032535713113561
100
AcDbArc
 50
180.0
 51
0.0
  0
ARC
  5
57C9
330
1B
100
AcDbEntity
 67
     1
  8
DATA
100
AcDbCircle
 10
262.4812892972379
 20
42.03833913407289
 30
0.0
 40
0.7032535713113561
100
AcDbArc
 50
180.0
 51
0.0
  0
LINE
  5
57CA
330
1B
100
AcDbEntity
 67
     1
  8
DATA
100
AcDbLine
 10
271.6532428671383
 20
42.03833913407289
 30
0.0
 11
271.6532428671383
 21
36.6477891349714
 31
0.0
  0
CIRCLE
  5
57CB
330
1B
100
AcDbEntity
 67
     1
  8
DATA
100
AcDbCircle
 10
271.6532428671383
 20
36.17683199219278
 30
0.0
 40
0.4709571427786491
  0
ARC
  5
57CC
330
1B
100
AcDbEntity
 67
     1
  8
DATA
100
AcDbCircle
 10
269.5562107246303
 20
42.03833913407289
 30
0.0
 40
0.7032535713113561
100
AcDbArc
 50
180.0
 51
0.0
  0
ARC
  5
57CD
330
1B
100
AcDbEntity
 67
     1
  8
DATA
100
AcDbCircle
 10
266.743196439385
 20
42.03833913407289
 30
0.0
 40
0.7032535713113561
100
AcDbArc
 50
180.0
 51
0.0
  0
ARC
  5
57CE
330
1B
100
AcDbEntity
 67
     1
  8
DATA
100
AcDbCircle
 10
265.3347821539053
 20
42.03833913407289
 30
0.0
 40
0.7032535713113561
100
AcDbArc
 50
180.0
 51
0.0
  0
ARC
  5
57CF
330
1B
100
AcDbEntity
 67
     1
  8
DATA
100
AcDbCircle
 10
268.1497035820078
 20
42.03833913407289
 30
0.0
 40
0.7032535713113561
100
AcDbArc
 50
180.0
 51
0.0
  0
LINE
  5
57D0
330
1B
100
AcDbEntity
 67
     1
  8
DATA
100
AcDbLine
 10
270.2594642959423
 20
42.03833913407289
 30
0.0
 11
271.6532428671383
 21
42.03833913407289
 31
0.0
  0
CIRCLE
  5
57D1
330
1B
100
AcDbEntity
 67
     1
  8
DATA
100
AcDbCircle
 10
264.4502150111957
 20
51.02372056114678
 30
0.0
 40
6.338828570372099
  0
ARC
  5
57D2
330
1B
100
AcDbEntity
 67
     1
  8
DATA
100
AcDbCircle
 10
255.4402250126973
 20
52.00481056098336
 30
0.0
 40
0.7032535713113561
100
AcDbArc
 50
90.0
 51
270.0
  0
ARC
  5
57D3
330
1B
100
AcDbEntity
 67
     1
  8
DATA
100
AcDbCircle
 10
255.4402250126973
 20
49.19179627573786
 30
0.0
 40
0.7032535713113561
100
AcDbArc
 50
90.0
 51
270.0
  0
ARC
  5
57D4
330
1B
100
AcDbEntity
 67
     1
  8
DATA
100
AcDbCircle
 10
255.4402250126973
 20
46.37878199049229
 30
0.0
 40
0.7032535713113561
100
AcDbArc
 50
90.0
 51
270.0
  0
ARC
  5
57D5
330
1B
100
AcDbEntity
 67
     1
  8
DATA
100
AcDbCircle
 10
255.4402250126973
 20
47.78528913311507
 30
0.0
 40
0.7032535713113561
100
AcDbArc
 50
90.0
 51
270.0
  0
ARC
  5
57D6
330
1B
100
AcDbEntity
 67
     1
  8
DATA
100
AcDbCircle
 10
255.4402250126973
 20
50.59830341836057
 30
0.0
 40
0.7032535713113561
100
AcDbArc
 50
90.0
 51
270.0
  0
ARC
  5
57D7
330
1B
100
AcDbEntity
 67
     1
  8
DATA
100
AcDbCircle
 10
255.4402250126973
 20
56.22433198885143
 30
0.0
 40
0.7032535713113561
100
AcDbArc
 50
90.0
 51
270.0
  0
ARC
  5
57D8
330
1B
100
AcDbEntity
 67
     1
  8
DATA
100
AcDbCircle
 10
255.4402250126973
 20
53.41131770360608
 30
0.0
 40
0.7032535713113561
100
AcDbArc
 50
90.0
 51
270.0
  0
ARC
  5
57D9
330
1B
100
AcDbEntity
 67
     1
  8
DATA
100
AcDbCircle
 10
255.4402250126973
 20
54.81782484622886
 30
0.0
 40
0.7032535713113561
100
AcDbArc
 50
90.0
 51
270.0
  0
LINE
  5
57DA
330
1B
100
AcDbEntity
 67
     1
  8
DATA
100
AcDbLine
 10
255.4402250126973
 20
58.19407841709472
 30
0.0
 11
255.4402250126973
 21
56.92758556016293
 31
0.0
  0
TEXT
  5
57DB
330
1B
100
AcDbEntity
 67
     1
  8
DATA
100
AcDbText
 10
251.7194819043975
 20
61.34556070180179
 30
0.0
 40
2.5
  1
WIRING DIAGRAM
 41
0.7
  7
ROMANS
100
AcDbText
  0
MTEXT
  5
5893
330
1B
100
AcDbEntity
 67
     1
  8
DATA
100
AcDbMText
 10
119.1685098101224
 20
79.47901405200159
 30
0.0
 40
2.399999999999999
 41
6.509999999999999
 71
     1
 72
     5
  1
F{\H0.8333x;a}
  7
ROMANS
 73
     1
 44
1.0
1001
ACAD
1000
ACAD_MTEXT_DEFINED_HEIGHT_BEGIN
1070
    46
1040
0.0
1000
ACAD_MTEXT_DEFINED_HEIGHT_END
1000
MTEXTBEGIN
1070
    73
1070
     1
1070
    44
1040
1.0
1070
    74
1070
     0
1000
MTEXTEND
  0
DIMENSION
  5
5894
330
1B
100
AcDbEntity
 67
     1
  8
AM_5
100
AcDbDimension
  2
*D7
 10
113.061486709883
 20
75.91139921940916
 30
0.0
 11
119.3850267978141
 21
75.91139921940916
 31
0.0
 70
    32
  1
 
 71
     5
 42
12.64708017586213
  3
STANDARD$0
100
AcDbAlignedDimension
 13
125.7085668857451
 23
75.91139921940919
 33
0.0
 14
113.061486709883
 24
75.91139921940916
 34
0.0
100
AcDbRotatedDimension
1001
ACAD
1000
DSTYLE
1002
{
1070
   281
1070
     0
1070
    76
1070
     1
1070
    75
1070
     1
1070
    47
1040
0.2
1070
    48
1040
-0.2
1070
   272
1070
     1
1002
}
  0
LINE
  5
5895
102
{ACAD_REACTORS
330
5899
102
}
330
1B
100
AcDbEntity
 67
     1
  8
CONNECTOR
100
AcDbLine
 10
247.6431145682346
 20
76.63083283262858
 30
0.0
 11
245.7231145682347
 21
76.63083283262858
 31
0.0
  0
LINE
  5
5896
102
{ACAD_REACTORS
330
5899
102
}
330
1B
100
AcDbEntity
 67
     1
  8
CONNECTOR
100
AcDbLine
 10
245.7231145682347
 20
72.15083283262856
 30
0.0
 11
247.6431145682346
 21
72.15083283262856
 31
0.0
  0
LINE
  5
5897
102
{ACAD_REACTORS
330
5899
102
}
330
1B
100
AcDbEntity
 67
     1
  8
CONNECTOR
100
AcDbLine
 10
247.6431145682346
 20
72.15083283262856
 30
0.0
 11
247.6431145682346
 21
76.63083283262858
 31
0.0
  0
LINE
  5
5898
102
{ACAD_REACTORS
330
5899
102
}
330
1B
100
AcDbEntity
 67
     1
  8
CONNECTOR
100
AcDbLine
 10
245.7231145682347
 20
76.63083283262858
 30
0.0
 11
245.7231145682347
 21
72.15083283262856
 31
0.0
  0
HATCH
  5
5899
330
1B
100
AcDbEntity
 67
     1
  8
CONNECTOR
100
AcDbHatch
 10
0.0
 20
0.0
 30
0.0
210
0.0
220
0.0
230
1.0
  2
SOLID
 70
     1
 71
     1
 91
        1
 92
        1
 93
        4
 72
     1
 10
247.6431145682346
 20
76.63083283262858
 11
245.7231145682347
 21
76.63083283262858
 72
     1
 10
245.7231145682347
 20
76.63083283262858
 11
245.7231145682347
 21
72.15083283262856
 72
     1
 10
245.7231145682347
 20
72.15083283262856
 11
247.6431145682346
 21
72.15083283262856
 72
     1
 10
247.6431145682346
 20
72.15083283262856
 11
247.6431145682346
 21
76.63083283262858
 97
        4
330
5895
330
5898
330
5896
330
5897
 75
     0
 76
     1
 98
        1
 10
98.52311456823466
 20
-36.32916716737146
  0
LWPOLYLINE
  5
589A
330
1B
100
AcDbEntity
 67
     1
  8
CONNECTOR
100
AcDbPolyline
 90
        3
 70
     0
 43
0.0
 10
204.845722238521
 20
77.09200028582007
 10
204.845722238521
 20
77.09200028582007
 10
208.919599709082
 20
77.09200028092357
  0
LWPOLYLINE
  5
589B
330
1B
100
AcDbEntity
 67
     1
  8
CONNECTOR
100
AcDbPolyline
 90
        3
 70
     0
 43
0.0
 10
204.8457222737789
 20
89.04067650044112
 10
204.8457222737789
 20
89.04067650044112
 10
208.919599709082
 20
89.04067649497688
  0
MTEXT
  5
589C
330
1B
100
AcDbEntity
 67
     1
  8
CONNECTOR
100
AcDbMText
 10
236.2096137588406
 20
72.86791897515354
 30
0.0
 40
2.4
 41
5.0
 71
     1
 72
     1
  1
B\\
  7
ROMANS
 73
     1
 44
1.0
1001
ACAD
1000
MTEXTBEGIN
1070
    73
1070
     1
1070
    44
1040
1.0
1070
    74
1070
     0
1000
MTEXTEND
  0
MTEXT
  5
589D
330
1B
100
AcDbEntity
 67
     1
  8
CONNECTOR
100
AcDbMText
 10
236.1727646098907
 20
79.02214318718143
 30
0.0
 40
2.4
 41
4.0
 71
     1
 72
     1
  1
B
  7
ROMANS
 73
     1
 44
1.0
1001
ACAD
1000
MTEXTBEGIN
1070
    73
1070
     1
1070
    44
1040
1.0
1070
    74
1070
     0
1000
MTEXTEND
  0
MTEXT
  5
589E
330
1B
100
AcDbEntity
 67
     1
  8
CONNECTOR
100
AcDbMText
 10
235.8209178200716
 20
84.02530783887005
 30
0.0
 40
2.4
 41
5.0
 71
     1
 72
     1
  1
A\\
  7
ROMANS
 73
     1
 44
1.0
1001
ACAD
1000
MTEXTBEGIN
1070
    73
1070
     1
1070
    44
1040
1.0
1070
    74
1070
     0
1000
MTEXTEND
  0
MTEXT
  5
589F
330
1B
100
AcDbEntity
 67
     1
  8
CONNECTOR
100
AcDbMText
 10
236.0470238111286
 20
90.46556365615561
 30
0.0
 40
2.4
 41
4.0
 71
     1
 72
     1
  1
A
  7
ROMANS
 73
     1
 44
1.0
1001
ACAD
1000
MTEXTBEGIN
1070
    73
1070
     1
1070
    44
1040
1.0
1070
    74
1070
     0
1000
MTEXTEND
  0
TEXT
  5
58A0
330
1B
100
AcDbEntity
 67
     1
  8
CONNECTOR
100
AcDbText
 10
197.9999999175752
 20
100.6064744390815
 30
0.0
 40
2.4
  1
(EXTERN)
 41
0.65
  7
ROMANS
100
AcDbText
  0
TEXT
  5
58A1
330
1B
100
AcDbEntity
 67
     1
  8
CONNECTOR
100
AcDbText
 10
236.3782321686522
 20
102.1502571750892
 30
0.0
 40
2.4
  1
MOTOR
 41
0.65
  7
ROMANS
100
AcDbText
  0
TEXT
  5
58A2
330
1B
100
AcDbEntity
 67
     1
  8
CONNECTOR
100
AcDbText
 10
191.9999999175752
 20
103.968660409642
 30
0.0
 40
2.4
  1
TYPE OF CONNECTION
 41
0.65
  7
ROMANS
100
AcDbText
  0
LWPOLYLINE
  5
58A3
330
1B
100
AcDbEntity
 67
     1
  8
CONNECTOR
100
AcDbPolyline
 90
        4
 70
     1
 43
0.0
 10
189.9999999175752
 20
99.48463138333602
 10
251.8262992651144
 20
99.48463076220958
 10
251.8262992651144
 20
107.6531444291646
 10
189.9999999175752
 20
107.6531444291646
  0
MLINE
  5
58A4
330
1B
100
AcDbEntity
 67
     1
  8
CONNECTOR
100
AcDbMline
  2
STANDARD
340
18
 40
0.3
 70
     0
 71
     1
 72
     2
 73
     2
 10
218.9648025763581
 20
107.6531444291646
 30
0.0
210
0.0
220
0.0
230
1.0
 11
218.9648025763581
 21
107.6531444291646
 31
0.0
 12
-1.135098967989524E-08
 22
-1.0
 32
0.0
 13
1.0
 23
-1.135098972660561E-08
 33
0.0
 74
     2
 41
0.0
 41
0.0
 75
     0
 74
     2
 41
-0.3
 41
0.0
 75
     0
 11
218.9648021304806
 21
68.37220050739495
 31
0.0
 12
-1.135098967989524E-08
 22
-1.0
 32
0.0
 13
1.0
 23
-1.135098972660561E-08
 33
0.0
 74
     2
 41
0.0
 41
0.0
 75
     0
 74
     2
 41
-0.3
 41
0.0
 75
     0
  0
TEXT
  5
58A5
330
1B
100
AcDbEntity
 67
     1
  8
CONNECTOR
100
AcDbText
 10
221.9547198212251
 20
94.34912243201939
 30
0.0
 40
2.4
  1
LEADS
 41
0.7
  7
ROMANS
100
AcDbText
  0
LINE
  5
58A6
330
1B
100
AcDbEntity
 67
     1
  8
CONNECTOR
100
AcDbLine
 10
189.9999999175752
 20
99.48463137847097
 30
0.0
 11
189.9999999175752
 21
68.37220061722513
 31
0.0
  0
LINE
  5
58A7
330
1B
100
AcDbEntity
 67
     1
  8
CONNECTOR
100
AcDbLine
 10
251.8262992651144
 20
91.67164438347493
 30
0.0
 11
189.9999999175752
 21
91.67164440466223
 31
0.0
  0
TEXT
  5
58A8
330
1B
100
AcDbEntity
 67
     1
  8
CONNECTOR
100
AcDbText
 10
237.7034915463405
 20
94.43058219039562
 30
0.0
 40
2.4
  1
WINDING
 41
0.7
  7
ROMANS
100
AcDbText
  0
LWPOLYLINE
  5
58A9
330
1B
100
AcDbEntity
 67
     1
  8
CONNECTOR
100
AcDbPolyline
 90
        4
 70
     1
 43
0.0
 10
234.9359717552757
 20
99.48463092739439
 10
251.8262992651144
 20
99.48463092739439
 10
251.8262992651144
 20
68.37220066411624
 10
234.9359717574035
 20
68.37220066411624
  0
LWPOLYLINE
  5
58AA
330
1B
100
AcDbEntity
 67
     1
  8
CONNECTOR
100
AcDbPolyline
 90
        2
 70
     0
 43
0.0
 10
208.919599709082
 20
83.14187857768866
 10
204.8457222515295
 20
83.14187858315291
  0
MTEXT
  5
58AB
330
1B
100
AcDbEntity
 67
     1
  8
CONNECTOR
100
AcDbMText
 10
201.3505347383399
 20
75.02416432762164
 30
0.0
 40
2.4
 41
4.0
 71
     9
 72
     1
  1
B
  7
ROMANS
 73
     1
 44
1.0
1001
ACAD
1000
MTEXTBEGIN
1070
    73
1070
     1
1070
    44
1040
1.0
1070
    74
1070
     0
1000
MTEXTEND
  0
LWPOLYLINE
  5
58AC
330
1B
100
AcDbEntity
 67
     1
  8
CONNECTOR
100
AcDbPolyline
 90
        2
 70
     0
 43
0.0
 10
208.9195997520279
 20
71.40070753081284
 10
204.8457222162213
 20
71.4007075636531
  0
MTEXT
  5
58AD
330
1B
100
AcDbEntity
 67
     1
  8
CONNECTOR
100
AcDbMText
 10
203.2938185170884
 20
80.91911836896498
 30
0.0
 40
2.4
 41
4.0
 71
     9
 72
     1
  1
A\\
  7
ROMANS
 73
     1
 44
1.0
1001
ACAD
1000
MTEXTBEGIN
1070
    73
1070
     1
1070
    44
1040
1.0
1070
    74
1070
     0
1000
MTEXTEND
  0
MTEXT
  5
58AE
330
1B
100
AcDbEntity
 67
     1
  8
CONNECTOR
100
AcDbMText
 10
201.3280487774951
 20
87.84067649497684
 30
0.0
 40
2.4
 41
4.0
 71
     9
 72
     1
  1
\A1;A
  7
ROMANS
 73
     1
 44
1.0
1001
ACAD
1000
MTEXTBEGIN
1070
    73
1070
     1
1070
    44
1040
1.0
1070
    74
1070
     0
1000
MTEXTEND
  0
MTEXT
  5
58AF
330
1B
100
AcDbEntity
 67
     1
  8
CONNECTOR
100
AcDbMText
 10
203.3192763219716
 20
69.6924250178721
 30
0.0
 40
2.4
 41
4.0
 71
     9
 72
     1
  1
B\\
  7
ROMANS
 73
     1
 44
1.0
1001
ACAD
1000
MTEXTBEGIN
1070
    73
1070
     1
1070
    44
1040
1.0
1070
    74
1070
     0
1000
MTEXTEND
  0
LINE
  5
58B0
330
1B
100
AcDbEntity
 67
     1
  8
CONNECTOR
100
AcDbLine
 10
246.6831145682347
 20
76.63083283262858
 30
0.0
 11
246.6831145682345
 21
78.2929192582983
 31
0.0
  0
LINE
  5
58B1
330
1B
100
AcDbEntity
 67
     1
  8
CONNECTOR
100
AcDbLine
 10
246.6831145682347
 20
72.15083283262856
 30
0.0
 11
246.6831145682345
 21
70.2929192582983
 31
0.0
  0
LINE
  5
58B2
330
1B
100
AcDbEntity
 67
     1
  8
CONNECTOR
100
AcDbLine
 10
246.6831145682345
 20
78.2929192582983
 30
0.0
 11
241.4133068366059
 21
78.2929192582983
 31
0.0
  0
LINE
  5
58B3
330
1B
100
AcDbEntity
 67
     1
  8
CONNECTOR
100
AcDbLine
 10
246.6831145682345
 20
70.2929192582983
 30
0.0
 11
241.4133068366059
 21
70.2929192582983
 31
0.0
  0
LINE
  5
58B4
330
1B
100
AcDbEntity
 67
     1
  8
CONNECTOR
100
AcDbLine
 10
246.6831145682347
 20
87.97839165027061
 30
0.0
 11
246.6831145682347
 21
89.67557829284396
 31
0.0
  0
LINE
  5
58B5
330
1B
100
AcDbEntity
 67
     1
  8
CONNECTOR
100
AcDbLine
 10
246.6831145682347
 20
89.67557829284396
 30
0.0
 11
241.4133068366059
 21
89.67557829284396
 31
0.0
  0
LINE
  5
58B6
102
{ACAD_REACTORS
330
58BA
102
}
330
1B
100
AcDbEntity
 67
     1
  8
CONNECTOR
100
AcDbLine
 10
247.6431145682346
 20
87.97839165027061
 30
0.0
 11
245.7231145682347
 21
87.97839165027061
 31
0.0
  0
LINE
  5
58B7
330
1B
100
AcDbEntity
 67
     1
  8
CONNECTOR
100
AcDbLine
 10
246.6831145682347
 20
83.49839165027061
 30
0.0
 11
246.6831145682347
 21
81.67557829284396
 31
0.0
  0
LINE
  5
58B8
330
1B
100
AcDbEntity
 67
     1
  8
CONNECTOR
100
AcDbLine
 10
246.6831145682347
 20
81.67557829284396
 30
0.0
 11
241.4133068366059
 21
81.67557829284396
 31
0.0
  0
LINE
  5
58B9
102
{ACAD_REACTORS
330
58BA
102
}
330
1B
100
AcDbEntity
 67
     1
  8
CONNECTOR
100
AcDbLine
 10
245.7231145682347
 20
83.49839165027061
 30
0.0
 11
247.6431145682346
 21
83.49839165027061
 31
0.0
  0
HATCH
  5
58BA
330
1B
100
AcDbEntity
 67
     1
  8
CONNECTOR
100
AcDbHatch
 10
0.0
 20
0.0
 30
0.0
210
0.0
220
0.0
230
1.0
  2
SOLID
 70
     1
 71
     1
 91
        1
 92
        1
 93
        4
 72
     1
 10
247.6431145682346
 20
87.97839165027061
 11
245.7231145682347
 21
87.97839165027061
 72
     1
 10
245.7231145682347
 20
87.97839165027061
 11
245.7231145682347
 21
83.49839165027061
 72
     1
 10
245.7231145682347
 20
83.49839165027061
 11
247.6431145682346
 21
83.49839165027061
 72
     1
 10
247.6431145682346
 20
83.49839165027061
 11
247.6431145682346
 21
87.97839165027061
 97
        4
330
58B6
330
58BC
330
58B9
330
58BB
 75
     0
 76
     1
 98
        1
 10
98.52311456823466
 20
-24.98160834972931
  0
LINE
  5
58BB
102
{ACAD_REACTORS
330
58BA
102
}
330
1B
100
AcDbEntity
 67
     1
  8
CONNECTOR
100
AcDbLine
 10
247.6431145682346
 20
83.49839165027061
 30
0.0
 11
247.6431145682346
 21
87.97839165027061
 31
0.0
  0
LINE
  5
58BC
102
{ACAD_REACTORS
330
58BA
102
}
330
1B
100
AcDbEntity
 67
     1
  8
CONNECTOR
100
AcDbLine
 10
245.7231145682347
 20
87.97839165027061
 30
0.0
 11
245.7231145682347
 21
83.49839165027061
 31
0.0
  0
TEXT
  5
58BD
330
1B
100
AcDbEntity
 67
     1
  8
CONNECTOR
100
AcDbText
 10
197.9999999175752
 20
94.35
 30
0.0
 40
2.4
  1
BIPOLAR
 41
0.65
  7
ROMANS
100
AcDbText
  0
LWPOLYLINE
  5
58BE
330
1B
100
AcDbEntity
 67
     1
  8
CONNECTOR
100
AcDbPolyline
 90
        4
 70
     1
 43
0.0
 10
218.9648024836374
 20
99.48463114595121
 10
234.9359717552757
 20
99.48463092739439
 10
234.9359717552757
 20
68.37220066411624
 10
218.9648024454086
 20
68.37220066540794
  0
TEXT
  5
58BF
330
1B
100
AcDbEntity
 67
     1
  8
CONNECTOR
100
AcDbText
 10
221.4751966971933
 20
81.65780521010209
 30
0.0
 40
2.4
  1
RED
 41
0.7
  7
ROMANS
100
AcDbText
  0
LINE
  5
58C0
330
1B
100
AcDbEntity
 67
     1
  8
CONNECTOR
100
AcDbLine
 10
218.964802557175
 20
80.02192233476183
 30
0.0
 11
234.9359717552757
 21
80.02192233100926
 31
0.0
  0
LINE
  5
58C1
330
1B
100
AcDbEntity
 67
     1
  8
CONNECTOR
100
AcDbLine
 10
218.9648025653049
 20
85.84678336458097
 30
0.0
 11
234.9359717552757
 21
85.84678336015253
 31
0.0
  0
TEXT
  5
58C2
330
1B
100
AcDbEntity
 67
     1
  8
CONNECTOR
100
AcDbText
 10
221.4751966971933
 20
87.85864648287713
 30
0.0
 40
2.4
  1
BLU
 41
0.7
  7
ROMANS
100
AcDbText
  0
LINE
  5
58C3
330
1B
100
AcDbEntity
 67
     1
  8
CONNECTOR
100
AcDbLine
 10
218.9648025475263
 20
74.19706130555849
 30
0.0
 11
234.9359717552757
 21
74.19706130180592
 31
0.0
  0
TEXT
  5
58C4
330
1B
100
AcDbEntity
 67
     1
  8
CONNECTOR
100
AcDbText
 10
221.4751966971933
 20
70.11284775296463
 30
0.0
 40
2.4
  1
YEL
 41
0.7
  7
ROMANS
100
AcDbText
  0
TEXT
  5
58C5
330
1B
100
AcDbEntity
 67
     1
  8
CONNECTOR
100
AcDbText
 10
221.4751966971933
 20
76.08931891751399
 30
0.0
 40
2.4
  1
WHT
 41
0.7
  7
ROMANS
100
AcDbText
  0
LINE
  5
58C6
330
1B
100
AcDbEntity
 67
     1
  8
CONNECTOR
100
AcDbLine
 10
233.5172646182348
 20
68.37220050022313
 30
0.0
 11
189.9999999175752
 21
68.37220050022313
 31
0.0
  0
MTEXT
  5
58FD
330
1B
100
AcDbEntity
 67
     1
  8
DATA
100
AcDbMText
 10
68.82834918837557
 20
76.11725211586701
 30
0.0
 40
2.399999999999999
 41
50.69688999264281
 71
     1
 72
     5
  1
{\W0.7;5.4x10  [0.048]}
  7
ROMANS
 73
     1
 44
1.0
1001
ACAD
1000
ACAD_MTEXT_DEFINED_HEIGHT_BEGIN
1070
    46
1040
0.0
1000
ACAD_MTEXT_DEFINED_HEIGHT_END
1000
MTEXTBEGIN
1070
    73
1070
     1
1070
    44
1040
1.0
1070
    74
1070
     0
1000
MTEXTEND
  0
TEXT
  5
5BFB
330
1B
100
AcDbEntity
 67
     1
  8
DATA
100
AcDbText
 10
163.0
 20
16.8023193727399
 30
0.0
 40
2.896047
  1
APVD
 41
0.7
  7
ROMANS
100
AcDbText
  0
TEXT
  5
5BFC
330
1B
100
AcDbEntity
 67
     1
  8
DATA
100
AcDbText
 10
163.0
 20
12.19548272044105
 30
0.0
 40
2.896047
  1
CHKD
 41
0.7
  7
ROMANS
100
AcDbText
  0
TEXT
  5
5BFD
330
1B
100
AcDbEntity
 67
     1
  8
DATA
100
AcDbText
 10
163.0
 20
7.204742817116567
 30
0.0
 40
2.896047
  1
DRN
 41
0.7
  7
ROMANS
100
AcDbText
  0
TEXT
  5
5BFE
330
1B
100
AcDbEntity
 67
     1
  8
DATA
100
AcDbText
 10
175.6829051118027
 20
7.288790377317399
 30
0.0
 40
3.0
  1
J.W.
  7
ITALICT
100
AcDbText
  0
TEXT
  5
6034
330
1B
100
AcDbEntity
 67
     1
  8
DATA
100
AcDbText
 10
189.4634543457442
 20
17.05999183728653
 30
0.0
 40
2.509907399999999
  1
12.06.06
 41
0.7
  7
ROMANS
100
AcDbText
  0
TEXT
  5
6035
330
1B
100
AcDbEntity
 67
     1
  8
DATA
100
AcDbText
 10
175.6829051118027
 20
16.86719000998262
 30
0.0
 40
3.0
  1
S.K.
  7
ITALICT
100
AcDbText
  0
TEXT
  5
6058
330
1B
100
AcDbEntity
 67
     1
  8
DATA
100
AcDbText
 10
76.9121717397345
 20
74.78284454352444
 30
0.0
 40
1.399999999999999
  1
-3
 41
0.7
  7
ROMANS
100
AcDbText
  0
ENDSEC
  0
SECTION
  2
OBJECTS
  0
DICTIONARY
  5
C
330
0
100
AcDbDictionary
281
     1
  3
ACAD_COLOR
350
BE
  3
ACAD_GROUP
350
D
  3
ACAD_LAYOUT
350
1A
  3
ACAD_MATERIAL
350
BD
  3
ACAD_MLINESTYLE
350
17
  3
ACAD_PLOTSETTINGS
350
19
  3
ACAD_PLOTSTYLENAME
350
E
  3
ACAD_TABLESTYLE
350
11A
  3
AcadDim
350
2E5B
  3
ACDBHEADERROUNDTRIPXREC
350
609F
  3
AcDbVariableDictionary
350
94
  3
AcmDictionary
350
5B
  3
AMG
350
41
  3
AMGSNAPSETTINGS
350
26B
  3
DWGPROPS
350
609E
  0
DICTIONARY
  5
2F5
330
2
100
AcDbDictionary
280
     1
281
     1
  3
ACAD_LAYERSTATES
360
2F6
  3
AMLAYER_GROUPCOLORS
360
554A
  0
DICTIONARY
  5
8F
330
1F
100
AcDbDictionary
280
     1
281
     1
  3
ACAD_SORTENTS
360
53A3
  0
DICTIONARY
  5
2D9F
330
1B
100
AcDbDictionary
280
     1
281
     1
  3
ACAD_SORTENTS
360
2DA0
  0
DICTIONARY
  5
128A
330
125D
100
AcDbDictionary
280
     1
281
     1
  0
DICTIONARY
  5
2CC2
330
2CC0
100
AcDbDictionary
280
     1
281
     1
  0
DICTIONARY
  5
5E25
330
5E24
100
AcDbDictionary
280
     1
281
     1
  3
ACAD_DIMASSOC
360
5E26
  0
DICTIONARY
  5
60A3
330
2D8
100
AcDbDictionary
280
     1
281
     1
  3
ACAD_XREC_ROUNDTRIP
360
60A4
  0
DICTIONARY
  5
60A5
330
1E55
100
AcDbDictionary
280
     1
281
     1
  3
ACAD_XREC_ROUNDTRIP
360
60A6
  0
DICTIONARY
  5
BE
102
{ACAD_REACTORS
330
C
102
}
330
C
100
AcDbDictionary
281
     1
  0
DICTIONARY
  5
D
102
{ACAD_REACTORS
330
C
102
}
330
C
100
AcDbDictionary
281
     1
  0
DICTIONARY
  5
1A
102
{ACAD_REACTORS
330
C
102
}
330
C
100
AcDbDictionary
281
     1
  3
Layout1
350
1E
  3
Model
350
22
  0
DICTIONARY
  5
BD
102
{ACAD_REACTORS
330
C
102
}
330
C
100
AcDbDictionary
281
     1
  0
DICTIONARY
  5
17
102
{ACAD_REACTORS
330
C
102
}
330
C
100
AcDbDictionary
281
     1
  3
Standard
350
18
  0
DICTIONARY
  5
19
102
{ACAD_REACTORS
330
C
102
}
330
C
100
AcDbDictionary
281
     1
  0
ACDBDICTIONARYWDFLT
  5
E
102
{ACAD_REACTORS
330
C
102
}
330
C
100
AcDbDictionary
281
     1
  3
Normal
350
F
100
AcDbDictionaryWithDefault
340
F
  0
DICTIONARY
  5
11A
102
{ACAD_REACTORS
330
C
102
}
330
C
100
AcDbDictionary
281
     1
  3
Standard
350
11B
  0
XRECORD
  5
2E5B
102
{ACAD_REACTORS
330
C
102
}
330
C
100
AcDbXrecord
280
     1
 90
   990106
  3

 60
     0
 61
     0
 62
     1
 63
     3
 64
     0
 65
     0
 66
     0
 67
     3
 68
     1
 69
     0
 70
     0
 71
     0
 72
     0
 40
0.0
170
     0
340
2E0B
  0
DICTIONARY
  5
609F
102
{ACAD_REACTORS
330
C
102
}
330
C
100
AcDbDictionary
281
     1
  0
DICTIONARY
  5
94
102
{ACAD_REACTORS
330
C
102
}
330
C
100
AcDbDictionary
281
     1
  3
CTABLESTYLE
350
138
  3
DIMASSOC
350
96
  3
INDEXCTL
350
95
  3
PROJECTNAME
350
1B03
  0
DICTIONARY
  5
5B
102
{ACAD_REACTORS
330
C
102
}
330
C
100
AcDbDictionary
281
     1
  3
AcmBOM
350
272
  3
AcmStdDictionary
350
61
  3
AMDTSECTSYM_ARROWCOLOR
350
123
  0
DICTIONARY
  5
41
102
{ACAD_REACTORS
330
C
102
}
330
C
100
AcDbDictionary
281
     1
  0
DICTIONARY
  5
26B
102
{ACAD_REACTORS
330
C
102
}
330
C
100
AcDbDictionary
281
     1
  0
XRECORD
  5
609E
102
{ACAD_REACTORS
330
C
102
}
330
C
100
AcDbXrecord
280
     1
  1
DWGPROPS COOKIE
  2

  3

  4

  6

  7

  8

  9

300
AmdtFileType=84
301
=
302
=
303
=
304
=
305
=
306
=
307
=
308
=
309
=
 40
0.8319280555555556
 41
2453787.436149942
 42
2453944.505251493
  1

 90
        1
  0
DICTIONARY
  5
2F6
102
{ACAD_REACTORS
330
2F5
102
}
330
2F5
100
AcDbDictionary
281
     1
  0
DICTIONARY
  5
554A
102
{ACAD_REACTORS
330
2F5
102
}
330
2F5
100
AcDbDictionary
280
     1
281
     1
  0
SORTENTSTABLE
  5
53A3
102
{ACAD_REACTORS
330
8F
102
}
330
8F
100
AcDbSortentsTable
330
1F
331
13FA
  5
13FA
  0
SORTENTSTABLE
  5
2DA0
102
{ACAD_REACTORS
330
2D9F
102
}
330
2D9F
100
AcDbSortentsTable
330
1B
331
19F7
  5
19F7
331
19C0
  5
19C0
331
19FF
  5
19FF
331
1949
  5
1949
331
129A
  5
129A
331
19C8
  5
19C8
331
1A07
  5
1A07
331
1951
  5
1951
331
12A2
  5
12A2
331
1A0F
  5
1A0F
331
1959
  5
1959
331
12AA
  5
12AA
331
19D8
  5
19D8
331
2D6D
  5
2D6D
331
1A17
  5
1A17
331
1961
  5
1961
331
12B2
  5
12B2
331
19E0
  5
19E0
331
1A1F
  5
1A1F
331
1969
  5
1969
331
12BA
  5
12BA
331
2D95
  5
2D95
331
1971
  5
1971
331
19F0
  5
19F0
331
19C1
  5
19C1
331
1A00
  5
1A00
331
194A
  5
194A
331
129B
  5
129B
331
19C9
  5
19C9
331
1A08
  5
1A08
331
1952
  5
1952
331
12A3
  5
12A3
331
19D1
  5
19D1
331
1A10
  5
1A10
331
195A
  5
195A
331
12AB
  5
12AB
331
19D9
  5
19D9
331
1A18
  5
1A18
331
1962
  5
1962
331
12B3
  5
12B3
331
19E1
  5
19E1
331
196A
  5
196A
331
19E9
  5
19E9
331
2D96
  5
2D96
331
2CB7
  5
2CB7
331
1972
  5
1972
331
2D9E
  5
2D99
331
19F1
  5
19F1
331
19F9
  5
19F9
331
2CBF
  5
2CBF
331
1294
  5
1294
331
19C2
  5
19C2
331
1A01
  5
1A01
331
194B
  5
194B
331
1A09
  5
1A09
331
1953
  5
1953
331
12A4
  5
12A4
331
19D2
  5
19D2
331
1A11
  5
1A11
331
195B
  5
195B
331
12AC
  5
12AC
331
1A19
  5
1A19
331
1963
  5
1963
331
12B4
  5
12B4
331
1A21
  5
1A21
331
196B
  5
196B
331
19EA
  5
19EA
331
2D97
  5
2D97
331
1973
  5
1973
331
19F2
  5
19F2
331
19BB
  5
19BB
331
19FA
  5
19FA
331
1A02
  5
1A02
331
194C
  5
194C
331
129D
  5
129D
331
1A0A
  5
1A0A
331
1954
  5
1954
331
12A5
  5
12A5
331
19D3
  5
19D3
331
195C
  5
195C
331
12AD
  5
12AD
331
2D70
  5
2D70
331
1A1A
  5
1A1A
331
1964
  5
1964
331
12B5
  5
12B5
331
1A22
  5
1A22
331
196C
  5
196C
331
19EB
  5
19EB
331
2D98
  5
2D98
331
1974
  5
1974
331
2D8
  5
2D8
331
1A6A
  5
1A6A
331
1296
  5
1296
331
19C4
  5
19C4
331
19FB
  5
19FB
331
194D
  5
194D
331
129E
  5
129E
331
1A03
  5
1A03
331
1955
  5
1955
331
12A6
  5
12A6
331
19D4
  5
19D4
331
1A0B
  5
1A0B
331
195D
  5
195D
331
19DC
  5
19DC
331
1A13
  5
1A13
331
2D71
  5
2D71
331
1965
  5
1965
331
12B6
  5
12B6
331
19E4
  5
19E4
331
1A1B
  5
1A1B
331
196D
  5
196D
331
19EC
  5
19EC
331
1A23
  5
1A23
331
1975
  5
1975
331
2D99
  5
2D9A
331
2DA1
  5
2DA2
331
19BD
  5
19BD
331
19F4
  5
19F4
331
1297
  5
1297
331
19C5
  5
19C5
331
194E
  5
194E
331
129F
  5
129F
331
1A04
  5
1A04
331
1956
  5
1956
331
12A7
  5
12A7
331
19D5
  5
19D5
331
1A0C
  5
1A0C
331
19DD
  5
19DD
331
195E
  5
195E
331
2D72
  5
2D72
331
12B7
  5
12B7
331
1966
  5
1966
331
1A1C
  5
1A1C
331
19ED
  5
19ED
331
196E
  5
196E
331
1976
  5
1976
331
2D9A
  5
2DA1
331
2DA2
  5
2D9E
331
1290
  5
1290
331
19F5
  5
19F5
331
19C6
  5
19C6
331
19FD
  5
19FD
331
2CCB
  5
2CCB
331
194F
  5
194F
331
12A0
  5
12A0
331
1A05
  5
1A05
331
2CEB
  5
2CEB
331
1957
  5
1957
331
19D6
  5
19D6
331
1A0D
  5
1A0D
331
12A8
  5
12A8
331
195F
  5
195F
331
19DE
  5
19DE
331
1A15
  5
1A15
331
1967
  5
1967
331
12B8
  5
12B8
331
1A1D
  5
1A1D
331
196F
  5
196F
331
1708
  5
1708
331
1291
  5
1291
331
19BF
  5
19BF
331
1948
  5
1948
331
1299
  5
1299
331
19C7
  5
19C7
331
1950
  5
1950
331
1A06
  5
1A06
331
1E55
  5
1E55
331
19D7
  5
19D7
331
1A0E
  5
1A0E
331
1958
  5
1958
331
12A9
  5
12A9
331
1960
  5
1960
331
12B1
  5
12B1
331
19DF
  5
19DF
331
1A16
  5
1A16
331
1968
  5
1968
331
1A1E
  5
1A1E
331
1970
  5
1970
331
19EF
  5
19EF
331
2D94
  5
2D94
  0
DIMASSOC
  5
5E26
102
{ACAD_REACTORS
330
5E25
102
}
330
5E25
100
AcDbDimAssoc
330
5E24
 90
        3
 70
     0
 71
     0
  1
AcDbOsnapPointRef
 72
     1
331
5DBA
 73
     0
 91
        0
 40
0.0
 10
0.0
 20
0.0
 30
2.000000000000000E+50
 75
     0
  1
AcDbOsnapPointRef
 72
     6
331
5DCF
 73
     0
 91
        0
 40
1.570796326794896
 10
0.0
 20
0.0
 30
0.0
332
5DD1
 74
     0
 92
        0
 75
     0
  0
XRECORD
  5
60A4
102
{ACAD_REACTORS
330
60A3
102
}
330
60A3
100
AcDbXrecord
280
     1
102
SHADEPLOT
 70
     0
  0
XRECORD
  5
60A6
102
{ACAD_REACTORS
330
60A5
102
}
330
60A5
100
AcDbXrecord
280
     1
102
SHADEPLOT
 70
     0
  0
LAYOUT
  5
1E
102
{ACAD_XDICTIONARY
360
2F8
102
}
102
{ACAD_REACTORS
330
1A
102
}
330
1A
100
AcDbPlotSettings
  1

  2
Win2PDF
  4
A4
  6

 40
3.174999952316284
 41
3.174999952316284
 42
3.175003051757812
 43
3.17498779296875
 44
209.9944915771484
 45
296.989501953125
 46
3.741187945780438
 47
4.285754792267141
 48
0.0
 49
0.0
140
0.0
141
0.0
142
1.0
143
1.0
 70
   692
 72
     1
 73
     1
 74
     1
  7
monochrome.ctb
 75
    16
147
1.0
148
0.0014592318023006
149
0.038819256909278
100
AcDbLayout
  1
Layout1
 70
     1
 71
     1
 10
-7.462201817038192
 20
-6.955007155006001
 11
289.5273001360868
 21
203.0394844221425
 12
0.0
 22
0.0
 32
0.0
 14
-0.0166177473049629
 24
-0.0081673980498636
 34
-0.0015258207003583
 15
282.0590589484719
 25
196.1246882595993
 35
0.0000000349246037
146
0.0
 13
0.0
 23
0.0
 33
0.0
 16
1.0
 26
0.0
 36
0.0
 17
0.0
 27
1.0
 37
0.0
 76
     0
330
1B
331
2D8
1001
ACAD_PSEXT
1000
Win2PDF
1000
Win2PDF
1000
PDFFILE:
1000

1070
     0
  0
LAYOUT
  5
22
102
{ACAD_XDICTIONARY
360
60A1
102
}
102
{ACAD_REACTORS
330
1A
102
}
330
1A
100
AcDbPlotSettings
  1

  2
\\pallas\ColorLaserJet Büro
  4
A4
  6

 40
6.805083274841308
 41
5.027085304260253
 42
6.805084228515625
 43
5.027069091796875
 44
209.9733276367187
 45
296.9683227539062
 46
0.0
 47
0.0
 48
0.0
 49
0.0
140
0.0
141
0.0
142
1.0
143
1.82975238375777
 70
 11952
 72
     1
 73
     1
 74
     0
  7

 75
     0
147
0.5465220370126233
148
-1003.732693658126
149
-531.8054935907698
100
AcDbLayout
  1
Model
 70
     1
 71
     0
 10
0.0
 20
0.0
 11
12.0
 21
9.0
 12
0.0
 22
0.0
 32
0.0
 14
0.0
 24
0.0
 34
0.0
 15
0.0
 25
0.0
 35
0.0
146
0.0
 13
0.0
 23
0.0
 33
0.0
 16
1.0
 26
0.0
 36
0.0
 17
0.0
 27
1.0
 37
0.0
 76
     0
330
1F
1001
ACAD_PSEXT
1000
\\pallas\ColorLaserJet Büro
1000
HP Color LaserJet 4550 PCL
1000
Serverraum
1000
HP ColorLaserJet 4550N
1070
     0
  0
MLINESTYLE
  5
18
102
{ACAD_REACTORS
330
17
102
}
330
17
100
AcDbMlineStyle
  2
STANDARD
 70
     0
  3

 62
   256
 51
90.0
 52
90.0
 71
     2
 49
0.5
 62
   256
  6
BYLAYER
 49
-0.5
 62
   256
  6
BYLAYER
  0
ACDBPLACEHOLDER
  5
F
102
{ACAD_REACTORS
330
E
102
}
330
E
  0
TABLESTYLE
  5
11B
102
{ACAD_REACTORS
330
11A
102
}
330
11A
100
AcDbTableStyle
  3
Standard
 70
     0
 71
     0
 40
1.5
 41
1.5
280
     0
281
     0
  7
STANDARD
140
4.5
170
     2
 62
     0
 63
     7
283
     0
274
    -2
284
     1
 64
     0
275
    -2
285
     1
 65
     0
276
    -2
286
     1
 66
     0
277
    -2
287
     1
 67
     0
278
    -2
288
     1
 68
     0
279
    -2
289
     1
 69
     0
  7
STANDARD
140
6.0
170
     5
 62
     0
 63
     7
283
     0
274
    -2
284
     1
 64
     0
275
    -2
285
     1
 65
     0
276
    -2
286
     1
 66
     0
277
    -2
287
     1
 67
     0
278
    -2
288
     1
 68
     0
279
    -2
289
     1
 69
     0
  7
STANDARD
140
4.5
170
     5
 62
     0
 63
     7
283
     0
274
    -2
284
     1
 64
     0
275
    -2
285
     1
 65
     0
276
    -2
286
     1
 66
     0
277
    -2
287
     1
 67
     0
278
    -2
288
     1
 68
     0
279
    -2
289
     1
 69
     0
  0
DICTIONARYVAR
  5
138
102
{ACAD_REACTORS
330
94
102
}
330
94
100
DictionaryVariables
280
     0
  1
STANDARD
  0
DICTIONARYVAR
  5
96
102
{ACAD_REACTORS
330
94
102
}
330
94
100
DictionaryVariables
280
     0
  1
2
  0
DICTIONARYVAR
  5
95
102
{ACAD_REACTORS
330
94
102
}
330
94
100
DictionaryVariables
280
     0
  1
0
  0
DICTIONARYVAR
  5
1B03
102
{ACAD_REACTORS
330
94
102
}
330
94
100
DictionaryVariables
280
     0
  1

  0
DICTIONARY
  5
272
102
{ACAD_REACTORS
330
5B
102
}
330
5B
100
AcDbDictionary
281
     1
  0
DICTIONARY
  5
61
102
{ACAD_REACTORS
330
5B
102
}
330
5B
100
AcDbDictionary
281
     1
  0
XRECORD
  5
123
102
{ACAD_REACTORS
330
5B
102
}
330
5B
100
AcDbXrecord
280
     1
 90
-1023410169
  0
DICTIONARY
  5
2F8
330
1E
100
AcDbDictionary
280
     1
281
     1
  3
ACAD_XREC_ROUNDTRIP
360
60A0
  3
ADSK_XREC_LAYOUTTHUMBNAIL
360
2F9
  0
DICTIONARY
  5
60A1
330
22
100
AcDbDictionary
280
     1
281
     1
  3
ACAD_XREC_ROUNDTRIP
360
60A2
  0
XRECORD
  5
60A0
102
{ACAD_REACTORS
330
2F8
102
}
330
2F8
100
AcDbXrecord
280
     1
102
SHADEPLOT
 70
     0
102
SHADEPLOTRESLEVEL
 70
     2
102
SHADEPLOTCUSTOMDPI
 70
   300
  0
XRECORD
  5
2F9
102
{ACAD_REACTORS
330
2F8
102
}
330
2F8
100
AcDbXrecord
280
     1
310
28000000B40000007F00000001000800000000004C590000000000000000000000010000000000000000000000000000FFFFFF000000000000000000000000000000000000000000000000000000000000000000330000006600000099000000CC000000FF00000000330000333300006633000099330000CC330000FF3300
310
0000660000336600006666000099660000CC660000FF66000000990000339900006699000099990000CC990000FF99000000CC000033CC000066CC000099CC0000CCCC0000FFCC000000FF000033FF000066FF000099FF0000CCFF0000FFFF000000003300330033006600330099003300CC003300FF003300003333003333
310
33006633330099333300CC333300FF33330000663300336633006666330099663300CC663300FF66330000993300339933006699330099993300CC993300FF99330000CC330033CC330066CC330099CC3300CCCC3300FFCC330000FF330033FF330066FF330099FF3300CCFF3300FFFF330000006600330066006600660099
310
006600CC006600FF00660000336600333366006633660099336600CC336600FF33660000666600336666006666660099666600CC666600FF66660000996600339966006699660099996600CC996600FF99660000CC660033CC660066CC660099CC6600CCCC6600FFCC660000FF660033FF660066FF660099FF6600CCFF6600
310
FFFF660000009900330099006600990099009900CC009900FF00990000339900333399006633990099339900CC339900FF33990000669900336699006666990099669900CC669900FF66990000999900339999006699990099999900CC999900FF99990000CC990033CC990066CC990099CC9900CCCC9900FFCC990000FF99
310
0033FF990066FF990099FF9900CCFF9900FFFF99000000CC003300CC006600CC009900CC00CC00CC00FF00CC000033CC003333CC006633CC009933CC00CC33CC00FF33CC000066CC003366CC006666CC009966CC00CC66CC00FF66CC000099CC003399CC006699CC009999CC00CC99CC00FF99CC0000CCCC0033CCCC0066CC
310
CC0099CCCC00CCCCCC00FFCCCC0000FFCC0033FFCC0066FFCC0099FFCC00CCFFCC00FFFFCC000000FF003300FF006600FF009900FF00CC00FF00FF00FF000033FF003333FF006633FF009933FF00CC33FF00FF33FF000066FF003366FF006666FF009966FF00CC66FF00FF66FF000099FF003399FF006699FF009999FF00CC
310
99FF00FF99FF0000CCFF0033CCFF0066CCFF0099CCFF00CCCCFF00FFCCFF0000FFFF0033FFFF0066FFFF0099FFFF00CCFFFF00FFFFFF00000000000D0D0D001A1A1A00282828003535350043434300505050005D5D5D006B6B6B00787878008686860093939300A1A1A100AEAEAE00BBBBBB00C9C9C900D6D6D600E4E4E400
310
F1F1F100FFFFFF0000000000000000000000000000000000000000000000000000000000000000000000000000000000F5F5F5F5F5F5F5F5F5F5F5F5F5F5F5F5F5F5F5F5F5F5F5F5F5F5F5F5F5F5F5F5F5F5F5F5F5F5F5F5F5F5F5F5F5F5F5F5F5F5F5F5F5F5F5F5F5F5F5F5F5F5F5F5F5F5F5F5F5F5F5F5F5F5F5F5F5F5F5
310
F5F5F5F5F5F5F5F5F5F5F5F5F5F5F5F5F5F5F5F5F5F5F5F5F5F5F5F5F5F5F5F5F5F5F5F5F5F5F5F5F5F5F5F5F5F5F5F5F5F5F5F5F5F5F5F5F5F5F5F5F5F5F5F5F5F5F5F5F5F5F5F5F5F5F5F5F5F5F5F5F5F5F5F5F5F5F5F5F5F5F5F5F5F5F5F5F5F5F5F5F5F5E2E2E2E2E2E2E2E2E2E2E2E2E2E2E2E2E2E2E2E2E2E2E2E2E2
310
E2E2E2E2E2E2E2E2E2E2E2E2E2E2E2E2E2E2E2E2E2E2E2E2E2E2E2E2E2E2E2E2E2E2E2E2E2E2E2E2E2E2E2E2E2E2E2E2E2E2E2E2E2E2E2E2E2E2E2E2E2E2E2E2E2E2E2E2E2E2E2E2E2E2E2E2E2E2E2E2E2E2E2E2E2E2E2E2E2E2E2E2E2E2E2E2E2E2E2E2E2E2E2E2E2E2E2E2E2E2E2E2E2E2E2E2E2E2E2E2E2E2E2E2E2E2E2
310
E2E2E2E2E2E2E2E2E2E2E2E2E2E2E2E2E2E2E2E2E2E2E2E2E2F5F5F5E2F5F5F5F5F5F5F5F5E2E2E2E2E2E2E2E2E2F5F5F5F5F5F5F5F5F5F5F5F5F5F5F5F5E2E2E2E2E2E2E2E2E2F5F5F5F5F5F5F5F5F5F5F5F5F5F5F5F5E2E2E2E2E2E2E2E2E2F5F5F5F5F5F5F5F5F5F5F5F5F5F5F5F5E2E2E2E2E2E2E2E2E2F5F5F5F5F5F5
310
F5F5F5F5F5F5F5F5F5F5E2E2E2E2E2E2E2E2E2F5F5F5F5F5F5F5F5F5F5F5F5F5F5F5F5E2E2E2E2E2E2E2E2E2F5F5F5F5F5F5F5F5F5F5F5F5F5F5F5F5E2E2E2E2E2E2E2E2E2F5F5F5F5F5F5F5F5E2F5F5F5E2F5E2E2E2E2E2E2E2E2E2E2E2E2E2E2E2E2E2E2E2E2E2E2E2E2E2E2E2E2E2E2E2E2E2E2E2E2E2E2E2E2E2E2E2E2
310
E2E2E2E2E2E2E2E2E2E2E2E2E2E2E2E2E2E2E2E2E2E2E2E2E2E2E2E2E2E2E2E2E2E2E2E2E2E2E2E2E2E2E2E2E2E2E2E2E2E2E2E2E2E2E2E2E2E2E2E2E2E2E2E2E2E2E2E2E2E2E2E2E2E2E2E2E2E2E2E2E2E2E2E2E2E2E2E2E2E2E2E2E2E2E2E2E2E2E2E2E2E2E2E2E2E2E2E2E2E2E2E2E2E2E2E2E2E2E2E2E2E2E2E2E2E2E2
310
E2E2F5E2F5F5F5E2F5E2E2BEBEBEBEBEBEBEBEBEBEBEBEBEBEBEBEBEBEBEBEBEBEBEBEBEBEBEBEBEBEBEBEBEBEBEBEBEBEBEBEBEBEBEBEBEBEBEBEBEBEBEBEBEBEBEBEBEBEBEBEBEBEBEBEBEBEBEBEBEBEBEBEBEBEBEBEBEBEBEBEBEBEBEBEBEBEBEBEBEBEBEBEBEBEBEBEBEBEBEBEBEBEBEBEBEBEBEBEBEBEBEBEBEBEBEBE
310
BEBEBEBEBEBEBEBEBEBEBEBEBEBEBEBEBEBEBEBEBEBEBEBEBEBEBEBEBEBEBEBEBEBEBEBEBEBEBEBEBEBEBEBEBEBEBEBEBEBEBEBEBEE2E2F5E2F5F5F5E2F5E2E2BEE2E2E2E2E2C3E2E2E2E2E2E2E2E2E2E2E2E2E2E2E2E2E2E2E2E2E2E2E2C3E2E2E2E2E2E2E2E2E2E2E2C3E2E2E2E2E2E2E2E2C3E2E2E2E2E2E2E2E2E2E2E2
310
E2E2E2E2E2E2E2E2E2E2E2E2E2E2E2E2E2E2E2E2E2C3E2E2E2E2E2E2E2E2E2E2E2C3E2E2E2E2E2E2E2E2E2E2E2E2E2E2E2E2C3E2E2E2E2E2E2E2E2E2C3E2E2E2E2E2E2E2E2E2E2E2E2E2E2E2E2E2E2E2E2E2E2E2E2E2E2E2E2E2E2E2E2E2E2E2E2E2E2E2E2E2E2E2E2BEE2E2F5E2F5F5F5E2F5E2E2BEC3C3C3C3E2C3E2C3C3
310
C3C3C3C3C3E2C3C3C3C3E2E2E2E2E2E2E2E2E2E2C3E2C3C3C3C3C3E2E2E2E2E2C3C3C3E2C3C3C3E2E2C3E2E2E2E2C3C3E2C3C3C3C3C3C3C3C3C3C3C3C3C3C3C3E2E2E2E2E2E2E2E2E2E2C3C3C3C3C3C3E2E2C3C3C3C3C3E2E2C3C3C3C3C3C3C3C3C3C3C3E2E2E2C3E2E2C3C3C3C3C3E2E2C3E2E2E2E2E2E2E2E2E2C3C3C3C3
310
C3C3C3C3C3C3C3C3C3C3C3C3C3C3E2E2E2E2E2E2E2E2E2E2E2E2E2E2E2E2E2BEE2E2F5E2F5F5F5E2F5E2E2BEC3C3C3C3E2C3E2C3C3C3C3C3C3C3C3C3C3C3C3E2E2E2E2E2E2E2E2E2E2C3E2C3C3C3C3C3E2E2E2E2E2C3E2C3C3C3C3C3E2E2C3E2E2E2E2C3C3C3C3C3C3C3C3C3C3C3C3C3C3C3C3C3E2E2E2E2E2E2E2E2E2E2E2
310
C3C3C3C3C3C3E2E2E2C3C3C3C3E2E2C3C3C3C3C3C3C3C3C3C3C3E2E2E2C3E2E2C3C3C3C3C3E2E2C3E2E2E2E2E2E2E2E2E2C3C3C3C3C3C3C3C3C3C3C3C3C3E2C3E2C3C3E2E2E2E2E2E2E2E2E2E2E2E2E2E2E2E2E2BEE2E2F5E2F5F5F5E2F5E2E2BEC3C3C3C3C3C3C3C3C3C3C3C3C3C3C3C3C3C3C3C3C3C3C3C3C3C3C3C3C3C3
310
C3C3C3C3C3C3C3C3C3C3C3C3C3C3C3C3C3C3C3C3C3E2E2E2E2C3C3E2C3C3C3C3C3C3C3C3C3C3C3C3C3C3E2E2E2E2E2E2E2E2E2E2E2C3C3C3C3E2E2E2E2C3C3C3C3C3C3C3C3C3C3C3C3C3C3C3C3C3C3C3C3C3C3C3C3C3C3C3C3C3C3C3C3E2E2E2E2E2E2E2E2E2C3C3C3C3C3C3C3C3C3C3C3C3C3E2C3C3E2C3E2E2E2E2E2E2E2
310
E2E2E2E2E2E2E2E2E2E2BEE2E2F5E2F5F5F5E2F5E2E2BEE2E2E2E2E2C3E2E2E2E2E2E2E2E2E2E2E2E2E2E2E2E2E2E2E2E2E2E2E2C3E2E2E2E2E2E2E2E2E2E2E2C3E2E2E2E2E2E2E2E2C3E2E2E2E2E2E2E2E2E2E2E2E2E2E2E2E2E2E2E2E2E2E2E2E2E2E2E2E2E2E2E2E2C3C3C3C3E2E2E2E2E2C3C3C3C3C3C3C3C3C3E2C3E2
310
C3C3C3C3C3C3E2E2C3C3C3C3C3C3C3C3E2E2C3C3C3C3C3C3C3C3E2E2E2E2E2E2E2E2E2E2E2E2E2E2E2E2E2E2E2E2E2E2E2E2E2E2E2E2E2E2E2E2E2E2E2E2E2BEE2E2F5E2F5F5F5E2E2E2E2BEE2E2E2E2E2C3E2E2E2E2E2E2E2E2E2E2E2E2E2E2E2E2E2E2E2E2E2E2E2C3E2E2E2E2E2E2E2E2E2E2E2C3E2E2E2E2E2E2E2E2C3
310
E2E2E2E2E2E2E2E2E2E2E2E2E2E2E2E2E2E2E2E2E2E2E2E2E2E2E2E2E2E2E2E2C3C3C3C3E2E2E2E2C3C3C3C3C3C3C3C3C3C3E2C3E2E2C3E2C3C3C3E2E2C3C3C3C3C3C3C3C3E2E2C3C3C3C3C3C3C3C3E2E2E2E2E2E2E2E2E2E2E2E2E2E2E2E2E2E2E2E2E2E2E2E2E2E2E2E2E2E2E2E2E2E2E2E2E2BEE2E2E2E2F5F5F5E2E2E2
310
E2BEC3C3C3C3C3C3C3C3C3C3C3C3C3C3C3C3C3C3C3C3C3C3C3C3C3C3C3C3C3C3C3C3C3C3C3C3C3C3C3C3C3C3C3C3C3C3C3C3C3C3C3E2E2E2E2E2E2E2E2E2E2E2E2E2E2E2E2E2E2E2E2E2E2E2E2E2E2E2E2E2E2E2E2C3C3C3C3E2E2E2E2C3C3C3C3C3C3C3C3C3C3C3C3C3C3C3C3C3C3C3C3C3C3C3C3C3C3C3C3C3C3C3C3C3C3
310
C3C3C3C3C3E2E2E2E2E2E2E2E2E2E2E2E2E2E2E2E2E2E2E2E2E2E2E2E2E2E2E2E2E2E2E2E2E2E2E2E2E2BEE2E2E2E2F5F5F5E2E2E2E2BEE2E2E2E2E2C3E2E2E2E2E2E2E2E2E2E2E2E2E2E2E2E2E2E2E2E2E2E2E2C3E2E2E2E2E2E2E2E2E2E2E2C3E2E2E2E2E2E2E2E2C3E2E2E2E2E2E2E2E2E2E2E2E2E2E2E2E2E2E2E2E2E2
310
E2E2E2E2E2E2E2E2E2E2E2C3C3C3E2E2E2E2E2C3C3C3C3C3C3C3C3C3C3C3C3E2E2E2E2E2E2E2E2E2C3E2E2E2E2E2E2E2E2E2C3C3C3C3C3C3C3C3C3C3C3C3C3C3C3C3C3C3C3C3C3C3C3C3C3C3C3C3C3C3C3C3C3C3C3C3C3C3C3C3C3C3C3C3C3BEE2E2E2E2F5F5F5E2E2E2E2BEE2E2E2E2E2C3E2E2E2E2E2E2E2E2E2E2E2E2E2
310
E2E2E2E2E2E2E2E2E2E2C3E2E2E2E2E2E2E2E2E2E2E2C3E2E2E2E2E2E2E2E2C3E2E2E2E2E2E2E2E2E2E2E2E2E2E2E2E2E2E2E2E2E2E2E2E2E2E2E2E2E2E2E2E2C3C3C3E2E2E2E2E2E2C3C3C3C3C3C3C3C3C3C3C3E2E2E2E2E2E2E2E2E2C3E2E2E2E2E2E2E2E2E2C3E2E2C3C3C3C3C3C3C3E2C3E2C3C3C3C3C3E2C3C3C3C3C3
310
C3C3C3C3C3C3E2E2E2E2E2E2E2E2E2E2E2E2E2E2E2BEE2E2E2E2F5F5F5E2E2E2E2BEC3C3C3C3C3C3C3C3C3C3C3C3C3C3C3C3C3C3C3C3C3C3C3C3C3C3C3C3C3C3C3C3C3C3C3C3C3C3C3C3C3C3C3C3C3C3C3C3C3C3C3E2C3C3C3C3C3C3C3C3C3C3E2E2E2E2E2E2E2E2E2E2E2E2E2E2E2E2E2E2E2E2E2C3C3C3C3C3C3C3C3C3C3
310
C3C3C3C3C3C3C3C3C3C3C3C3C3C3C3C3C3C3C3C3C3C3C3C3C3C3C3C3C3C3E2E2C3C3E2C3C3C3C3C3C3C3C3C3C3C3C3C3E2C3C3C3C3C3E2C3C3C3C3E2E2E2E2E2E2E2E2E2E2E2E2E2E2E2BEE2E2E2E2F5F5F5E2E2E2E2BEE2E2E2E2E2C3E2E2E2E2E2E2E2E2E2E2E2E2E2E2E2E2E2E2E2E2E2E2E2C3E2E2E2E2E2E2E2E2E2E2
310
E2C3E2E2E2E2E2E2E2E2C3E2C3C3C3C3C3C3C3C3C3C3E2E2E2E2E2E2E2E2E2E2E2E2E2E2E2E2E2E2E2E2E2C3E2C3C3C3C3C3E2C3C3C3C3C3C3C3C3C3C3E2C3E2C3C3C3C3C3C3E2E2C3C3C3C3C3C3C3C3E2E2C3E2E2E2C3C3C3C3C3C3C3C3C3C3C3C3C3C3E2E2C3C3C3C3C3C3C3C3C3C3E2E2E2E2E2E2E2E2E2E2E2E2E2E2E2
310
BEE2E2E2E2F5F5F5E2E2E2E2BEE2E2E2E2E2C3E2E2E2E2E2E2E2E2E2E2E2E2E2E2E2E2E2E2E2E2E2E2E2C3E2E2E2E2E2E2E2E2E2E2E2C3E2E2E2E2E2E2E2E2C3E2C3C3C3C3C3C3C3C3C3E2E2E2E2E2E2E2E2E2E2E2E2E2E2E2E2E2E2E2E2E2E2C3E2C3C3C3C3C3E2C3C3C3C3C3E2C3C3C3C3E2C3E2C3C3C3C3C3C3E2E2C3C3
310
C3C3C3C3C3C3E2E2C3E2E2E2C3C3C3C3C3C3C3C3C3C3C3C3C3C3C3E2C3C3C3C3C3C3C3C3C3C3E2E2E2E2E2E2E2E2E2E2E2E2E2E2E2BEE2E2E2E2F5F5F5E2E2E2E2BEBEBEBEBEBEBEBEBEBEBEBEBEBEBEBEBEBEBEBEBEBEBEBEBEBEBEBEBEBEBEBEBEBEBEBEBEBEBEBEBEBEBEBEBEBEBEBEBEBEBEBEBEBEBEBEBEBEBEBEBEBE
310
BEBEBEBEBEBEBEBEBEBEBEBEBEBEBEBEBEBEBEBEBEBEBEBEBEBEBEBEBEBEBEBEBEBEBEBEBEBEBEBEBEBEBEBEBEBEBEBEBEBEBEBEBEBEBEBEBEBEBEBEBEBEBEBEBEBEBEBEBEBEBEBEBEBEBEBEBEBEBEBEBEBEBEBEBEBEBEBEBEBEBEBEBEBEBEBEBEBEBEBEBEBEBEBEBEBEBEE2E2E2E2F5F5F5E2E2E2E2BEC3C3C3C3C3C3E2C3
310
C3C3C3C3C3C3E2C3C3C3C3C3C3C3C3C3C3C3C3C3C3C3C3C3C3C3C3C3C3C3C3E2E2E2E2E2E2E2E2E2E2E2E2E2E2E2E2E2E2E2E2E2E2E2E2E2BEE2C3C3C3C3C3C3C3C3C3C3C3E2C3C3C3E2BEE2E2C3C3C3E2E2E2BEE2C3C3C3E2E2E2E2BEE2E2E2E2E2E2E2E2E2E2E2E2E2E2E2E2E2E2E2E2E2E2E2E2E2E2E2E2E2E2E2E2E2E2
310
E2E2E2E2E2E2E2E2E2E2E2E2E2E2E2E2E2E2E2E2E2E2E2E2E2E2E2E2E2E2E2E2BEE2E2E2E2F5F5F5E2F5E2E2BEC3C3C3C3C3C3E2C3C3C3C3C3C3C3E2C3C3C3E2C3C3C3C3C3C3C3C3C3C3C3C3C3C3C3C3C3C3C3C3E2E2E2E2E2E2E2E2E2E2E2E2E2E2E2E2E2E2E2E2E2E2E2E2E2BEE2C3C3C3C3C3C3C3C3C3C3C3E2C3C3C3E2
310
BEE2E2C3C3C3E2E2E2BEE2C3C3C3E2E2E2E2BEE2E2E2C3C3C3C3C3C3C3C3C3C3C3C3C3C3C3C3C3C3C3C3C3C3C3C3C3C3C3C3C3C3C3C3E2E2E2E2E2E2E2E2E2E2E2E2E2E2E2E2E2E2E2E2E2E2E2E2C3C3C3E2E2E2E2BEE2E2F5E2F5F5F5E2F5E2E2BEC3C3C3C3C3C3C3C3C3C3C3C3C3C3BEC3C3C3BEC3C3C3C3C3C3C3BEC3C3
310
C3C3C3C3C3C3C3C3C3C3BEBEBEBEBEBEBEBEBEBEBEBEBEBEBEBEBEBEBEBEBEBEBEBEBEBEBEC3C3C3C3C3C3BEC3C3C3C3BEC3C3BEBEBEBEBEBEBEBEBEBEBEBEBEBEBEBEBEBEBEBEBEE2E2E2C3E2C3E2C3E2E2C3E2C3E2E2E2E2C3E2E2E2E2C3E2C3E2E2C3C3C3C3E2E2E2C3E2E2E2E2E2E2E2E2E2E2E2E2E2E2E2E2C3C3C3E2
310
E2E2E2E2C3C3C3E2E2E2E2BEE2E2F5E2F5F5F5E2F5E2E2BEC3C3C3C3C3C3C3C3C3C3C3C3C3C3C3C3C3C3C3C3C3C3C3C3C3C3C3C3C3C3C3C3C3C3C3C3C3C3C3C3C3C3C3C3C3C3C3C3C3C3C3C3C3C3C3C3C3C3C3C3C3C3C3C3BEE2C3C3C3C3C3C3C3C3C3E2C3C3C3C3C3E2BEE2C3C3C3C3C3E2E2BEE2C3C3C3C3C3E2E2BEE2E2
310
E2C3E2C3E2C3E2C3C3E2C3E2C3C3E2C3E2C3C3E2C3E2C3C3E2C3C3C3C3E2E2E2C3E2E2E2E2E2E2E2E2E2E2E2E2E2E2E2E2C3C3C3E2E2E2E2E2E2C3C3E2E2E2E2BEE2E2F5E2F5F5F5E2F5E2E2BEC3C3C3C3C3C3C3C3C3C3C3C3C3C3C3C3C3C3C3C3C3C3C3C3C3C3C3C3E2C3C3C3C3C3C3C3C3C3C3C3C3C3C3C3C3C3C3C3C3C3
310
C3C3C3C3C3C3C3C3C3C3C3C3C3C3BEE2C3C3C3C3C3C3C3C3C3E2C3C3C3C3C3E2BEE2C3C3C3C3C3E2E2BEE2C3C3C3C3C3E2E2BEE2E2E2C3C3C3C3C3C3C3C3C3C3C3C3C3C3C3C3C3C3C3C3C3C3C3C3C3C3C3C3E2E2E2C3E2E2E2E2E2E2E2E2E2E2E2E2E2E2E2E2C3C3C3E2E2E2E2E2C3C3C3E2E2E2E2BEE2E2F5E2F5F5F5E2F5
310
E2E2BEBEBEBEBEBEBEBEBEBEBEBEBEBEBEBEBEBEBEBEBEBEBEBEBEBEBEBEBEBEBEBEBEBEBEBEBEBEBEBEBEBEBEBEBEBEBEBEBEBEBEBEBEBEBEBEBEBEBEBEBEBEBEBEBEBEBEBEBEBEBEBEBEBEBEBEBEBEBEBEBEBEBEBEBEBEBEBEBEBEBEBEBEBEBEBEBEBEBEBEBEBEE2E2E2C3E2C3E2C3E2C3C3E2C3E2C3C3E2C3E2C3C3E2C3
310
E2C3C3E2C3C3E2C3E2C3E2C3E2E2E2E2E2E2E2E2E2E2E2E2E2E2E2E2C3C3C3E2E2E2E2E2C3C3C3E2E2E2E2BEE2E2F5E2F5F5F5E2F5E2E2BEC3C3C3C3C3C3C3C3C3C3C3C3C3C3C3C3C3C3C3C3E2C3C3C3C3C3C3E2E2E2E2E2E2E2E2E2E2E2E2E2E2E2E2E2E2E2E2E2E2E2E2E2E2E2E2E2E2E2E2E2E2E2E2E2BEE2E2E2E2E2E2
310
E2E2E2BEBEBEBEBEBEE2E2BEE2E2C3C3C3C3C3E2BEE2C3C3C3C3C3C3E2BEE2E2E2C3E2C3E2C3E2E2E2E2C3E2E2E2E2C3E2C3E2E2C3E2C3E2E2C3C3C3C3E2C3E2C3E2E2E2E2E2E2E2E2E2E2E2E2E2E2E2E2C3C3C3E2E2E2E2E2C3C3C3E2E2E2E2BEE2E2F5E2F5F5F5E2F5E2E2BEC3C3C3C3C3C3C3C3C3C3C3C3C3C3C3C3C3C3
310
C3C3C3C3C3C3C3C3C3E2E2E2E2E2E2E2E2E2E2E2E2E2E2E2E2E2E2E2E2E2E2E2E2E2E2E2E2E2E2E2E2E2E2E2E2E2BEE2E2E2BEBEBEBEBEBEE2E2E2E2E2E2E2E2BEE2E2C3C3C3C3E2E2BEE2C3C3C3C3C3C3E2BEE2E2E2C3C3C3C3C3C3C3C3C3C3C3C3C3C3C3C3C3C3C3C3C3C3C3C3C3C3E2C3E2C3E2C3E2E2E2E2E2E2E2E2E2
310
E2E2E2E2E2E2E2C3E2E2E2E2E2E2E2E2E2C3E2E2E2E2BEE2E2F5E2F5F5F5E2F5E2E2BEBEBEBEBEBEBEBEBEBEBEBEBEBEBEBEBEBEBEBEBEBEBEBEBEBEBEBEBEBEBEBEBEBEBEBEBEBEBEBEBEBEBEBEBEBEBEBEBEBEBEBEBEBEBEBEBEBEBEBEBEBEBEBEBEBEBEBEBEBEBEBEBEBEBEBEBEBEBEBEBEBEBEBEBEBEBEBEBEBEBEBEBE
310
BEBEBEBEBEBEBEBEBEE2E2E2C3E2C3E2C3E2C3C3E2C3E2C3C3E2C3E2C3C3E2C3E2C3C3E2C3C3E2C3E2C3E2C3E2E2E2E2E2E2E2E2E2E2E2E2E2E2E2E2E2C3E2E2E2E2E2E2E2C3E2E2E2E2E2BEE2E2F5E2F5F5F5E2F5E2E2BEC3C3C3C3C3C3C3C3C3C3C3C3C3C3C3C3C3C3C3C3C3C3E2C3C3C3C3C3C3C3C3C3C3C3E2C3C3C3C3
310
C3C3E2C3C3C3C3C3C3C3C3C3C3E2C3C3C3E2C3C3C3C3C3C3C3BEC3C3C3C3C3C3C3C3C3C3C3C3C3C3E2C3C3BEE2C3C3E2BEC3C3C3BEE2C3C3E2BEC3C3C3BEE2E2E2C3E2C3E2C3E2E2E2E2C3E2E2C3E2C3E2C3E2E2C3E2E2E2E2C3C3E2C3E2C3E2C3E2E2E2E2E2E2E2E2E2E2E2E2E2E2E2E2E2C3E2E2E2E2E2E2E2C3E2E2E2E2
310
E2BEE2E2F5E2F5F5F5E2F5E2E2BEC3C3C3C3C3C3C3C3C3C3C3C3C3C3C3C3C3C3C3C3C3C3E2C3C3C3C3C3C3C3C3C3C3C3E2C3C3C3C3C3C3C3C3C3C3C3C3C3C3C3C3C3E2C3C3C3E2C3C3C3C3C3C3C3BEC3C3C3C3C3C3C3C3C3C3C3C3C3C3E2C3C3BEE2C3C3E2BEC3C3C3BEE2C3C3E2BEC3C3C3BEE2E2E2C3C3C3C3C3C3C3C3C3
310
C3C3C3C3C3C3C3C3C3C3C3C3C3C3C3C3C3E2C3E2C3E2C3E2E2E2E2E2E2E2E2E2E2E2E2E2E2E2E2E2C3E2E2E2E2E2E2E2C3E2E2E2E2E2BEE2E2F5E2F5F5F5E2F5E2E2BEBEBEBEBEBEBEBEBEBEBEBEBEBEBEBEBEBEBEBEBEBEBEBEBEBEBEBEBEBEBEBEBEBEBEBEBEBEBEBEBEBEBEBEBEBEBEBEBEBEBEBEBEBEBEBEBEBEBEBEBE
310
BEBEBEBEBEBEBEBEBEBEBEBEBEBEBEBEBEBEBEBEBEBEBEBEBEBEBEBEBEBEBEBEBEBEBEBEBEBEBEBEBEE2E2E2C3E2C3E2C3E2C3C3E2C3E2C3C3E2C3E2C3C3E2C3E2C3C3E2C3C3E2C3E2C3E2C3E2E2E2E2E2E2E2E2E2E2E2E2E2E2E2E2E2C3C3C3C3C3C3C3C3C3E2E2E2E2E2BEE2E2F5E2F5F5F5E2F5E2E2BEC3C3C3C3C3C3E2
310
C3C3C3C3C3C3C3C3C3C3C3E2E2C3C3C3E2C3C3C3C3E2C3C3C3C3C3E2E2C3C3C3C3C3E2E2E2E2E2E2E2E2E2E2E2E2E2E2E2E2E2E2E2E2E2E2E2BEC3C3C3C3C3C3C3C3C3C3E2C3C3C3C3C3E2BEE2E2C3E2BEE2C3C3BEE2C3C3E2BEC3C3C3BEE2E2E2C3E2C3E2C3E2E2C3E2C3E2E2C3E2C3E2E2E2E2C3E2E2E2E2C3C3E2C3E2C3
310
E2C3E2E2E2E2E2C3C3C3C3C3C3E2E2E2E2E2E2E2E2E2E2E2E2E2E2E2E2E2E2E2E2BEE2E2F5E2F5F5F5E2F5E2E2BEC3C3C3C3C3C3C3C3C3C3C3C3C3C3C3C3C3C3C3C3C3C3C3C3C3C3C3C3E2C3C3C3C3C3C3E2C3C3C3C3C3E2E2E2E2E2E2E2E2E2E2E2E2E2E2E2E2E2E2E2E2E2E2E2BEC3C3C3C3C3C3C3C3C3C3E2C3C3C3C3C3
310
E2BEE2E2C3E2BEC3C3C3BEE2C3C3E2BEC3C3C3BEE2E2E2C3C3C3C3C3C3C3C3C3C3C3C3C3C3C3C3C3C3C3C3C3C3C3C3C3E2E2C3C3C3C3C3E2E2E2E2E2C3C3C3C3C3C3E2C3C3C3C3E2E2E2E2E2C3E2E2E2E2E2E2E2E2E2BEE2E2F5E2F5F5F5E2F5E2E2BEBEBEBEBEBEBEBEBEBEBEBEBEBEBEBEBEBEBEBEBEBEBEBEBEBEBEBEBE
310
BEBEBEBEBEBEBEBEBEBEBEBEBEBEBEBEBEBEBEBEBEBEBEBEBEBEBEBEBEBEBEBEBEBEBEBEBEBEBEBEBEBEBEBEBEBEBEBEBEBEBEBEBEBEBEBEBEBEBEBEBEBEBEBEBEBEBEBEBEBEBEBEBEE2E2E2C3C3C3C3C3E2E2C3E2C3E2C3C3E2C3E2C3C3E2C3C3C3C3E2C3E2E2C3C3C3C3C3E2E2E2E2E2C3C3C3E2E2E2E2E2E2E2C3E2E2E2
310
C3C3E2C3C3E2E2E2E2E2E2E2BEE2E2F5E2F5F5F5E2F5E2E2BEC3C3C3C3C3C3C3C3C3C3C3C3C3C3C3C3C3C3C3C3C3C3C3E2C3C3C3C3C3C3C3C3C3C3C3C3C3C3C3C3C3C3C3C3C3C3C3C3C3C3C3C3C3C3C3C3C3C3C3C3C3E2E2E2BEC3C3C3C3C3C3C3C3C3C3C3C3C3E2C3C3C3BEE2E2E2E2C3C3C3C3E2E2E2E2E2E2E2E2E2BEE2
310
E2E2C3C3C3C3C3E2E2C3E2C3E2C3C3E2C3E2C3E2E2C3C3C3E2E2C3E2E2C3C3C3C3C3E2E2E2E2E2E2E2E2E2E2E2E2E2E2E2C3E2E2C3E2E2E2E2E2C3E2E2E2E2E2E2BEE2E2F5E2F5F5F5E2F5E2E2BEC3C3C3C3C3C3C3C3C3C3C3C3C3C3C3C3C3C3C3C3C3C3C3E2C3C3C3C3C3C3C3C3C3C3C3C3C3C3C3C3C3C3C3C3C3C3C3C3C3
310
C3C3C3C3C3C3C3C3C3C3C3C3E2E2E2BEC3C3C3C3C3C3C3C3C3C3C3C3C3E2C3C3C3BEE2E2E2E2C3C3C3C3C3E2E2E2E2E2E2E2E2BEE2E2E2C3C3C3C3C3C3C3C3C3C3C3C3C3C3C3C3C3C3C3C3C3C3C3C3C3C3C3C3C3C3C3C3E2E2E2E2E2E2E2E2E2E2E2E2E2E2E2C3E2E2C3E2E2E2E2E2E2C3E2E2E2E2E2BEE2E2F5E2F5F5F5E2
310
E2E2E2BEBEBEBEBEBEBEBEBEBEBEBEBEBEBEBEBEBEBEBEBEBEBEBEBEBEBEBEBEBEBEBEBEBEBEBEBEBEBEBEBEBEBEBEBEBEBEBEBEBEBEBEBEBEBEBEBEBEBEBEBEBEBEBEBEBEBEBEBEBEBEBEBEBEBEBEBEBEBEBEBEBEBEBEBEBEBEBEBEBEBEBEBEBEBEBEBEBEBEBEBEBEE2E2E2C3C3C3C3C3E2C3C3C3C3C3C3C3C3C3C3C3C3C3
310
C3C3C3C3C3C3C3C3E2C3C3C3E2E2E2E2E2E2E2E2E2E2E2E2E2E2E2E2C3E2C3E2E2E2E2E2E2E2C3E2E2E2E2E2BEE2E2E2E2F5F5F5E2E2E2E2BEC3C3C3C3C3C3C3C3C3C3C3C3C3C3E2E2E2E2E2E2E2E2E2E2E2E2E2E2E2BEE2E2E2E2E2E2E2E2E2E2E2E2E2C3C3C3C3C3C3C3C3C3C3C3E2E2E2E2E2E2E2E2E2E2BEE2E2E2E2E2
310
E2E2E2E2E2E2E2E2E2E2E2E2E2E2E2E2E2E2E2E2E2E2E2E2E2E2E2E2E2E2BEE2E2E2C3C3C3C3C3E2C3C3C3C3C3C3C3C3C3C3C3C3C3C3C3C3C3C3C3C3C3E2C3C3C3E2E2E2E2E2E2E2E2E2E2E2E2E2E2E2E2C3E2E2C3E2E2E2E2E2E2C3E2E2E2E2E2BEE2E2E2E2F5F5F5E2E2E2E2BEC3C3C3C3C3C3C3C3C3C3C3C3C3C3E2E2E2
310
E2E2E2E2E2E2E2E2E2E2E2E2BEE2E2E2E2E2E2E2E2E2E2E2E2E2C3C3C3C3C3C3C3C3C3C3C3E2E2E2E2E2E2E2E2E2E2BEE2E2E2E2E2E2E2E2E2E2E228E2E2E2E2E228E2E2E2E2E2E2E2E2E2E2E2E2E2E2E2E2E2BEE2E2E2C3C3C3C3C3C3C3C3C3E2C3C3E2C3C3C3C3C3C3E2C3C3C3C3E2E2E2E2E2E2E2E2E2E2E2E2E2E2E2E2
310
E2E2E2E2E2E2E2C3E2E2C3E2E2E2E2E2C3E2E2E2E2E2E2BEE2E2E2E2F5F5F5E2E2E2E2BEBEBEBEBEBEBEBEBEBEBEBEBEBEBEBEBEBEBEBEBEBEBEBEBEBEBEBEBEBEBEBEBEBEBEBEBEBEBEBEBEBEBEBEBEBEBEBEC3C3BEBEBEC3C3BEBEBEBEBEBEBEBEBEBEBEE2E2E2E2E2E2E2E2E2E2E2282828C3282828E2E2E2E2E2E2E2E2
310
E2E2E2E2E2E2E2E2E2BEE2E2E2C3C3C3C3E2C3C3C3C3C3E2C3E2C3C3C3C3C3C3C3C3C3E2E2E2E2E2E2E2E2E2E2E2E2E2E2E2E2C3C3C3C3C3E2E2E2E2C3E2E2E2C3E2E2E2C3E2E2E2E2E2E2E2BEE2E2E2E2F5F5F5E2E2E2E2BEC3C3C3C3C3C3C3C3C3C3C3C3C3C3C3E2C3C3C3E2C3C3E2C3C3C3E2E2E2BEE2E2E2E2E2E2E2E2
310
E2E2C3C3C3C3C3C3E2C3C3C3C3C3C3C3C3C3C3E2E2E2E2E2E2E2BEE2E2E2E2E2E2E2E2E2E2E228E2E2C3E2E228E2E2E2E2E2E2E2E2E2E2E2E2E2E2E2E2E2BEE2E2E2C3C3C3C3E2C3C3C3C3C3E2C3E2C3C3C3C3C3C3E2C3C3E2E2E2E2E2E2E2E2E2E2E2E2E2E2E2E2C3C3C3C3C3E2C3C3C3C3E2E2E2E2C3C3C3E2E2E2E2E2E2
310
E2E2BEE2E2E2E2F5F5F5E2E2E2E2BEC3C3C3C3C3C3C3C3C3C3C3C3C3C3C3C3C3C3C3E2C3C3C3C3C3C3E2E2E2BEE2E2E2E2E2E2E2E2E2E2C3C3C3C3C3C3C3C3C3C3C3C3C3C3C3C3C3E2E2E2E2E2E2E2BEE2E2E2E2E2E2E2E2E2E2E228E2E2E2E2E2BEBEBEBEBEBEBEBEBEBEBEBEBEE2E2E2E2E2BEE2E2E2E2E2E2E2E2E2E2E2
310
E2E2E2E2E2E2E2E2E2E2E2E2E2E2E2E2E2E2E2E2E2E2E2E2E2E2E2E2E2E2C3C3C3C3C3E2E2E2E2E2E2E2E2E2E2E2E2E2E2E2E2E2E2E2E2BEE2E2E2E2F5F5F5E2E2E2E2BEC3C3C3C3C3BEC3C3C3C3C3C3BEC3C3BEBEC3C3BEC3C3BEC3C3C3BEBEBEBEBEBEBEBEBEBEBEBEBEBEBEBEBEBEBEBEC3C3C3BEBEBEBEBEBEBEC3BEBE
310
BEBEBEBEBEBEE2E2E2E2E2E2E2E2E2E2E228E2E2E2E2E2BEE2E2E2E2E2E2E2E2E2E2E2BEE2E2E2E2E2BEE2E2E2E2E2E2E2E2E2E2E2E2E2E2E2E2E2E2E2E2E2E2E2E2E2E2E2E2E2E2E2E2E2E2E2E2E2E2E2E2E2E2E2E2E2E2E2E2E2C3C3C3C3C3E2C3C3C3C3C3C3C3E2E2E2E2BEE2E2E2E2F5F5F5E2E2E2E2BEC3C3C3C3C3C3
310
C3C3C3C3C3C3C3C3C3C3C3C3C3C3C3C3C3C3C3E2E2E2E2BEE2E2E2E2E2E2E2E2E2E2E2E2E2E2E2E2C3C3C3C3E2E2E2E2E2E2E2E2E2E2E2E2E2E2BEE2E2E2E2E2E2E2E2E2E2E228E2E2E2E2E2BEE2E2E2E2E2E2E2E2E2E2E2BEE2E2E2E2E2BEE2E2E2E2E2E2E2E2E2E2E2E2E2E2E2E2E2E2E2E2E2E2E2E2E2E2E2E2E2E2E2E2
310
E2E2E2E2E2E2E2E2E2E2E2E2E2E2E2E2E2C3C3C3C3C3E2C3C3C3C3C3C3C3E2E2E2E2BEE2E2E2E2F5F5F5E2F5E2E2BEC3C3C3C3E2C3C3C3C3C3C3C3C3C3C3C3C3C3C3C3C3C3C3C3C3E2E2E2E2BEE2E2E2E2E2E2E2E2E2E2E2E2E2E2E2E2C3C3C3C3E2E2E2E2E2E2E2E2E2E2E2E2E2E2BEE2E2E2E2E2E2E2E2E2E2E228E2E2E2
310
E2BEBEE2E2E2E2E2E2E2E2E2E2E2BEE2E2E2E2E2BEE2E2E2E2E2E2E2E2E2E2E2E2E2E2E2E2E2E2E2E2E2E2E2E2E2E2E2E2E2E2E2E2E2E2E2E2E2E2E2E2E2E2E2E2E2E2E2E2C3C3C3C3C3C3E2C3C3C3C3C3C3C3E2E2E2E2BEE2E2F5E2F5F5F5E2F5E2E2BEBEBEBEBEBEBEBEBEBEBEBEBEBEBEBEBEBEBEBEBEBEBEBEBEBEBEBE
310
BEBEBEBEBEBEBEBEBEBEBEBEBEBEBEBEBEBEBEBEBEBEBEBEBEBEBEBEBEBEBEBEBEBEBEBEBEBEE2E2E2E2E2E2E2E2E2E2E228E2E2E2E2BEBEE2E2E2E2E2E2E2E2E2E2E2BEE2E2E2E2E2BEE2E2E2E2E2E2E2E2E2E2E2E2E2E2E2E2E2E2E2E2E2E2E2E2E2E2E2E2E2E2E2E2E2E2E2E2E2E2E2E2E2E2E2E2E2E2E2E2E2E2E2E2E2
310
E2E2E2E2E2E2E2E2E2E2E2E2E2BEE2E2F5E2F5F5F5E2F5E2E2BEC3C3C3C3C3C3C3C3C3C3C3C3C3E2E2E2E2E2E2E2E2E2E2E2E2E2E2E2E2BEE2E2E2E2E2E2E2E2E2E2E2E2E2E2E2E2C3C3C3E2E2E2E2E2E2E2E2E2E2E2E2E2E2E2BEE2E2E2E2E2E2E2E2E2E2E228E2E2E2E2BEBEE2E2E2E2E2E2E2E2E2E2E2BEE2E2E2E2E2BE
310
E2E2E2E2E2E2E2E2E2E2E2DCDCDCDCDCDCDCDCDCDCDCDCDCDCDCDCDCDCDCDCDCDCDCDCDCDCDCDCDCDCDCDCDCDCDCDCDCDCE2E2E2E2E2E2E2E2E2E2E2E2E2E2E2E2E2BEE2E2F5E2F5F5F5E2F5E2E2BEC3C3C3C3E2C3C3C3C3C3C3C3C3E2E2E2E2E2E2E2E2E2E2E2E2E2E2E2E2BEE2E2E2E2E2E2E2E2E2E2E2E2E2E2E2E2C3C3
310
C3E2E2E2E2E2E2E2E2E2E2E2E2E2E2E2BEE2E2E2E2E2E2E2E2E2E2E228E2E2E2E2BEBEE2E2E2E2E2E2E2E2E2E2E2BEE2E2E2E2E2BEE2E2E2E2E2E2E2E2E2E2E2DCE2E2E2E2E2E2E2DCE2E2E2E2E2E2E2E2DCDCE2DCDCDCE2E2E2E2DCDCDCDCDCDCDCDCE2E2DCE2E2E2E2E2E2E2E2E2E2E2E2E2E2E2E2E2BEE2E2F5E2F5F5F5
310
E2F5E2E2BEBEBEBEBEBEBEBEBEBEBEBEBEBEBEBEBEBEBEBEBEBEBEBEBEBEBEBEBEBEBEBEBEBEBEBEBEBEBEBEBEBEBEBEBEBEBEBEBEBEBEBEBEBEBEBEBEBEBEBEBEBEBEBEBEBEE2E2E2E2E2E2E2E2E2E2E228E2E2E2E2BEBEBEBEE2E2E2E2E2E2BEBEBEBEE2E2E2E2E2BEE2E2E2E2E2E2E2E2E2E2E2DCE2E2E2E2E2DCDCDCDC
310
DCDCDCE2E2E2E2DCDCE2DCDCE2E2E2E2E2DCDCDCDCE2E2E2DCDCE2DCE2E2E2E2E2E2E2E2E2E2E2E2E2E2E2E2E2BEE2E2F5E2F5F5F5E2F5E2E2BEC3C3C3C3C3C3E2C3C3C3C3C3C3C3C3C3C3C3C3C3C3C3C3C3E2E2E2E2E2BEE2E2E2E2E2E2E2E2E2E2C3C3C3C3C3C3E2C3C3C3C3C3C3E2E2E2E2E2E2E2E2E2E2E2BEE2E2E2E2
310
E2E2E2E2E2E2E228E2E2E2E2BEBEE2BEE2E2E2E2E2E2BEE2BEBEE2E2E2E2E2BEE2E2E2E2E2E2E2E2E2E2E2DCE2E2E2E2E2DCDCE2E2E2E2E2E2E2E2E2DCDCDCDCDCE2E2E2E2E2DCDCDCE2E2E2E2DCDCE2DCE2E2E2E2E2E2E2E2E2E2E2E2E2E2E2E2E2BEE2E2F5E2F5F5F5E2F5E2E2BEC3C3C3C3C3C3C3C3C3C3C3C3C3C3C3C3
310
C3C3C3C3C3C3C3C3E2E2E2E2E2BEE2E2E2E2E2E2E2E2E2E2C3C3C3C3C3C3C3C3C3C3C3C3C3E2E2E2E2E2E2E2E2E2E2E2BEE2E2E228E2E2E228E2E2BEBEBEBEBEBEBEBEBEBEE2E2E2E2E2E2BEBEBEBEBEBEBEBEBEBEE2E2E2E2E2E2E2E2E2E2E2DCE2E2E2E2E2DCDCE2E2E2E2E2E2E2E2E2DCDCDCDCDCDCDCDCDCDCDCE2E2E2
310
E2E2E2DCDCE2DCE2E2E2E2E2E2E2E2E2E2E2E2E2E2E2E2E2BEE2E2F5E2F5F5F5E2F5E2E2BEBEBEBEBEBEBEBEBEBEBEBEBEBEBEBEBEBEBEBEBEBEBEBEBEBEBEBEBEBEBEBEBEBEBEBEBEBEBEBEBEC3BEC3C3C3C3C3C3C3C3C3C3C3BEBEBEBEBEBEBEBEBEBEBEBEE2282828282828282828BEECECECECECBEBEECBEECECECECEC
310
ECBEECBEBEECECECECECBEE2E2E2E2E2E2E2E2E2E2E2DCE2E2E2E2E2DCDCE2DCDCDCDCE2E2E2E2DCDCDCDCDCDCE2E2E2E2DCDCDCE2E2E2E2DCDCE2DCE2E2E2E2E2E2E2E2E2E2E2E2E2E2E2E2E2BEE2E2F5E2F5F5F5E2F5E2E2BEC3C3C3C3C3C3C3C3C3C3C3C3C3C3C3C3C3C3C3C3C3C3C3C3C3E2E2E2E2BEE2E2E2E2E2E2E2
310
E2E2E2E2E2E2E2C3C3C3C3C3C3C3C3C3C3C3E2E2E2E2E2E2E2E2E2BEE2E2E2E2E2C3C3E2E2E2BEBEBEBEBEBEBEBEBEBEE2E2E2E2E2E2BEBEBEBEBEBEBEBEBEBEE2E2E2E2E2E2E2E2E2E2E2DCE2E2E2E2E2DCDCE2E2E2E2E2E2E2E2E2DCDCDCDCDCDCE2E2E2E2DCDCDCE2DCDCDCDCE2E2DCE2E2E2E2E2E2E2E2E2E2E2E2E2E2
310
E2E2E2BEE2E2F5E2F5F5F5E2F5E2E2BEC3C3C3C3C3C3C3C3C3C3C3C3C3C3C3C3C3C3C3C3C3C3C3C3C3E2E2E2E2BEE2E2E2E2E2E2E2E2E2E2E2E2E2E2C3C3C3C3C3C3C3C3C3C3C3E2E2E2E2E2E2E2E2E2BEE2E2E2E2E2C3C3E2E2E2E22828E2E2E2BEBE28BEE2E2E2E2E2E2BE28BEBEE2E2E2E2E2BEE2E2E2E2E2E2E2E2E2E2
310
E2DCE2E2E2E2E2E2E2E2E2E2E2E2E2E2E2E2DCDCDCDCDCDCDCDCDCDCDCDCDCDCE2E2E2E2E2E2DCE2E2E2E2E2E2E2E2E2E2E2E2E2E2E2E2E2BEE2E2F5E2F5F5F5E2F5E2E2BEBEBEBEBEBEBEBEBEBEBEBEBEBEBEBEBEBEBEBEBEBEBEBEBEBEBEBEBEBEBEBEBEBEBEBEBEBEBEBEBEBEBEBEBEBEBEBEBEBEC3BEBEBEBEC3BEBEBE
310
BEBEBEBEBEBEBEE2E2E2E2E2E2E2E2E2E2E22828E2E2E2BEBEBE28E2E2E2E2E2E2282828BEE2E2E2E2E2BEE2E2E2E2E2E2E2E2E2E2E2DCE2E2E2E2E2DCDCDCE2E2E2E2E2E2E2E2DCDCDCDCDCDCE2E2E2E2DCDCDCDCDCDCDCDCE2E2DCE2E2E2E2E2E2E2E2E2E2E2E2E2E2E2E2E2BEE2E2F5E2F5F5F5E2F5E2E2BEC3C3C3C3C3
310
C3C3C3C3C3C3C3C3C3C3C3C3C3C3C3E2C3C3C3C3C3E2E2E2BEE2E2E2E2E2E2E2E2E2E2E2E2E2E2C3C3C3C3C3C3E2E2E2E2E2E2E2E2E2E2E2E2E2E2BEE2E2E2E2E2E2E2E2E2E2E228C3C3E2E2BEBEE22828E2E2E2E22828E2E22828E2E2E2E2BEE2E2E2E2E2E2E2E2E2E2E2DCE2E2E2E2E2DCDCDCDCDCDCDCE2E2E2E2DCDCDC
310
DCDCDCE2E2E2E2DCDCDCE2E2E2E2DCDCE2DCE2E2E2E2E2E2E2E2E2E2E2E2E2E2E2E2E2BEE2E2F5E2F5F5F5E2F5E2E2BEC3C3C3C3C3C3C3C3C3C3C3C3C3C3C3C3C3C3C3C3E2C3C3C3C3C3E2E2E2BEE2E2E2E2E2E2E2E2E2E2E2E2E2E2C3C3C3C3C3C3E2E2E2E2E2E2E2E2E2E2E2E2E2E2BEE2E2E2E2E2E2E2E2E2E2E228C3C3
310
E2E2BEBEE2E228E2E2E2E228E2E2E2BE28E2E2E2E2BEE2E2E2E2E2E2E2E2E2E2E2DCE2E2E2E2E2E2DCE2E2E2E2E2E2E2E2E2DCDCDCDCDCDCE2E2E2E2DCE2DCE2E2E2E2DCDCE2DCE2E2E2E2E2E2E2E2E2E2E2E2E2E2E2E2E2BEE2E2F5E2F5F5F5E2F5E2E2BEBEBEBEBEBEBEBEBEBEBEBEBEBEBEBEBEBEBEBEBEBEBEBEBEBEBE
310
BEBEBEBEBEBEBEBEBEBEBEBEBEBEBEBEBEBEBEBEBEBEBEBEBEBEBEBEBEBEBEBEBEBEBEBEBEBEBEE2E2E2E2E2E2E2E2E2E2E228C3C3E2E2BEBEE2E2E228E2E228E2E2E2E2BE28E2E2E2E2BEE2E2E2E2E2E2E2E2E2E2E2DCE2E2E2E2E2E2E2E2E2E2E2E2E2E2E2E2DCDCDCDCDCDCDCDCDCDCDCE2E2E2E2E2E2DCDCE2DCE2E2E2
310
E2E2E2E2E2E2E2E2E2E2E2E2E2E2BEE2E2F5E2F5F5F5E2F5E2E2BEC3C3C3C3C3C3C3C3C3C3C3C3C3C3C3E2E2C3C3C3C3C3C3C3C3C3C3E2E2BEE2E2E2E2E2E2E2E2E2E2E2E2E2E2C3C3C3C3C3C3C3E2E2E2E2E2E2E2E2E2E2E2E2E2BEE2E2E2E2E2E2E2E2E2E2E228E2E2E2E2E2BEE2E2E2C3C3C3C3C3C3E2E2BEE228E2E2E2
310
BEE2E2E2E2E2E2E2E2E2E2E2DCE2E2E2E2E2DCDCE2E2E2E2E2E2E2E2E2DCDCDCDCDCDCE2E2E2E2DCDCDCE2E2E2E2DCDCE2DCE2E2E2E2E2E2E2E2E2E2E2E2E2E2E2E2E2BEE2E2F5E2F5F5F5E2F5E2E2BEC3C3C3C3C3C3C3C3C3C3C3C3C3C3C3E2E2C3C3C3C3C3C3C3C3C3C3E2E2BEE2E2E2E2E2E2E2E2E2E2E2E2E2E2C3C3C3
310
C3C3C3C3E2E2E2E2E2E2E2E2E2E2E2E2E2BEE2282828282828282828282828E2E2E2E2BEE2E2E2C3C3C3C3C3C3E2E2BEE2E228E2E2BEE2E2E2E2E2E2E2E2E2E2E2DCE2E2E2E2E2E2DCE2DCDCDCDCE2E2E2E2DCDCDCDCDCDCE2E2E2E2DCDCDCE2DCDCDCDCE2E2DCE2E2E2E2E2E2E2E2E2E2E2E2E2E2E2E2E2BEE2E2F5E2F5F5
310
F5E2E2E2E2BEBEBEBEBEBEBEBEBEBEBEBEBEBEBEBEBEBEBEBEBEBEBEBEBEBEBEBEBEBEBEBEBEBEBEBEBEBEBEBEBEBEBEBEBEBEBEBEBEBEBEBEBEBEBEBEBEBEBEBEBEBEBEBEBEBEE2C3C3C3C3C3C3C3C3C3C3C3C3E2E2E2E2BEBEBEBEBEBEBEBEBEBEBEBEBEE2E2E228E2BEE2E2E2E2E2E2E2E2E2E2E2DCDCDCDCDCDCDCDCDC
310
DCDCDCDCDCDCDCDCDCDCDCDCDCDCDCDCDCDCDCDCDCDCDCDCDCDCDCDCDCE2E2E2E2E2E2E2E2E2E2E2E2E2E2E2E2E2BEE2E2E2E2F5F5F5E2E2E2E2BEC3C3C3C3C3C3C3C3C3C3E2E2E2E2E2E2E2E2E2E2E2E2E2E2E2E2E2E2E2BEE2E2E2E2E2E2E2E2E2E2E2E2E2E2C3C3C3C3E2E2E2E2E2E2E2E2E2E2E2E2E2E2E2E2BEE2C3C3
310
C3C3C3C3C3C3C3C3C3C3E2E2E2E2E2E2E2E2E2E2E2E2C3C3C3C3C3C3E2E228E2BEE2E2E2E2E2E2E2E2E2E2E2DCE2E2E2E2E2E2E2E2E2E2E2E2E2E2E2E2DCDCE2E2E2E2E2E2E2E2DCE2E2E2E2E2E2E2E2E2DCE2E2E2E2E2E2E2E2E2E2E2E2E2E2E2E2E2BEE2E2E2E2F5F5F5E2E2E2E2BEC3C3C3C3C3C3C3C3C3C3E2E2E2E2E2
310
E2E2E2E2E2E2E2E2E2E2E2E2E2E2BEE2E2E2E2E2E2E2E2E2E2E2E2E2E2C3E2C3C3E2E2E2E2E2E2E2E2E2E2E2E2E2E2E2E2BEE2C3C3C3C3C3C3C3C3C3E2E2E2E2E2E2E2E2E2E2E2E2E2E2E2C3C3C3C3C3C3E2282828BEE2E2E2E2E2E2E2E2E2E2E2DCE2E2E2E2DCDCDCDCDCDCDCE2E2E2E2E2DCDCE2DCDCDCDCDCE2E2DCE2DC
310
DCDCDCDCDCDCE2DCE2E2E2E2E2E2E2E2E2E2E2E2E2E2E2E2E2BEE2E2E2E2F5F5F5E2E2E2E2BEBEBEBEBEBEBEBEBEBEBEBEBEBEBEBEBEBEBEBEBEBEBEBEBEBEBEBEBEBEBEBEBEBEBEBEBEBEBEBEBEBEBEBEBEBEBEBEBEBEBEBEBEBEBEBEBEBEBEBEBEBEBEBEBEBEE2C3C3C3C3C3C3C3C3C3E2E2E2E2E2E2E2E2E2E2E2E2E2E2
310
E2C3C3C3C3C3C3E2E2E2E2BEE2E2E2E2E2E2E2E2E2E2E2DCE2E2E2E2DCDCDCDCDCDCDCE2E2E2E2E2DCDCE2DCDCDCDCDCE2E2DCE2DCDCDCDCDCDCDCE2DCE2E2E2E2E2E2E2E2E2E2E2E2E2E2E2E2E2BEE2E2E2E2F5F5F5E2E2E2E2BEC3C3C3C3C3C3C3C3C3C3C3C3E2E2E2E2E2E2E2E2E2E2E2E2E2E2E2E2E2BEE2E2E2E2E2E2
310
E2E2E2E2E2E2E2E2C3C3C3E2E2E2E2E2E2E2E2E2E2E2E2E2E2E2E2E2BEE2C3C3C3C3C3C3C3C3C3C3C3C3E2E2E2E2E2E2E2E2E2E2E2E2E2C3C3C3C3C3E2E2E2E2BEE2E2E2E2E2E2E2E2E2E2E2DCE2E2E2E2E2E2E2E2E2E2E2E2E2E2E2E2DCDCE2E2E2E2E2E2E2E2DCE2E2E2E2E2E2E2E2E2DCE2E2E2E2E2E2E2E2E2E2E2E2E2
310
E2E2E2E2BEE2E2E2E2F5F5F5E2E2E2E2BEC3C3C3C3C3C3C3C3C3C3C3C3E2E2E2E2E2E2E2E2E2E2E2E2E2E2E2E2E2BEE2E2E2E2E2E2E2E2E2E2E2E2E2E2C3E2C3E2E2E2E2E2E2E2E2E2E2E2E2E2E2E2E2E2BEE2C3C3C3C3C3C3C3C3C3C3C3E2E2E2E2E2E2E2E2E2E2E2E2E2E2C3C3C3C3C3E2E2E2E2BEE2E2E2E2E2E2E2E2E2
310
E2E2DCDCDCDCDCDCDCDCDCDCDCDCDCDCDCDCDCDCDCDCDCDCDCDCDCDCDCDCDCDCDCDCDCDCDCDCDCDCE2E2E2E2E2E2E2E2E2E2E2E2E2E2E2E2E2BEE2E2E2E2F5F5F5E2E2E2E2BEBEBEBEBEBEBEBEBEBEBEBEBEBEBEBEBEBEBEBEBEBEBEBEBEBEBEBEBEBEBEBEBEBEBEBEBEBEBEBEBEBEBEBEBEBEBEBEBEBEBEBEBEBEBEBEBEBE
310
BEBEBEBEBEBEBEBEE2E2E2E2E2E2E2E2E2E2E2E2E2E2E2E2E2E2E2E2E2E2E2E2E2E2E2E2E2E2E2E2E2E2E2BEE2E2E2E2E2E2E2E2E2E2E2DCE2E2E2E2DCDCDCDCDCDCDCE2E2E2E2E2DCDCE2E2E2E2E2E2E2E2E2DCDCDCDCDCDCE2E2E2DCE2E2E2E2E2E2E2E2E2E2E2E2E2E2E2E2E2BEE2E2E2E2F5F5F5E2E2E2E2BEC3C3C3C3
310
C3C3C3C3C3C3C3E2E2E2E2E2E2E2E2E2E2E2BEBEBEBEBEE2E2BEE2E2E2E2E2E2E2E2E2E2E2E2E2E2E2E2E2E2E2E2E2E2E2E2E2E2E2E2E2E2E2E2E2E2BEE2E2E2E2E2E2E2E2E2E2E2E2E2E2E2E2E2E2E2E2E2E2E2E2E2E2E2E2E2E2E2E2E2E2E2BEE2E2E2E2E2E2E2E2E2E2E2DCE2E2E2E2DCDCDCDCDCDCDCE2E2E2E2E2DCDC
310
E2E2E2E2E2E2E2E2E2DCDCDCDCDCDCE2E2E2DCE2E2E2E2E2E2E2E2E2E2E2E2E2E2E2E2E2BEE2E2E2E2F5F5F5E2E2E2E2BEC3C3C3C3C3C3C3C3C3C3C3E2E2E2E2E2E2BEBEBEBEBEE2E2E2E2E2E2E2BEE2E2E2E2E2E2E2E2E2E2E2E2E2E2E2E2E2E2E2E2E2E2E2E2E2E2E2E2E2E2E2E2E2E2BEE2C3C3C3C3C3C3C3C3C3C3C3C3
310
E2C3C3C3C3C3C3C3C3C3C3C3C3C3E2C3C3C3C3C3C3E2BEE2E2E2E2E2E2E2E2E2E2E2DCE2DCDCDCDCDCDCE2DCDCDCDCDCDCDCDCDCDCE2E2E2E2E2E2E2E2E2DCDCDCDCDCDCE2E2E2DCE2E2E2E2E2E2E2E2E2E2E2E2E2E2E2E2E2BEE2E2E2E2F5F5F5E2F5E2E2BEC3C3C3C3C3C3C3C3C3C3C3E2BEBEBEBEBEE2E2E2E2E2E2E2E2
310
E2E2E2E2BEE2E2E2E2E2E2E2E2E2E2E2E2E2E2E2E2E2E2E2E2E2E2E2E2E2E2E2E2E2E2E2E2E2E2BEE2C3C3C3C3C3C3C3C3C3C3C3C3E2C3C3C3C3C3C3C3C3C3C3C3C3E2E2C3C3C3C3C3C3E2BEE2E2E2E2E2E2E2E2E2E2E2DCE2DCDCDCDCDCDCE2DCDCDCDCDCDCDCDCDCDCE2E2E2E2E2E2E2E2E2E2E2E2E2E2E2E2E2E2DCE2E2
310
E2E2E2E2E2E2E2E2E2E2E2E2E2E2E2BEE2E2F5E2F5F5F5E2F5E2E2BEE2E2E2E2E2E2E2BEBEBEBEBEE2E2E2E2E2E2C3C3C3C3C3C3C3C3C3C3E2BEE2E2E2E2E2E2E2E2E2E2E2E2E2E2C3C3C3C3C3C3E2E2E2E2E2E2E2E2E2E2E2E2E2E2BEE2C3C3C3C3C3C3C3C3C3C3C3C3E2C3C3C3C3C3C3E2C3C3C3C3C3E2E2C3C3C3C3C3C3
310
E2BEE2E2E2E2E2E2E2E2E2E2E2DCDCDCDCDCDCDCDCDCDCDCDCDCDCDCDCDCDCDCDCDCDCDCDCDCDCDCDCDCDCDCDCDCDCDCDCDCDCE2E2E2E2E2E2E2E2E2E2E2E2E2E2E2E2E2BEE2E2F5E2F5F5F5E2F5E2E2BEE2E2BEBEBEBEBEE2E2E2E2E2E2E2E2E2E2E2C3C3C3C3C3C3C3C3C3C3E2BEE2E2E2E2E2E2E2E2E2E2E2E2E2E2C3C3
310
C3C3C3C3E2E2E2E2E2E2E2E2E2E2E2E2E2E2BEE2E2E2E2E2E2E2E2E2E2E2E2E2E2E2E2E2E2E2E2E2E2E2E2E2E2E2E2E2E2E2E2E2E2E2BEE2E2E2E2E2E2E2E2E2E2E2E2E2E2E2E2E2E2E2E2E2E2E2E2E2E2E2E2E2E2E2E2E2E2E2E2E2E2E2E2E2E2E2E2E2E2E2E2E2E2E2E2E2E2E2E2E2E2E2E2E2E2E2E2E2E2BEE2E2F5E2F5
310
F5F5E2F5E2E2BEBEBEBEBEBEBEBEBEBEBEBEBEBEBEBEBEBEBEBEBEBEBEBEBEBEBEBEBEBEBEBEBEBEBEBEBEBEBEBEBEBEBEBEBEBEBEBEBEBEBEBEBEBEBEBEBEBEBEBEBEBEBEBEBEBEBEBEBEBEBEBEBEBEBEBEBEBEBEBEBEBEBEBEBEBEBEBEBEBEBEBEBEBEBEBEBEBEBEBEBEBEBEBEBEBEBEBEBEBEBEBEBEBEBEBEBEBEBEBEBE
310
BEBEBEBEBEBEBEBEBEBEBEBEBEBEBEBEBEBEBEBEBEBEBEBEBEBEBEBEBEBEBEBEBEBEBEBEBEBEBEBEBEBEBEBEBEBEBEBEE2E2F5E2F5F5F5E2F5E2E2BEE2E2E2E2E2E2E2E2E2E2E2E2E2E2E2E2E2E2E2E2E2E2E2E2E2E2E2E2E2E2E2E2E2E2E2E2E2E2E2E2E2E2E2E2E2E2E2E2E2E2E2E2E2E2E2E2E2E2E2E2E2E2E2E2E2E2E2
310
E2E2E2E2E2E2E2E2E2E2E2E2E2E2E2E2E2E2E2E2E2E2E2E2E2E2E2E2E2E2E2E2E2E2E2E2E2E2E2E2E2E2E2E2E2E2E2E2E2E2E2E2E2E2E2E2E2E2E2E2E2E2E2E2E2E2E2E2E2E2E2E2E2E2E2E2E2E2E2E2E2E2E2E2E2E2E2E2E2E2E2E2E2E2E2E2E2E2E2E2BEE2E2F5E2F5F5F5E2F5E2E2BEE2E2E2E2E2E2E2E2E2E2E2E2E2E2
310
E2E2E2E2E2E2E2E2E2E2E2E2E2E2E2E2E2E2E2E2E2E2E2E2E2E2E2E2E2E2E2E2E2E2E2E2E2E2E2E2E2E2E2E2E2E2E2E2E2E2E2E2E2E2E2E2E2E2E2E2E2E2E2E2E2E2E2E2E2E2E2E2E2E2E2E2E2E2E2E2E2E2E2E2E2E2E2E2E2E2E2E2E2E2E2E2E2E2E2E2E2E2E2E2E2E2E2E2E2E2E2E2E2E2E2E2E2E2E2E2E2E2E2E2E2E2E2
310
E2E2E2E2E2E2E2E2E2E2E2E2E2E2E2E2E2E2E2E2E2E2E2E2E2E2BEE2E2F5E2F5F5F5E2F5E2E2BEE2E2E2E2E2E2E2E2E2E2E2E2E2E2E2E2E2E2E2E2E2E2E2E2E2E2E2E2E2E2E2E2E2E2E2E2E2E2E2E2E2E2E2E2E2E2E2E2E2E2E2E2E2E2E2E2E2E2E2E2E2E2E2E2E2E2E2E2E2E2E2E2E2E2E2E2E2E2E2E2E2E2E2E2E2E2E2E2
310
E2E2E2E2E2E2E2E2E2E2E2E2E2E2E2E2E2E2E2E2E2E2E2E2E2E2E2E2E2E2E2E2E2E2E2E2E2E2E2E2E2E2E2E2E2E2E2E2E2E2E2E2E2E2E2E2E2E2E2E2E2E2E2E2E2E2E2E2E2E2E2E2E2E2E2E2E2E2E2BEE2E2F5E2F5F5F5E2F5E2E2BEE2E2E2E2E2E2E2E2E2E2E2E2E2E2E2E2E2E2E2E2E2E2E2E2E2E2E2E2E2E2E2E2E2E2E2
310
E2E2E2E2E2E2E2E2E2E2E2E2E2E2E2E2E2E2E2E2E2E2E2E2E2E2E2E2E2E2E2E2E2E2E2E2E2E2E2E2E2E2E2E2E2E2E2E2E2E2E2E2E2E2E2E2E2E2E2E2E2E2E2E2E2E2E2E2E2E2E2E2E2E2E2E2E2E2E2E2E2E2E2E2E2E2E2E2E2E2E2E2E2E2E2E2E2E2E2E2E2E2E2E2E2E2E2E2E2E2E2E2E2E2E2E2E2E2E2E2E2E2E2E2E2E2E2
310
E2E2E2E2E2BEE2E2F5E2F5F5F5E2F5E2E2BEE2E2E2E2E2E2E2E2E2E2E2E2E2E2E2E2E2E2E2E2E2E2E2E2E2E2E2E2E2E2E2E2E2E2E2E2E2E2E2E2E2E2E2E2E2E2E2E2E2E2E2E2E2E2E2E2E2E2E2E2E2E2E2E2E2E2E2E2E2E2E2E2E2E2E2E2E2E2E2E2E2E2E2E2E2E2E2E2E2E2E2E2E2E2E2E2E2E2E2E2E2E2E2E2E2E2E2E2E2
310
E2E2E2E2E2E2E2E2E2E2E2E2E2E2E2E2E2E2E2E2E2E2E2E2E2E2E2E2E2E2E2E2E2E2E2E2E2E2E2E2E2E2E2E2E2E2E2E2E2E2E2E2E2E2E2E2E2E2BEE2E2F5E2F5F5F5E2F5E2E2BEE2E2E2E2E2E2E2E2E2E2E2E2E2E2E2E2E2E2E2E2E2E2E2E2E2E2E2E2E2E2E2E2E2E2E2E2E2E2E2E2E2E2E2E2E2E2E2E2E2E2E2E2E2E2E2E2
310
E2E2E2E2E2E2E2E2E2E2E2E2E2E2E2E2E2E2E2E2E2E2E2E2E2E2E2E2E228C3C3C3C3C3C3C3C3C3C3C328E2E2E2E2E2E2E2E2E2E2E2E2E2E2E2E2E2E2E2E2E2E2E2E2E2E2E2E2E2E2E2E2E2E2E2E2E2E2E2E2E2E2E2E2E2E2E2E2E2E2E2E2E2E2E2E2E2E2E2E2E2E2E2E2E2E2E2E2E2BEE2E2F5E2F5F5F5E2F5E2E2BEE2E2E2
310
E2E2E2E2E2E2E2E2E2E2E2E2E2E2E2E2E2E2E2E2E2E2E2E2E2E2E2E2E2E2E2E2E2E2E2E2E2E2E2E2E2E2E2E2E2E2E2E2E2E2E2C3C328E2E2E2E2E2E2E2E2E2E2E2E2E2E2E2E2E2E2E2E2E2E2E2E2E2BEBE28E2C3C3C3C3C3C3C3C3C3C3C3E2E2E2E2E2E2E2E2E2E2E2E2E2E2E2E2E2E2E2E2E2E2E2E2E2E2E2E2E2E2E2E2E2
310
E2E2E2E2E2E2E2E2E2E2E2E2E2E2E2E2E2E2E2E2E2E2E2E2E2E2E2E2E2E2E2E2E2E2E2E2E2BEE2E2F5E2F5F5F5E2F5E2E2BEE2E2E2E2E2E2E2E2E2E2E2E2E2E2E2E2E2E2E2E2C3C3C3C3C3C3C3C3C3C3C3C3C3E2E2E2E2E2E2E2E2E2E2E2E2E2E2E2E2E2E2E2E2E2C3C328E2E2E228E2E2E2E2E2E2E2E2E2E2E2E2E2E2E2E2
310
E2E2E2E2BEBEBE28E2C3C3C3C3C3C3C3C3C3C3C3C3C3E2E2E2E2E2E2E2E2E2E2E2E2E2E2E2E2E2E2E2E2E2E2E2E2E2E2E2E2E2E2E2E2E2E2E2E2E2E2E2E2E2E2E2E2E2E2E2E2E2E2E2E2E2E2E2E2E2E2E2E2E2E2E2E2E2E2E2E2BEE2E2F5E2F5F5F5E2F5E2E2BEE2E2E2E2E2E2E2E2E2E2E2E2E2E2E2E2E2E2E2E2C3C3C3C3
310
C3C3C3C3C3C3C3C3C3E2E2E2E2E2E2E2E2E2E2E2E2E2E2E2E2E2E2E2E2E2C3C328C3C3E228E2E2E2E2E2E2E2E2E2E2E2E2E2E2E2E2E2E2E2E2BEBE28BEE2C3C3C3C3C3C3C3C3C3C3C3C3C3E2E2E2E2E2E2E2E2E2E2E2E2E2E2E2E2E2E2E2E2E2E2E2E2E2E2E2E2E2E2E2E2E2E2E2E2E2E2E2E2E2E2E2E2E2E2E2E2E2E2E2E2
310
E2E2E2E2E2E2E2E2E2E2E2E2E2E2E2E2BEE2E2F5E2F5F5F5E2F5E2E2BEE2E2E2E2E2E2E2E2E2E2E2E2E2E2E2E2E2E2E22828282828282828282828282828E2E2E2E2E2E2E2E2E2E2E2E2E2E2E2E2E2E2E2E2C3C3C328C3C3E228E2E2E2E2E2E2E2E2E2E2E2E2E2E2E2E2E2E2E2E2E2BE28E2E2E2E2E2E2E2E2E2E2E2E2C3C3
310
C3C3C3C3C3C3C3C3E2E2E2E2E2E2E2E2E2E2E2E2E2E2E2E2E2E2E2E2E2BEBEE2E2E2E2E2E2E2E2E2E2E2E2E2E2E2E2E2E2E2E2E2E2E2E2E2E2E2E2E2E2E2E2E2E2E2E2E2E2BEE2E2F5E2F5F5F5E2F5E2E2BEE2E2E2E2E2E2E2E2E2E2E2E2E2E2E2E2E2E2E2E22828C3C3C3C3C3C3C3E2E2E2BEBEBEBEE2E2E2E2E2E2E2E2E2
310
E2E2E2E2E2E2E2E2C3C3C3C3C3C3E228E2E2E2E2E2E2E2E2E2E2E2E2E2E2E2E2E2E2E2E2E2BEBEE2E2E2E2E2E2E2E2E2E2E2E2C3C3C3C3C3C3C3C3C3C3E2E2E2E2E2E2E2E2E2E2E2E2E2E2E2E2E2E2E2E2E2E2BEBEBEE2E2E2E2E2E2E2E2E2E2E2E2E2E2E2E2E2E2E2E2E2E2E2E2E2E2E2E2E2E2E2E2E2E2E2E2BEE2E2F5E2
310
F5F5F5E2F5E2E2BEE2E2E2E2E2E2E2E2E2E2E2E2E2E2E2E2E2E2E2E2E2E228E2E2E2E2E2E2E2E2E2E2BEBEE2E2E2E2E2E2E2E2E2E2E2E2E2E2E2E2E2E2E2E2C328E2C3E228E2E2E2E2E2E2E2E2E2E2E2E2E2E2E2E2E2E2E2E2E2BEBEE2E2E2E2E2E2E2E2E2E2E2E2C3C3C3C3C3C3C3C3C3C3C3C3C3C3C3C3E2E2E2E2E2E2E2
310
E2E2E2E2E2E2E2E2E2BEE2E2E2E2E2E2E2E2E2E2E2E2E2E2E2E2E2E2E2E2E2E2E2E2E2E2E2E2E2E2E2E2E2E2E2E2E2E2BEE2E2F5E2F5F5F5E2E2E2E2BEE2E2E2E2E2E2E2E2E2E2E2E2E2E2E2E2E2E2E2E2E2E2E228E2E2E2E2E2E2E2E2E2BEBEE2E2E2E2E2E2E2E2E2E2E2E2E2E2E2E2E2E2E2E2C328E2C3E228E2E2E2E2E2
310
E2E2E2E2E2E2E2E2E2E2E2E2E2E2E2E2BEBEE2E2E2E2E2E2E2E2E2E2E2E2C3C3C3C3C3C3C3C3C3C3C3C3C3C3C3C3E22828282828E2E2E2E2E2E2E2E2E2E2BEE2E2E2E2E2E2E2E2E2E2E2E2E2E2E2E2E2E2E2E2E2E2E2E2E2E2E2E2E2E2E2E2E2E2E2E2E2E2BEE2E2E2E2F5F5F5E2E2E2E2BEE2E2E2E2E2E2E2E2E2E2E2E2E2
310
E2E2E2E2E2E2E2E2E2E2E22828BEBEBEBEBEBEBEECBEBEBEBEBEBEBEE2E2E2E2E2E2E2E2E2E2E2E2E2E2E228E2C3E22828282828282828282828E2BEBEBEBEBEBEBEBEBEBEBEBEBEBEE2E2E2E2E2E2E2E2E2E2E2E2E2E2E2E2E2E2E2E2E2E2E2E2E2E2E2E2E2E2E2E228E2E2BEBEBEBEBEBEBEBEBEBEBEBEBEBEBEE2E2E2E2
310
E2E2E2E2E2E2E2E2E2E2E2E2E2E2E2E2E2E2E2E2E2E2E2E2E2E2E2BEE2E2E2E2F5F5F5E2E2E2E2BEE2E2E2E2E2E2E2E2E2E2E2E2E2E2E2E2E2E2E2E2E2E2E2E2E2BEBEECE2E2E2E2E2ECE2E2E2E2E2BEBEBEE2E2E2E2E2E2E2E2E2E2E2E2E2E228E2E2E228C3C3C328C3C328C3C3282828E2E2E2E2BEBEBEBEE2E2E2BEBEE2
310
E2E2E2E2E2E2E2E2E2C3C3C3C3C3C3C3C3C3C3C3C3C3E2E2E2E2E2E2E2E2E228E2BEBEBEBEE2E2E2E2ECE2E2E2E2BEECBEBEE2E2E2E2E2E2E2E2E2E2E2E2E2E2E2E2E2E2E2E2E2E2E2E2E2E2E2E2E2E2BEE2E2E2E2F5F5F5E2E2E2E2BEE2E2E2E2E2E2E2E2E2E2E2E2E2E2E2E2E2E2E2E2E2E2E2E2E2BEBEECBEE2E2E2E2EC
310
E2E2E2E2BEBEBEBEE2E2E2E2E2E2E2E2E2E2E2E2E2E228E2E2E228E2C3E228E2E228E2E22828BEE2E2E2E2BEE2E2BEE2E2E2ECECECECE2E22828282828E2C3C3C3C3C3C3C3C3C3C3C3C3C3E2E2E2E2E2E2E2E2E2E228BEBEECBEE2E2E2E2ECE2E2E2E2BEECECBEE2E2E2E2E2E2E2E2E2E2E2E2E2E2E2E2E2E2E2E2E2E2E2E2
310
E2E2E2E2E2E2BEE2E2E2E2F5F5F5E2E2E2E2BEE2E2E2E2E2E2E2E2E2E2E2E2E2E2E2E2E2E2E2E2E2E2E2E2E2BEBEBEBEE2E2E2E2ECE2E2E2E2BEBEBEBEE2E2E2E2E2E2E2E2E2E2E2E2E2E228E2E2E22828282828282828282828E2BEE2E2E2E2BEBEBEBEE2E2E2BEBEE2E2E2E228E2E2E2E2E2C3C3C3C3C3C3C3C3C3C3E2E2
310
E2E2E2E2E2E2E2E2E2E2E2E2BEECBEBEE2E2E2E2ECE2E2E2E2BEECBEBEE2E2E2E2E2E2E2E2E2E2E2E2E2E2E2E2E2E2E2E2E2E2E2E2E2E2E2E2E2E2BEE2E2E2E2F5F5F5E2E2E2E2BEE2E2E2E2E2E2E2E2E2E2E2E2E2E2E2E2E2E2E2E2E2E2E2E2E2BEBEBEBEE2E2E2E2BEBEE2E2E2BEBEBEBEE2E2E2E2E2E2E2E2E2E2E2E2E2
310
E228282828282828282828282828282828BEE2E2E2BEBEE2E2BEBEE2E2E2BEE2E2E2E228E2E2E2E2E2C3C3C3C3C3C3C3C3C3C3E2E2E2E2E2E2E2E2E2E2E2E2E2E2BEBEBEE2E2E2E2E2ECE2E2E2E2E2BEBEBEE2E2E2E2E2E2E2E2E2E2E2E2E2E2E2E2E2E2E2E2E2E2E2E2E2E2E2E2E2E2BEE2E2E2E2F5F5F5E2E2E2E2BEE2E2
310
E2E2E2E2E2E2E2E2E2E2E2E2E2E2E2E2E2E2E2E2E2E2E2BEE2E2E2E2E2BEBEECE2BEBEE2E2E2E2BEE2E2E2E2E2E2E2E2E2E2E2E2E2E22828E2E228E2E2E2E2E2E2E2E2E2E2E2BEE2E2E2BEE2E2E2E2BEE2E2E2BEE2E2E228E2E2E2E2E228E2E2E2E2E2E2E2E2E2E2E2E2E2E2E2E2E2E2E2E2E2E2E2E2BE28E2E2E2E2ECECEC
310
ECECE2E2E2E2E2BEE2E2E2E2E2E2E2E2E2E2E2E2E2E2E2E2E2E2E2E2E2E2E2E2E2E2E2E2E2E2BEE2E2E2E2F5F5F5E2E2E2E2BEE2E2E2E2E2E2E2E2E2E2E2E2E2E2E2E2E2E2E2E2E2E2E2E2E2BEE2E2E2BEBEE2E2ECE2E2E2BEE2E2E2BEE2E2E2E2E2E2E2E2E2E2E2E2E2E228E2E22828E2E2E2E2E2E2E2E2E2E2E2BEE2E2E2
310
BEE2E2E2E2BEE2E2E2BEE2E2E228E2E2E2E2E22828E2E2E2E2E2E2E2E2E2E2E2E2E2E2E2E2E2E2E2E2E2E2E2BEE228E2E2ECECE2ECE2E2ECE2E2E2E2BEE2E2E2E2E2E2E2E2E2E2E2E2E2E2E2E2E2E2E2E2E2E2E2E2E2E2E2E2E2E2BEE2E2E2E2F5F5F5E2F5E2E2BEE2E2E2E2E2E2E2E2E2E2E2E2E2E2E2E2E2E2E2E2E2E2E2
310
E2E2BEE2E2E2BEE2E2E2ECE2E2E2BEE2E2E2BEE2E2E2E2E2E2E2E2E2E2E2E2E2E228E2E2E228E2E2E2E2E2E2E2E2E2E2E2BEE2E2E2BEE2E2E2E2BEE2E2E2BEE2E22828E2E2E2E2E22828E2E2E2E2E2E2E2E2E2E2E2E2E2E2E2E2E2E2E2E2E2E2E2BEE2E228ECE2E2E2ECE2E2ECECE2E2E2BEE2E2E2E2E2E2E2E2E2E2E2E2E2
310
E2E2E2E2E2E2E2E2E2E2E2E2E2E2E2E2E2BEE2E2F5E2F5F5F5E2F5E2E2BEE2E2E2E2E2E2E2E2E2E2E2E2E2E2E2E2E2E2E2E2E2E2E2E2E2BEE2E2E2BEE2E2BEBEBEE2E2E2BEE2E2BEE2E2E2E2E2E2E2E2E2E2E2E2E2E228E2E2282828BEBEBEBEBEBEBEBEBEBEBEE2E2E2BEE2E2E2E2BEE2E2E2BEBEBE2828BEBE2828282828
310
E2E2E2E2E2E2E2E2E2E2E2E2E2E2E2E2E2E2E2E2E2E2E2BEE2E228BEE2E2BEBEBEE2E2BEE2E2E2BEE2E2E2E2E2E2E2E2E2E2E2E2E2E2E2E2E2E2E2E2E2E2E2E2E2E2E2E2E2E2BEE2E2F5E2F5F5F5E2F5E2E2BEE2E2E2E2E2E2E2E2E2E2E2E2E2E2E2E2E2E2E2E2E2E2E2E2ECBEECECECBEECECBEECBEECECECBEECECBEECE2
310
E2E2E2E2E2E2E2E2E2E2E2E228E2E2E228ECBEECECECECECECECECECBEECECECBEECECECECBEECECECBEECEC28ECECBEE2E2E228E2E2E2E2E2E2E2E2E2E2E2E2E2E2E2E2E2E2E2E2E2E2E2ECBEECEC28BEECECBEBEBEEC28BEECECECBEECE2E2E2E2E2E2E2E2E2E2E2E2E2E2E2E2E2E2E2E2E2E2E2E2E2E2E2E2E2BEE2E2F5
310
E2F5F5F5E2F5E2E2BEE2E2E2E2E2E2E2E2E2E2E2E2E2E2E2E2E2E2E2E2E2E2E2E2E2BEE2E2E2BEE2E2E2BEE2E2E2E2BEE2E2BEE2E2E2E2E2E2E2E2E2E2E2E2E2E228E2E2282828BEBEBEBEBEBE2828BEBEBEE2E2E2BEE2E2E2E2BEE2E2E2BEBEBEBEBEBEBE2828282828E2E2E2E2E2E2E2E2E2E2E2E2E2E2E2E2E2E2E2E2E2
310
E2E2BEE2E2E2ECE2E2E2BEE2E2E2EC28E2E2BEE2E2E2E2E2E2E2E2E2E2E2E2E2E2E2E2E2E2E2E2E2E2E2E2E2E2E2E2E2E2BEE2E2F5E2F5F5F5E2F5E2E2BEE2E2E2E2E2E2E2E2E2E2E2E2E2E2E2E2E2E2E2E2E2E2E2E2E2BEE2E2E2BEE2E2E2ECE2E2E2BEE2E2E2BEE2E2E2E2E2E2E2E2E2E2E2E2E2E228E2E22828E228E2E2
310
E2E2E2E228E2E2BEE2E2E2BEE2E2E2E2BEE2E2E2BEE2E2E2E2E228E2E2E22828E2E2E2E2E2E2E2E2E2E2E2E2E2E2E2E2E2E2E2E2E2E2E2BEE2E2E2ECE2E2E2ECE2E2EC2828E2E2BEE2E2E2E2E2E2E2E2E2E2E2E2E2E2E2E2E2E2E2E2E2E2E2E2E2E2E2E2E2E2BEE2E2F5E2F5F5F5E2F5E2E2BEE2E2E2E2E2E2E2E2E2E2E2E2
310
E2E2E2E2E2E2E2E2E2E2E2E2E2BEE2E2E2E2BEE2E2ECE2E2E2BEE2E2E2BEE2E2E2E2E2E2E2E2E2E2E2E2E2E22828E2E228E228E2E2E2E2E2E228E2E2BEE2E2E2BEE2E2E2E2BEE2E2E2BEE2E2E2E2E228E2E2E228E2E2E2E2E2E2E2E2E2E2E2E2E2E2E2E2E2E2E2E2E2E2E2E2BEE2E2E228ECECECECE2ECE228E228E2BEE2E2
310
E2E2E2E2E2E2E2E2E2E2E2E2E2E2E2E2E2E2E2E2E2E2E2E2E2E2E2E2BEE2E2F5E2F5F5F5E2F5E2E2BEE2E2E2E2E2E2E2E2E2E2E2E2E2E2E2E2E2E2E2E2E2E2E2E2E2BEE2BEBEE2E2BEBEBEBEBEBEE2E2BEBEBEE2E2E2E2E2E2E2E2E2E2E2E2282828282828282828282828282828282828BEE2E2E2BEE2E2E2E2BEE2E2E2BE
310
E2E2E2E2E228E2E2E228E2E2E2E2E2E2E2E2E2E2E2E2E2E2E2E2E2E2E2E2E2E2E2E2BEBEE2E228E2E2E2ECECE2E228E2BEBEBEE2E2E2E2E2E2E2E2E2E2E2E2E2E2E2E2E2E2E2E2E2E2E2E2E2E2E2E2E2E2BEE2E2F5E2F5F5F5E2F5E2E2BEE2E2E2E2E2E2E2E2E2E2E2E2E2E2E2E2E2E2E2E2E2E2E2E2E2BEBEBEBEE2E2E2E2
310
ECE2E2E2E2BEE2BEBEE2E2E2E2E2E2E2E2E2E2E2E228C328E2E2E228E228E2E2E2E228282828E2BEE2E2E2E2BEBEBEBEE2E2E2BEBEE2E2E2E2E228E2E2E228E2E2E2E2E2E2E2E2E2E2E2E2E2E2E2E2E2E2E2E2E2E2E2E2BEECBEBE28E2E2E2ECE2E2E228BEECBEBEE2E2E2E2E2E2E2E2E2E2E2E2E2E2E2E2E2E2E2E2E2E2E2
310
E2E2E2E2E2E2E2BEE2E2F5E2F5F5F5E2F5E2E2BEE2E2E2E2E2E2E2E2E2E2E2E2E2E2E2E2E2E2E2E2E2E2E2E2E2BEECECBEE2E2E2E2ECE2E2E2E2BEBEECBEE2E2E2E2E2E2E2E2E2E2E2E228C328E2E2E228E228E2E2E2E228C3C328E2BEE2E2E2E2BEE2E2BEE2E2E2BEECECECE2E2E228E2C3C328E2E2E2E2E2E2E2E2E2E2E2
310
E2E2E2E2E2E2E2E2E2E2E2E2E2BEECECBE28E2E2E2ECE2E2E228BEECECBEE2E2E2E2E2E2E2E2E2E2E2E2E2E2E2E2E2E2E2E2E2E2E2E2E2E2E2E2E2E2BEE2E2F5E2F5F5F5E2F5E2E2BEE2E2E2E2E2E2E2E2E2E2E2E2E2E2E2E2E2E2E2E2E2E2E2E2E228BE28E2E2E2E2E2ECE2E2E2E2E2BEBE28E2E2E2E2E2E2E2E2E2E2E2E2
310
28C328E2E2E228E228E2E2E2E228E2E228E2BEE2E2E2E2BEBEBEBEE2E2E2BEBEE2E2E2E2E228E2C3C328E2E2E2E2E2E2E2E2E2E2E2E2E2E2E2E2E2E2E2E2E2E2E2E2BEECBEBE28E2E2E2ECE2E2E228BEECBEBEE2E2E2E2E2E2E2E2E2E2E2E2E2E2E2E2E2E2E2E2E2E2E2E2E2E2E2E2E2E2BEE2E2F5E2F5F5F5E2F5E2E2BEE2
310
E2E2E2E2E2E2E2E2E2E2E2E2E2E2E2E2E2E2E2E2E2E2E2E228BEBEBEBEBEBEBEECBEBEBEBEBEBE2828E2E2E2E2E2E2E2E2E2E2E2E228C32828282828E228E2E2E2E228282828E2BEBEBEBEBEBEBEBEBEBEBEBEBEBEE2E2E2E2E228C3C3C328E2E2E2E2E2E2E2E2E2E2E2E2E2E2E2E2E2E2E2E2E2E2E2E2E2BEBEBEBEBEBEBE
310
BEBEBEBEBEBEBEBE28E2C3C3C3C3C3C3C3C3C3C3C3E2E2E2E2E2E2E2E2E2E2E2E2E2E2E2E2E2E2BEE2E2F5E2F5F5F5E2F5E2E2BEE2E2E2E2E2E2E2E2E2E2E2E2E2E2E2E2E2E2E2E2E2E2E2E2E228E228E2E2E2E2E2E2E2E2E2E2E2E22828E2E2E2E2E2E2E2E2E2E2E2E228C32828C3C328E228E2E2E2E2E2E2E2E2E228E2E2
310
E2E2E2E2E2E2E2E2E2E228E2E2E2E2E228C3C3C328E2E2E2E2E2E2E2E2E2E2E2E2E2E2E2E2E2E2E2E2E2E2E2E2E2E2E2E228E2E2E2E2E2E2E228E2E2E2E228C3C3C3C3C3C3C3C3C3C3C3E2E2E2E2E2E2E2E2E2E2E2E2E2E2E2E2E2E2BEE2E2F5E2F5F5F5E2F5E2E2BEE2E2E2E2E2E2E2E2E2E2E2E2E2E2E2E2E2E2E2E2E2E2
310
E2E2E228E228282828C3C3C3C3C3282828282828E2E2E2E2E2E2E2E2E2E2E2E228C32828C3E228E228E2E2E2E2C3C328282828282828E2E2E2E2E2E2E2E2E228E2E2E2E2E228E2E2C328E2E2E2E2E2E2E2E2E2E2E2E2E2E2E2E2E2E2E2E2E2E2E2E2E2E2E2E22828C3C3C3C3282828E2E2E2E228C3C3C3C3C3C3C3C3C3C328
310
E2E2E2E2E2E2E2E2E2E2E2E2E2E2E2E2E2E2BEE2E2F5E2F5F5F5E2F5E2E2BEE2E2E2E2E2E2E2E2E2E2E2E2E2E2E2E2E2E2E2E2E2E2E2E2E228E228E2C3C3C3C3C3C3C3E2E2E2E22828E2E2E2E2E2E2E2E2E2E2E2E228C32828282828E228E2E2E2E2C3C3E2E2E228E2E2E2E2E2E2E2E2E2E2E2E228E2E2E2E2E228E2E2C328
310
E2E2E2E2E2E2E2E2E2E2E2E2E2E2E2E2E2E2E2E2E2E2E2E2E2E2E2E228E2C3C3C3C3E2E228E2E2E2E2E2C3C3C3C3C3C3C3C3C3C3E2E2E2E2E2E2E2E2E2E2E2E2E2E2E2E2E2E2E2BEE2E2F5E2F5F5F5E2F5E2E2BEE2E2E2E2E2E2E2E2E2E2E2E2E2E2E2E2E2E2E2E2E2E2E2E2E22828E2E2C3C3E2E2E2E2E2E2E2E2E22828E2
310
E2E2E2E2E2E2E2E2E2E2E228C32828C3E228E228E2E2E2E2E2E2E2E2E228E2E2E2E2E2E2E2E2E2E2E2E228E2E2E2E2E228E2E2E228E2E2E2E2E2E2E2E2E2E2E2E2E2E2E2E2E2E2E2E2E2E2E2E2E2E2E2E2E2E2E2E2E2E2E2E2E2E2E2E2E2E2E2E2E2E2E2E2E2E2E2E2E2E2E2E2E2E2E2E2E2E2E2E2E2E2E2E2E2E2E2BEE2E2
310
F5E2F5F5F5E2F5E2E2BEE2E2E2E2E2E2E2E2E2E2E2E2E2E2E2E2E2E2E2E2E2E2E2E2E22828282828C3C3C3C3C328282828282828E2E2E2E2E2E2E2E2E2E2E2E228C32828C3E228E2282828C3C3C3C328282828282828C3C3C3C3C32828282828C3C3C3C3C328E2E2E228E2E2E2E2E2E2E2E2E2E2E2E2E2E2E2E2E2E2E2E2E2
310
E2E2E2E2E2E2E2E2E2E2E2E2E2E2E2E2E2E2E2E2E2E2E2E2E2E2E2E2E2E2E2E2E2E2E2E2E2E2E2E2E2E2E2E2E2E2E2E2E2E2BEE2E2F5E2F5F5F5E2E2E2E2BEE2E2E2E2E2E2E2E2E2E2E2E2E2E2E2E2E2E2E2E2E2E2E2E2E2E2E2E2E2E2C3C3C3C3C3E2E2E2E2E2E2E2E2E2E2E2E2E2E2E2E2E2E2E228C32828C3E228E2E2E2
310
E2C3C3C3C3E2E2E2E2E2E2E2C3C3C3C3C3E2E2E2E2E2C3C3C3C3C3E2E2E2E2E2E2E2E2E2E2E2E2E2E2E2E2E2E2E2E2E2E2E2E2E2E2E2E2E2E2E2E2E2E2E2E2E2E2E2E2E2E2E2E2E2E2E2E2E2E2E2E2E2E2E2E2E2E2E2E2E2E2E2E2E2E2E2E2E2E2E2E2E2E2E2E2BEE2E2E2E2F5F5F5E2E2E2E2BEE2E2E2E2E2E2E2E2E2E2E2
310
E2E2E2E2E2E2E2E2E2E2E2E2E2E2E2E2E2E2E2E2E2E2E2E2E2E2E2E2E2E2E2E2E2E2E2E2E2E2E2E2E2E2E228E22828E2E228E2E2E2E2E2E2E2E2E2E2E2E2E2E2E2E2E2E2E2E2E2E2E2E2E2E2E2E2E2E2E2E2E2E2E2E2E2E2E2E2E2E2E2E2E2E2E2E2E2E2E2E2E2E2E2E2E2E2E2E2E2E2E2E2E2E2E2E2E2E2E2E2E2E2E2E2E2
310
E2E2E2E2E2E2E2E2E2E2E2E2E2E2E2E2E2E2E2E2E2E2E2E2E2E2E2E2E2BEE2E2E2E2F5F5F5E2E2E2E2BEE2E2E2E2E2E2E2E2E2E2E2E2E2E2E2E2E2E2E2E2E2E2E2E2E2E2E2E2E2E2E2E2E2E2E2E2E2E2E2E2E2E2E2E2E2E2E2E2E2E2E2E2E2E228282828282828E2E2E2E2E2E2E2E2E2E2E2E2E2E2E2E2E2E2E2E2E2E2E2E2
310
E2E2E2E2E2E2E2E2E2E2E2E2E2E2E2E2E2E2E2E2E2E2E2E2E2E2E2E2E2E2E2E2E2E2E2E2E2E2E2E2E2E2E2E2E2E2E2E2E2E2E2E2E2E2E2E2E2E2E2E2E2E2E2E2E2E2E2E2E2E2E2E2E2E2E2E2E2E2E2E2E2E2BEE2E2E2E2F5F5F5E2E2E2E2BEE2E2E2E2E2E2E2E2E2E2E2E2E2E2E2E2E2E2E2E2E2E2E2E2E2E2E2E2E2E2E2E2
310
E2E2E2E2E2E2E2E2E2E2E2E2E2E2E2E2E2E2E2E2E2E2E2E2E2E2E2E2E2E2E2E2E2E2E2E2E2E2E2E2E2E2E2E2E2E2E2E2E2E2E2E2E2E2E2E2E2E2E2E2E2E2E2E2E2E2E2E2E2E2E2E2E2E2E2E2E2E2E2E2E2E2E2E2E2E2E2E2E2E2E2E2E2E2E2E2E2E2E2E2E2E2E2E2E2E2E2E2E2E2E2E2E2E2E2E2E2E2E2E2E2E2E2E2E2E2E2
310
E2E2E2E2E2E2E2E2BEE2E2E2E2F5F5F5E2E2E2E2BEE2E2E2E2E2E2E2E2E2E2E2E2E2E2E2E2E2E2E2E2E2E22828282828282828282828282828282828282828282828E2E2E2E2E2E2E2E2E2E2E2E2E2E2E2E2E2E2E2E2E2E2E2E2E2E2E2E2E2E2282828282828282828E2E2E2E2E2E2E2E2E2E2E2E2E2E2E2E2E2E2E2E2E2E2
310
E2E2E2E2E2E2E2E2E2E2E2E2E2E2E2E2E228282828282828282828E2E2E2E2E2E2E2E2E2E2E2E2E2E2E2E2E2E2E2E2E2E2E2E2E2E2E2E2E2E2E2E2E2E2BEE2E2E2E2F5F5F5E2E2E2E2BEE2E2E2E2E2E2E2E2E2E2E2E2E2E2E2E2E2E2E2E2E2E22828282828282828282828282828282828282828282828E2E2E2E2E2E2E2E2
310
E2E2E2E2E2E2E2E2E2E2E2E2E2E2E2E2E2E2E2E2E2E2282828282828282828E2E2E2E2E2E2E2E2E2E2E2E2E2E2E2E2E2E2E2E2E2E2E2E2E2E2E2E2E2E2E2E2E2E2E2E2E2E2E228282828282828282828E2E2E2E2E2E2E2E2E2E2E2E2E2E2E2E2E2E2E2E2E2E2E2E2E2E2E2E2E2E2E2E2E2E2BEE2E2E2E2F5F5F5E2E2E2E2BE
310
E2E2E2E2E2E2E2E2E2E2E2E2E2E2E2E2E2E2E2E2E2E2E2E2E2E2E2E2E2E2E2E2E2E2E2E2E2E2E2E2E2E2E2E2E2E2E2E2E2E2E2E2E2E2E2E2E2E2E2E2E2E2E2E2E2E2E2E2E2E2E2E2E2E2E2E2E2E2E2E2E2E2E2E2E2E2E2E2E2E2E2E2E2E2E2E2E2E2E2E2E2E2E2E2E2E2E2E2E2E2E2E2E2E2E2E2E2E2E2E2E2E2E2E2E2E2E2
310
E2E2E2E2E2E2E2E2E2E2E2E2E2E2E2E2E2E2E2E2E2E2E2E2E2E2E2E2E2E2E2E2E2E2E2E2E2E2E2E2BEE2E2E2E2F5F5F5E2E2E2E2BEE2E2E2E2E2E2E2E2E2E2E2E2E2E2E2E2E2E2E2E2E2E2E2E2E2E2E2E2E2E2E2E2E2E2E2E2E2E2E2E2E2E2E2E2E2E2E2E2E2E2E2E2E2E2E2E2E2E2E2E2E2E2E2E2E2E2E2E2E2E2E2E2E2E2
310
E2E2E2E2E2E2E2E2E2E2E2E2E2E2E2E2E2E2E2E2E2E2E2E2E2E2E2E2E2E2E2E2E2E2E2E2E2E2E2E2E2E2E2E2E2E2E2E2E2E2E2E2E2E2E2E2E2E2E2E2E2E2E2E2E2E2E2E2E2E2E2E2E2E2E2E2E2E2E2E2E2E2E2E2E2E2E2E2E2E2E2E2E2BEE2E2E2E2F5F5F5E2E2E2E2BEE2E2E2E2E2E2E2E2E2E2E2E2E2E2E2E2E2E2E2E2E2
310
E2E2E2E2E2E2E2E2E2E2E2E2E2E2E2E2E2E2E2E2E2E2E2E2E2E2E2E2E2E2E2E2E2E2E2E2E2E2E2E2E2E2E2E2E2E2E2E2E2E2E2E2E2E2E2E2E2E2E2E2E2E2E2E2E2E2E2E2E2E2E2E2E2E2E2E2E2E2E2E2E2E2E2E2E2E2E2E2E2E2E2E2E2E2E2E2E2E2E2E2E2E2E2E2E2E2E2E2E2E2E2E2E2E2E2E2E2E2E2E2E2E2E2E2E2E2E2
310
E2E2E2E2E2E2E2E2E2E2E2E2E2E2E2E2E2E2E2BEE2E2E2E2F5F5F5E2F5E2E2BEE2E2E2E2E2E2E2E2E2E2E2E2E2E2E2E2E2E2E2E2E2E2E2E2E2E2E2E2E2E2E2E2E2E2E2E2E2E2E2E2E2E2E2E2E2E2E2E2E2E2E2E2E2E2E2E2E2E2E2E2E2E2E2E2E2E2E2E2E2E2E2E2E2E2E2E2E2E2E2E2E2E2E2E2E2E2E2E2E2E2E2E2E2E2E2
310
E2E2E2E2E2E2E2E2E2E2E2E2E2E2E2E2E2E2E2E2E2E2E2E2E2E2E2E2E2E2E2E2E2E2E2E2E2E2E2E2E2E2E2E2E2E2E2E2E2E2E2E2E2E2E2E2E2E2E2E2E2E2E2E2E2E2E2E2E2E2E2E2BEE2E2F5E2F5F5F5E2F5E2E2BEE2E2E2E2E2E2E2E2E2E2E2E2E2E2E2E2E2E2E2E2E2E2E2E2E2E2E2E2E2E2E2E2E2E2E2E2E2E2E2E2E2E2
310
E2E2E2E2E2E2E2E2E2E2E2E2E2E2E2E2E2E2E2E2E2E2E2E2E2E2E2E2E2E2E2E2E2E2E2E2E2E2E2E2E2E2E2E2E2E2E2E2E2E2E2E2E2E2E2E2E2E2E2E2E2E2E2E2E2E2E2E2E2E2E2E2E2E2E2E2E2E2E2E2E2E2E2E2E2E2E2E2E2E2E2E2E2E2E2E2E2E2E2E2E2E2E2E2E2E2E2E2E2E2E2E2E2E2E2E2E2E2E2E2E2E2E2E2E2BEE2
310
E2F5E2F5F5F5E2F5E2E2BEE2E2E2E2E2E2E2E2E2E2E2E2E2E2E2E2E2E2E2E2E2E2E2E2E2E2E2E2E2E2E2E2E2E2E2E2E2E2E2E2E2E2E2E2E2E2E2E2E2E2E2E2E2E2E2E2E2E2E2E2E2E2E2E2E2E2E2E2E2E2E2E2E2E2E2E2E2E2E2E2E2E2E2E2E2E2E2E2E2E2E2E2E2E2E2E2E2E2E2E2E2E2E2E2E2E2E2E2E2E2E2E2E2E2E2E2
310
E2E2E2E2E2E2E2E2E2E2E2E2E2E2E2E2E2E2E2E2E2E2E2E2E2E2E2E2E2E2E2E2E2E2E2E2E2E2E2E2E2E2E2E2E2E2E2E2E2E2E2BEE2E2F5E2F5F5F5E2F5E2E2BEE2E2E2E2E2E2E2E2E2E2E2E2E2E2E2E2E2E2E2E2E2E2E2E2E2E2E2E2E2E2E2E2E2E2E2E2E2E2E2E2E2E2E2E2E2E2E2E2E2E2E2E2E2E2E2E2E2E2E2E2E2E2E2
310
E2E2E2E2E2E2E2E2E2E2E2E2E2E2E2E2E2E2E2E2E2E2E2E2E2E2E2E2E2E2E2E2E2E2E2E2E2E2E2E2E2E2E2E2E2E2E2E2E2E2E2E2E2E2E2E2E2E2E2E2E2E2E2E2E2E2E2E2E2E2E2E2E2E2E2E2E2E2E2E2E2E2E2E2E2E2E2E2E2E2E2E2E2E2E2E2E2E2E2E2E2E2E2E2BEE2E2F5E2F5F5F5E2F5E2E2BEE2E2E2E2E2E2E2E2E2E2
310
E2E2E2E2E2E2E2E2E2E2E2E2E2E2E2E2E2E2E2E2E2E2E2E2E2E2E2E2E2E2E2E2E2E2E2E2E2E2E2E2E2E2E2E2E2E2E2E2E2E2E2E2E2E2E2E2E2E2E2E2E2E2E2E2E2E2E2E2E2E2E2E2E2E2E2E2E2E2E2E2E2E2E2E2E2E2E2E2E2E2E2E2E2E2E2E2E2E2E2E2E2E2E2E2E2E2E2E2E2E2E2E2E2E2E2E2E2E2E2E2E2E2E2E2E2E2E2
310
E2E2E2E2E2E2E2E2E2E2E2E2E2E2E2E2E2E2E2E2E2E2E2E2E2E2E2E2E2E2BEE2E2F5E2F5F5F5E2F5E2E2BEBEBEBEBEBEBEBEBEBEBEBEBEBEBEBEBEBEBEBEBEBEBEBEBEBEBEBEBEBEBEBEBEBEBEBEBEBEBEBEBEBEBEBEBEBEBEBEBEBEBEBEBEBEBEBEBEBEBEBEBEBEBEBEBEBEBEBEBEBEBEBEBEBEBEBEBEBEBEBEBEBEBEBEBE
310
BEBEBEBEBEBEBEBEBEBEBEBEBEBEBEBEBEBEBEBEBEBEBEBEBEBEBEBEBEBEBEBEBEBEBEBEBEBEBEBEBEBEBEBEBEBEBEBEBEBEBEBEBEBEBEBEBEBEBEBEBEBEBEBEBEBEBEBEBEBEBEBEBEBEBEBEBEBEBEBEBEBEBEBEE2E2F5E2F5F5F5E2F5E2E2E2E2E2E2E2E2E2E2E2E2E2E2E2E2E2E2E2E2E2E2E2E2E2E2E2E2E2E2E2E2E2E2
310
E2E2E2E2E2E2E2E2E2E2E2E2E2E2E2E2E2E2E2E2E2E2E2E2E2E2E2E2E2E2E2E2E2E2E2E2E2E2E2E2E2E2E2E2E2E2E2E2E2E2E2E2E2E2E2E2E2E2E2E2E2E2E2E2E2E2E2E2E2E2E2E2E2E2E2E2E2E2E2E2E2E2E2E2E2E2E2E2E2E2E2E2E2E2E2E2E2E2E2E2E2E2E2E2E2E2E2E2E2E2E2E2E2E2E2E2E2E2E2E2E2E2E2E2E2E2E2
310
E2E2E2E2E2E2E2E2E2E2E2E2F5E2F5F5F5E2F5F5F5F5F5F5F5F5E2E2E2E2E2E2E2E2E2F5F5F5F5F5F5F5F5F5F5F5F5F5F5F5F5E2E2E2E2E2E2E2E2E2F5F5F5F5F5F5F5F5F5F5F5F5F5F5F5F5E2E2E2E2E2E2E2E2E2F5F5F5F5F5F5F5F5F5F5F5F5F5F5F5F5E2E2E2E2E2E2E2E2E2F5F5F5F5F5F5F5F5F5F5F5F5F5F5F5F5E2
310
E2E2E2E2E2E2E2E2F5F5F5F5F5F5F5F5F5F5F5F5F5F5F5F5E2E2E2E2E2E2E2E2E2F5F5F5F5F5F5F5F5F5F5F5F5F5F5F5F5E2E2E2E2E2E2E2E2E2F5F5F5F5F5F5F5F5E2F5F5F5E2E2E2E2E2E2E2E2E2E2E2E2E2E2E2E2E2E2E2E2E2E2E2E2E2E2E2E2E2E2E2E2E2E2E2E2E2E2E2E2E2E2E2E2E2E2E2E2E2E2E2E2E2E2E2E2E2
310
E2E2E2E2E2E2E2E2E2E2E2E2E2E2E2E2E2E2E2E2E2E2E2E2E2E2E2E2E2E2E2E2E2E2E2E2E2E2E2E2E2E2E2E2E2E2E2E2E2E2E2E2E2E2E2E2E2E2E2E2E2E2E2E2E2E2E2E2E2E2E2E2E2E2E2E2E2E2E2E2E2E2E2E2E2E2E2E2E2E2E2E2E2E2E2E2E2E2E2E2E2E2E2E2E2E2E2E2E2E2E2E2E2E2E2E2E2E2E2E2F5EFF5F5F5F5F5
310
F5F5F5F5F5F5F5F5F5F5F5F5F5F5F5F5F5F5F5F5F5F5F5F5F5F5F5F5F5F5F5F5F5F5F5F5F5F5F5F5F5F5F5F5F5F5F5F5F5F5F5F5F5F5F5F5F5F5F5F5F5F5F5F5F5F5F5F5F5F5F5F5F5F5F5F5F5F5F5F5F5F5F5F5F5F5F5F5F5F5F5F5F5F5F5F5F5F5F5F5F5F5F5F5F5F5F5F5F5F5F5F5F5F5F5F5F5F5F5F5F5F5F5F5F5F5F5
310
F5F5F5F5F5F5F5F5F5F5F5F5F5F5F5F5F5F5F5F5F5F5F5F5F5F5F5F5F5F5F5F5F5F5F5F5F5F5F5F5F5F5F5F5F5F5F5EF
  0
XRECORD
  5
60A2
102
{ACAD_REACTORS
330
60A1
102
}
330
60A1
100
AcDbXrecord
280
     1
102
SHADEPLOT
 70
     0
102
SHADEPLOTRESLEVEL
 70
     2
102
SHADEPLOTCUSTOMDPI
 70
   300
  0
ENDSEC
  0
EOF
